#VERSION:0.83;
#TITLE:Insomnia;
#SUBTITLE:;
#ARTIST:Jason Derulo;
#TITLETRANSLIT:;
#SUBTITLETRANSLIT:;
#ARTISTTRANSLIT:;
#GENRE:Electro R&B;
#ORIGIN:;
#CREDIT:;
#BANNER:insomnia-bn.png;
#BACKGROUND:insomnia-bg.png;
#PREVIEWVID:;
#JACKET:insomnia-jacket.png;
#CDIMAGE:;
#DISCIMAGE:;
#LYRICSPATH:;
#CDTITLE:cdtitle.png;
#MUSIC:insomnia.ogg;
#OFFSET:0.000000;
#SAMPLESTART:59.548000;
#SAMPLELENGTH:17.000000;
#SELECTABLE:YES;
#BPMS:0.000=112.846;
#STOPS:;
#DELAYS:;
#WARPS:;
#TIMESIGNATURES:0.000=4=4;
#TICKCOUNTS:0.000=4;
#COMBOS:0.000=1;
#SPEEDS:0.000=1.000=0.000=0;
#SCROLLS:0.000=1.000;
#FAKES:;
#LABELS:0.000=Song Start;
#BGCHANGES:;
#KEYSOUNDS:;
#ATTACKS:
;

//---------------dance-single - ----------------
#NOTEDATA:;
#CHARTNAME:;
#STEPSTYPE:dance-single;
#DESCRIPTION:;
#CHARTSTYLE:;
#DIFFICULTY:Hard;
#METER:8;
#RADARVALUES:0.355800,0.375813,0.076243,0.203314,0.101657,196.000000,190.000000,6.000000,16.000000,0.000000,0.000000,0.000000,0.000000,0.000000,0.355800,0.375813,0.076243,0.203314,0.101657,196.000000,190.000000,6.000000,16.000000,0.000000,0.000000,0.000000,0.000000,0.000000;
#CREDIT:;
#NOTES:
// measure 0
0000
0000
0000
0000
,  // measure 1
0000
0000
0000
0000
,  // measure 2
0000
0000
0000
0000
,  // measure 3
0000
0000
0000
0000
,  // measure 4
1001
1000
0010
0100
,  // measure 5
0001
1000
0010
0100
,  // measure 6
0010
0001
0010
1000
,  // measure 7
0200
0000
1300
0020
0000
1030
2000
0000
,  // measure 8
3001
1000
0010
0000
1000
0000
0100
0000
,  // measure 9
0001
0010
0100
0001
,  // measure 10
1000
0000
0100
0000
1000
0100
0010
0002
,  // measure 11
0000
0203
0000
0320
0000
0000
1030
0010
,  // measure 12
1010
0000
0100
0010
0100
0001
0100
0010
,  // measure 13
0100
0000
0010
1000
0010
0100
0010
1000
,  // measure 14
0010
0000
1000
0001
1000
0010
1000
0001
,  // measure 15
1000
0000
0001
0100
0001
1000
0001
0100
,  // measure 16
0001
0000
0000
0000
0001
1000
0001
0000
0001
0000
1000
0000
0010
0000
1000
0000
,  // measure 17
0000
0000
0000
0000
1000
0001
1000
0000
1000
0000
0001
0000
0100
0000
0001
0000
,  // measure 18
0000
0000
0101
0000
0100
0010
0100
0001
,  // measure 19
1000
0000
1000
0000
0001
0100
0001
1000
,  // measure 20
1001
0000
0000
0001
0000
0000
0100
0000
0010
0000
0100
0000
1000
0000
0100
0000
,  // measure 21
0010
0000
0000
1000
0000
0000
0001
0000
1000
0000
0010
0000
0100
0000
0001
0000
,  // measure 22
1000
0000
0000
0001
0000
0000
0100
0000
0010
0000
0001
0000
0010
0000
0100
0000
,  // measure 23
0010
0000
1000
0000
0001
0001
0100
0000
,  // measure 24
0101
0000
0000
0001
0000
0000
1000
0000
0010
0000
0001
0000
0010
0000
1000
0000
,  // measure 25
0010
0000
0000
0100
0000
0000
0001
0000
1000
0000
0100
0000
0001
0000
0100
0000
,  // measure 26
1000
0000
0000
0001
0000
0000
0010
0000
0100
0000
0000
0010
0000
0000
0100
0000
,  // measure 27
1000
0000
0000
0000
0001
1000
0001
1000
,  // measure 28
0120
0000
0000
0000
0000
0000
0000
0000
1000
0000
0000
0000
0030
0000
2000
0000
0000
0000
0000
0000
0000
0000
0000
0000
3001
0000
0000
2000
0000
0000
0000
0000
,  // measure 29
0000
0000
0010
3000
1000
0010
0100
0001
,  // measure 30
1000
0000
0001
0000
1000
0100
0010
0001
,  // measure 31
0000
1000
0001
0000
0100
0010
0100
0010
,  // measure 32
0200
0000
0000
0000
0000
0000
0000
0000
0001
0000
0000
0000
0300
0000
0002
0000
0000
0000
0000
0000
0000
0000
0000
0000
0103
0000
0000
0002
0000
0000
0000
0000
,  // measure 33
0000
2000
0000
0003
0001
0000
3000
0000
0001
0000
0100
0000
0010
0000
1000
0000
,  // measure 34
0001
0000
1000
0000
0001
0010
0100
1000
,  // measure 35
0000
0001
1000
0000
0010
0100
0010
0100
,  // measure 36
0020
0000
0000
0000
0000
0000
0000
0000
0000
0000
0000
0000
0030
0000
0200
0000
0000
0000
0000
0000
0000
0000
0000
0000
0301
0000
0000
0002
0000
0000
0000
0003
;

//---------------dance-single - ----------------
#NOTEDATA:;
#CHARTNAME:;
#STEPSTYPE:dance-single;
#DESCRIPTION:;
#CHARTSTYLE:;
#DIFFICULTY:Medium;
#METER:6;
#RADARVALUES:0.283187,0.350240,0.063536,0.101657,0.031768,156.000000,151.000000,5.000000,8.000000,0.000000,0.000000,0.000000,0.000000,0.000000,0.283187,0.350240,0.063536,0.101657,0.031768,156.000000,151.000000,5.000000,8.000000,0.000000,0.000000,0.000000,0.000000,0.000000;
#CREDIT:;
#NOTES:
// measure 0
0000
0000
0000
0000
,  // measure 1
0000
0000
0000
0000
,  // measure 2
0000
0000
0000
0000
,  // measure 3
0000
0000
0000
0000
,  // measure 4
1001
0000
0000
0000
0100
0001
0100
0000
,  // measure 5
0001
0000
0000
0000
0010
0100
0010
0000
,  // measure 6
0001
0000
0000
0000
1000
0001
1000
0000
,  // measure 7
0200
0000
1300
2000
0000
3001
0002
0000
,  // measure 8
0103
0000
0000
0000
0100
0010
0100
0000
,  // measure 9
0001
0000
0000
0000
1000
0001
1000
0000
,  // measure 10
0010
0000
0000
0000
0010
0100
0010
0200
,  // measure 11
0000
0320
0000
0230
0000
0000
0300
0000
,  // measure 12
0110
0000
0100
0000
0001
0000
0100
0001
,  // measure 13
0100
0000
0010
0000
1000
0000
0010
1000
,  // measure 14
0010
1000
0010
0100
,  // measure 15
0001
1000
0001
0100
,  // measure 16
0010
0000
1000
0000
0010
0000
0001
0010
,  // measure 17
0100
0000
0001
0000
0010
0000
1000
0010
,  // measure 18
0001
0100
0001
0010
,  // measure 19
0100
1000
0001
0100
,  // measure 20
0101
0000
0001
0000
0001
0100
0001
0000
,  // measure 21
1000
0000
1000
0000
1000
0010
1000
0000
,  // measure 22
0010
0000
0100
0000
0010
1000
0010
0000
,  // measure 23
1000
0001
1000
0001
0100
0010
0100
0000
,  // measure 24
0101
0000
0000
0001
0000
0000
1000
0000
0010
0000
0100
0000
0010
0000
0000
0000
,  // measure 25
0100
0000
0000
0001
0000
0000
0100
0000
0010
0000
0100
0000
0001
0000
0000
0000
,  // measure 26
1000
0000
0000
0001
0000
0000
1000
0000
0010
0000
0000
0100
0000
0000
0001
0000
,  // measure 27
0100
0000
0001
0100
,  // measure 28
0101
0000
1000
0000
0010
0000
0100
0001
,  // measure 29
0100
0010
1000
0001
,  // measure 30
0100
0000
0001
0000
1000
0100
1000
0010
,  // measure 31
0000
1000
0001
0000
0100
0000
0010
0000
,  // measure 32
1000
0001
1000
0010
,  // measure 33
0100
0001
0010
0100
,  // measure 34
1000
0000
0001
0000
1000
0010
0001
0010
,  // measure 35
0000
1000
0100
0000
1000
0000
0010
0000
,  // measure 36
2000
0000
0000
0000
0000
0000
3000
0002
0000
0000
0000
0000
0103
0000
0000
0000
;

//---------------dance-single - ----------------
#NOTEDATA:;
#CHARTNAME:;
#STEPSTYPE:dance-single;
#DESCRIPTION:;
#CHARTSTYLE:;
#DIFFICULTY:Easy;
#METER:3;
#RADARVALUES:0.192422,0.254222,0.063536,0.038121,0.012707,106.000000,101.000000,5.000000,3.000000,0.000000,0.000000,0.000000,0.000000,0.000000,0.192422,0.254222,0.063536,0.038121,0.012707,106.000000,101.000000,5.000000,3.000000,0.000000,0.000000,0.000000,0.000000,0.000000;
#CREDIT:;
#NOTES:
// measure 0
0000
0000
0000
0000
,  // measure 1
0000
0000
0000
0000
,  // measure 2
0000
0000
0000
0000
,  // measure 3
0000
0000
0000
0000
,  // measure 4
1100
0000
0100
0000
,  // measure 5
1000
0000
0010
0000
,  // measure 6
1000
0000
0001
0000
,  // measure 7
0010
0000
0000
0010
0000
0000
0010
0000
,  // measure 8
0001
0000
0100
0000
,  // measure 9
0001
0000
1000
0000
,  // measure 10
0001
0000
0000
0000
0010
0000
0000
0100
,  // measure 11
0000
0100
0000
0100
0000
0000
1000
0000
,  // measure 12
1100
0000
0001
0100
,  // measure 13
0001
0000
1000
0010
,  // measure 14
1000
0000
0000
0000
0010
0000
0000
0100
,  // measure 15
0000
0001
0000
0100
0000
0001
0000
0000
,  // measure 16
1000
0000
0010
1000
,  // measure 17
0100
0000
0010
0100
,  // measure 18
1000
0000
0001
1000
,  // measure 19
0010
1000
0001
0100
,  // measure 20
0101
0000
0000
0000
0001
0100
0001
0000
,  // measure 21
0000
0000
0000
0000
1000
0100
1000
0000
,  // measure 22
0000
0000
0000
0000
0010
0100
0010
0000
,  // measure 23
1000
0100
0010
0001
,  // measure 24
0011
0000
0000
0000
0010
0001
0010
0000
,  // measure 25
0000
0000
0000
0000
0010
0100
0010
0000
,  // measure 26
1000
0000
0010
0000
,  // measure 27
0100
0000
0001
0000
,  // measure 28
0110
0000
0000
0000
0000
0000
0000
0000
0000
0000
0000
0000
0000
0000
0000
0000
0010
0000
0000
0000
0000
0000
0000
0000
0100
0000
0000
0020
0000
0000
0000
0000
,  // measure 29
0000
0000
0000
0000
0000
0030
0000
0000
0100
0000
0000
0000
0000
0000
0000
0000
,  // measure 30
0001
0000
0001
0000
1000
0100
1000
0000
,  // measure 31
0001
1000
0001
0000
0100
0000
0010
0000
,  // measure 32
1000
0000
0000
0000
0000
0000
0000
0000
0000
0000
0000
0000
0000
0000
0000
0000
0001
0000
0000
0000
0000
0000
0000
0000
0100
0000
0000
0002
0000
0000
0000
0000
,  // measure 33
0000
1003
0000
0001
,  // measure 34
1000
0000
1000
0000
0001
0010
0001
0000
,  // measure 35
1000
0100
1000
0000
0010
0000
0100
0000
,  // measure 36
0002
0000
0000
0003
0000
0000
0000
0000
;

//---------------dance-single - ----------------
#NOTEDATA:;
#CHARTNAME:;
#STEPSTYPE:dance-single;
#DESCRIPTION:;
#CHARTSTYLE:;
#DIFFICULTY:Beginner;
#METER:1;
#RADARVALUES:0.108918,0.160110,0.063536,0.000000,0.000000,60.000000,55.000000,5.000000,0.000000,0.000000,0.000000,0.000000,0.000000,0.000000,0.108918,0.160110,0.063536,0.000000,0.000000,60.000000,55.000000,5.000000,0.000000,0.000000,0.000000,0.000000,0.000000,0.000000;
#CREDIT:;
#NOTES:
// measure 0
0000
0000
0000
0000
,  // measure 1
0000
0000
0000
0000
,  // measure 2
0000
0000
0000
0000
,  // measure 3
0000
0000
0000
0000
,  // measure 4
0011
0000
0000
0000
,  // measure 5
0001
0000
0000
0000
,  // measure 6
1000
0000
0000
0000
,  // measure 7
0010
0000
0000
0000
,  // measure 8
0100
0000
0000
0000
,  // measure 9
0001
0000
0000
0000
,  // measure 10
1000
0000
0000
0000
,  // measure 11
0001
0000
0000
0000
,  // measure 12
1001
0000
0000
0100
,  // measure 13
0001
0000
0000
0100
,  // measure 14
1000
0000
0000
1000
,  // measure 15
0001
0000
0000
0010
,  // measure 16
1000
0000
0000
1000
,  // measure 17
0001
0000
0000
0100
,  // measure 18
0001
0000
0000
0000
,  // measure 19
0010
1000
0000
0100
,  // measure 20
1100
0000
0001
0000
,  // measure 21
1000
0000
0001
0000
,  // measure 22
0100
0000
0010
0000
,  // measure 23
0100
0000
0010
0000
,  // measure 24
1010
0000
0010
0000
,  // measure 25
0100
0000
0001
0000
,  // measure 26
1000
0000
1000
0000
,  // measure 27
0001
0000
0001
0000
,  // measure 28
1001
0000
0000
0000
,  // measure 29
0001
0000
0000
0000
,  // measure 30
0001
0001
0000
1000
,  // measure 31
0000
0010
0000
1000
,  // measure 32
0001
0000
0000
0000
,  // measure 33
1000
0000
0000
0000
,  // measure 34
1000
1000
0001
0000
,  // measure 35
1000
0000
0010
0000
,  // measure 36
1000
0000
0000
0000
;
