#TITLE:Inside Out;
#SUBTITLE:;
#ARTIST:Britney Spears;
#TITLETRANSLIT:;
#SUBTITLETRANSLIT:;
#ARTISTTRANSLIT:;
#GENRE:Electropop;
#CREDIT:;
#BANNER:io-bn.png;
#BACKGROUND:io-bg.png;
#LYRICSPATH:;
#CDTITLE:cdtitle.png;
#MUSIC:inside out.ogg;
#OFFSET:-0.050000;
#SAMPLESTART:47.130001;
#SAMPLELENGTH:18.000000;
#SELECTABLE:YES;
#BPMS:0.000000=60.000000
,48.000000=120.000000
,112.000000=60.000000
,113.000000=120.000000
,115.000000=60.000000
,115.500000=120.000000
,126.500000=60.000000
,127.500000=120.000000
,129.500000=60.000000
,130.000000=120.000000
,141.000000=60.000000
;
#STOPS:
;
#BGCHANGES:;
#KEYSOUNDS:;
#ATTACKS:;

//---------------dance-single - ----------------
#NOTES:
     dance-single:
     :
     Hard:
     9:
     0.463849,0.787239,0.249765,0.288190,0.523545,338.000000,312.000000,26.000000,30.000000,0.000000,0.000000,0.463849,0.787239,0.249765,0.288190,0.523545,338.000000,312.000000,26.000000,30.000000,0.000000,0.000000:
// measure 0
0000
0000
0000
0000
,  // measure 1
0000
0000
0000
0000
,  // measure 2
1100
0000
0100
0100
0000
0000
0000
0000
0011
0000
0010
0010
0000
0000
0100
0000
,  // measure 3
0110
0000
0000
0000
0010
0000
0010
0000
0000
0000
0000
0000
0000
0000
0100
0001
0100
0000
0001
0000
0100
0000
0010
0000
0000
0000
0000
0000
0000
0000
0000
0000
,  // measure 4
0010
0100
0010
0100
0010
0100
0010
0100
0010
0000
0100
0000
0000
0000
0000
0000
1000
0001
1000
0001
1000
0000
0010
0100
0010
0000
0010
0000
0000
0000
0000
0000
,  // measure 5
0100
0001
0100
0001
0100
0000
0010
1000
0010
0000
1000
0000
0100
0000
1000
0000
0010
1000
0010
1000
0010
0000
0100
0010
0100
0000
1000
0000
0100
0000
0010
0000
,  // measure 6
0100
0010
0100
0010
0100
0010
0100
0010
1000
0000
1000
0000
0000
0000
0000
0000
0001
0010
0001
0010
0001
0010
0001
0010
0001
0000
0001
0000
0000
0000
0000
0000
,  // measure 7
1000
0100
1000
0100
1000
0000
0001
1000
0001
0000
0100
0000
0010
0000
0100
0000
0001
0010
0001
0010
0001
0000
1000
0010
1000
0000
0100
0000
0010
0000
0001
0000
,  // measure 8
0022
0000
0000
0033
0101
0000
0000
0000
1000
0010
0001
0010
1000
0010
0100
0001
,  // measure 9
0000
0100
0010
0100
0000
0010
1000
0010
0000
0100
0001
0100
0000
0001
0010
0100
,  // measure 10
0220
0000
0000
0330
0110
0000
0000
0000
0100
0001
1000
0010
0100
0010
1000
0010
,  // measure 11
0000
0000
0100
0000
0001
0000
0100
0000
0000
0000
0010
0000
0100
0000
0010
0000
0220
0000
0000
0000
0000
0330
0000
0000
0000
0000
0100
0000
0010
0000
0100
0000
,  // measure 12
0202
0000
0000
0303
0100
0010
0001
0010
,  // measure 13
1000
0000
0100
0000
0010
0000
0100
0000
0010
0100
0010
0100
0010
0100
0010
0100
,  // measure 14
0220
0000
0000
0330
0001
0100
0010
1000
,  // measure 15
0010
0001
0010
1000
0100
0000
0100
0000
,  // measure 16
0220
0000
0000
0330
0010
0001
1000
0001
,  // measure 17
0100
0010
1000
0001
1000
0010
0010
0010
,  // measure 18
1010
1000
0000
0000
1001
0001
0000
0000
,  // measure 19
1000
0000
0001
0000
0100
0010
0100
0010
0100
0010
0100
0010
0100
0000
0000
0000
,  // measure 20
2020
0000
0000
3030
1000
0100
0001
0100
,  // measure 21
1000
0000
0100
0000
0010
0000
0001
0000
0010
0100
0010
0100
0010
0100
0010
0100
,  // measure 22
0220
0000
0000
0330
0100
1000
0010
1000
,  // measure 23
0100
0001
0100
1000
0100
0000
0100
0000
,  // measure 24
0220
0000
0000
0330
0100
0010
0100
0010
,  // measure 25
0001
1000
0001
1000
0010
0100
0100
0100
,  // measure 26
0110
0100
0000
0000
0110
0010
0000
0000
,  // measure 27
0010
0100
0010
0100
0010
0100
0010
0100
0010
0000
0000
0000
1000
0000
0000
0000
,  // measure 28
1001
0000
0202
0000
0000
0303
0110
1010
,  // measure 29
0000
0100
0020
0100
0030
0100
0100
0010
,  // measure 30
0010
0100
0100
0001
0001
1000
1000
0001
,  // measure 31
0001
0000
0001
0010
0100
0010
0001
0010
0100
0010
0001
0000
0000
0000
2002
0000
,  // measure 32
0000
0000
3003
0110
1001
0000
1000
0020
,  // measure 33
1000
0030
1000
1000
0100
0100
0010
0010
,  // measure 34
0001
0000
0001
0000
0010
0000
0010
0000
0100
0000
0100
0000
1000
0100
0010
0100
,  // measure 35
1000
0100
0010
0100
2000
0000
0000
3000
0200
0000
0000
0300
1000
0000
0200
0000
,  // measure 36
0300
0020
0000
0030
0202
0000
0000
0003
0000
0000
0000
0000
0000
0000
0000
0000
,  // measure 37
0000
0300
0000
0000
;

//---------------dance-single - ----------------
#NOTES:
     dance-single:
     :
     Medium:
     7:
     0.289562,0.411511,0.278584,0.297796,0.187323,211.000000,182.000000,29.000000,31.000000,0.000000,0.000000,0.289562,0.411511,0.278584,0.297796,0.187323,211.000000,182.000000,29.000000,31.000000,0.000000,0.000000:
// measure 0
0000
0000
0000
0000
,  // measure 1
0000
0000
0000
0000
,  // measure 2
1100
0000
0000
0100
0000
0000
0000
0000
0011
0000
0000
0010
0000
0000
0200
0000
,  // measure 3
0301
0000
0000
0001
0000
0000
0000
0000
0100
0000
0000
0100
0000
0000
0000
0000
,  // measure 4
0001
0010
0100
1000
0000
0000
0000
0000
1000
0100
0010
0001
0000
0000
0000
0000
,  // measure 5
0001
0000
0000
0000
0000
0000
0000
0000
0000
0000
0000
0000
0010
0000
0000
0000
0000
0000
0000
0000
0000
0000
0000
0000
0100
0000
0000
0000
0000
0000
0000
0000
0000
0000
0000
0000
0010
0000
0000
0000
0000
0000
0000
0000
0000
0000
0000
0000
1000
0000
0000
0000
0000
0000
0000
0000
0000
0000
0000
0000
0000
0000
0000
0000
0000
0000
0000
0000
0000
0000
0000
0000
0100
0000
0000
0000
0000
0000
0000
0000
0000
0000
0000
0000
0100
0000
0000
0000
0000
0000
0000
0000
0000
0000
0000
0000
1100
0000
0000
0000
0000
0000
0000
0000
0000
0000
0000
0000
0000
0000
0000
0000
0000
0000
0000
0000
0000
0000
0000
0000
0000
0000
0000
0000
0000
0000
0000
0000
0000
0000
0000
0000
0000
0100
0000
0000
0000
0000
0000
0000
0000
0000
0000
0000
0100
0000
0000
0000
0000
0000
0000
0000
0000
0000
0000
0000
0000
0000
0000
0000
0000
0000
0000
0000
0000
0000
0000
0000
0001
0000
0000
0000
0000
0000
0000
0000
0000
0000
0000
0000
0001
0000
0000
0000
0000
0000
0000
0000
0000
0000
0000
0000
,  // measure 6
0010
0100
0010
1000
0000
0000
0000
0000
0100
0010
0100
0001
0000
0000
0000
0000
,  // measure 7
1000
0000
0000
0000
0000
0000
0000
0000
0000
0000
0000
0000
0100
0000
0000
0000
0000
0000
0000
0000
0000
0000
0000
0000
0001
0000
0000
0000
0000
0000
0000
0000
0000
0000
0000
0000
0010
0000
0000
0000
0000
0000
0000
0000
0000
0000
0000
0000
0100
0000
0000
0000
0000
0000
0000
0000
0000
0000
0000
0000
0000
0000
0000
0000
0000
0000
0000
0000
0000
0000
0000
0000
0001
0000
0000
0000
0000
0000
0000
0000
0000
0000
0000
0000
0001
0000
0000
0000
0000
0000
0000
0000
0000
0000
0000
0000
0101
0000
0000
0000
0000
0000
0000
0000
0000
0000
0000
0000
0000
0000
0000
0000
0000
0000
0000
0000
0000
0000
0000
0000
0000
0000
0000
0000
0000
0000
0000
0000
0000
0000
0000
0000
0000
0000
0100
0000
0000
0000
0000
0000
0000
0000
0000
0000
0100
0000
0000
0000
0000
0000
0000
0000
0000
0000
0000
0000
0000
0000
0000
0000
0000
0000
0000
0000
0000
0000
0000
0000
1000
0000
0000
0000
0000
0000
0000
0000
0000
0000
0000
0000
1000
0000
0000
0000
0000
0000
0000
0000
0000
0000
0000
0000
,  // measure 8
2200
0000
0000
3300
1100
0000
0000
0000
2000
0000
0000
3000
1000
0010
0100
0001
,  // measure 9
0000
0001
0010
0100
0000
0001
0100
1000
0000
0010
0100
1000
0000
1000
0100
0010
,  // measure 10
0220
0000
0000
0330
0110
0000
0000
0000
0020
0000
0000
0030
0100
0010
1000
0001
,  // measure 11
0000
0000
0001
0000
0010
0000
0100
0000
0000
0000
0010
0000
0100
0000
1000
0000
2200
0000
0000
0000
0000
3300
0000
0000
0000
0000
0000
0000
0000
0000
0000
0000
,  // measure 12
0202
0000
0000
0303
0100
0000
0001
0000
,  // measure 13
1000
0010
0001
0001
,  // measure 14
0202
0000
0000
0303
0001
0000
1000
0000
,  // measure 15
0100
0100
0001
0001
,  // measure 16
0022
0000
0000
0033
0010
0000
1000
0000
,  // measure 17
0100
0000
0010
0000
0010
0100
0010
0100
,  // measure 18
0110
0000
1100
0000
,  // measure 19
1000
0100
0010
0001
1000
0000
0001
0000
,  // measure 20
2002
0000
0000
3003
1000
0000
0001
0000
,  // measure 21
1000
0001
0010
0010
,  // measure 22
0220
0000
0000
0330
0100
0000
0010
0000
,  // measure 23
0100
0010
0100
0100
,  // measure 24
0220
0000
0000
0330
0100
0000
0010
0000
,  // measure 25
0001
0000
0001
0000
0100
0010
0100
0010
,  // measure 26
0110
0000
1001
0000
,  // measure 27
0110
0010
0001
0001
0011
0000
0110
0000
,  // measure 28
1100
0000
2002
0000
0000
3003
1001
1001
,  // measure 29
0000
0100
0002
0000
0003
1000
0001
1000
,  // measure 30
0000
0100
0000
0010
0100
1000
0000
0001
,  // measure 31
0000
1000
0000
0100
0000
1000
0000
2002
,  // measure 32
0000
0000
3003
1001
1001
0000
1000
0020
,  // measure 33
0000
0030
1000
0010
1000
0000
0001
0000
,  // measure 34
1000
0100
0020
0000
0100
0030
0010
0000
,  // measure 35
0100
0000
2000
0000
0001
0000
3002
1000
,  // measure 36
0000
1000
0000
0000
2003
0000
0000
0000
0000
0000
0000
0000
0000
0000
0000
0000
,  // measure 37
0000
3000
0000
0000
;

//---------------dance-single - ----------------
#NOTES:
     dance-single:
     :
     Easy:
     3:
     0.167425,0.232593,0.144095,0.413072,0.000000,122.000000,107.000000,15.000000,43.000000,0.000000,0.000000,0.167425,0.232593,0.144095,0.413072,0.000000,122.000000,107.000000,15.000000,43.000000,0.000000,0.000000:
// measure 0
0000
0000
0000
0000
,  // measure 1
0000
0000
0000
0000
,  // measure 2
1000
0000
0000
0000
0001
0000
0000
0200
,  // measure 3
0310
0000
0100
0000
,  // measure 4
0010
0110
1000
0100
,  // measure 5
0001
0000
0010
0100
0010
0000
0100
0010
,  // measure 6
0100
0110
0010
0100
,  // measure 7
1000
0000
0100
1000
0100
0000
0010
0001
,  // measure 8
0010
0000
0000
0000
0011
0000
0000
0000
2000
0000
0000
3000
1000
0000
0000
0000
,  // measure 9
0001
0000
0010
0000
0100
0000
1000
0100
,  // measure 10
1000
0000
0000
0000
1100
0000
0000
0000
0002
0000
0000
0003
0001
0000
0000
0000
,  // measure 11
0010
0000
0000
0000
0000
0000
0000
0000
0100
0000
0000
0000
0000
0000
0000
0000
2000
0000
0000
0000
0000
3000
0000
0000
0000
0000
0000
0000
0000
0000
0000
0000
,  // measure 12
2002
0000
0000
3003
0001
0000
0000
0000
,  // measure 13
2200
0000
0000
3300
0001
0000
0000
0000
,  // measure 14
0200
0000
0320
0000
,  // measure 15
2030
0000
3002
1000
,  // measure 16
2003
0000
0000
3000
0010
0000
0000
0000
,  // measure 17
0220
0000
0000
0330
0010
0000
0000
0000
,  // measure 18
0002
0000
2003
0000
,  // measure 19
3020
0000
0230
0001
,  // measure 20
0302
0000
0000
0003
0001
0000
0000
0000
,  // measure 21
2002
0000
0000
3003
1000
0000
0000
0000
,  // measure 22
0200
0000
0302
0000
,  // measure 23
0023
0000
0230
0010
,  // measure 24
0320
0000
0000
0030
0010
0000
0000
0000
,  // measure 25
0202
0000
0000
0303
0100
0000
0000
0000
,  // measure 26
0002
0000
2003
0000
,  // measure 27
3020
0000
0230
0010
,  // measure 28
0310
0000
0202
0000
0000
0303
0110
0110
,  // measure 29
0000
0100
0020
0000
0030
0100
0000
0010
,  // measure 30
0000
0100
0000
1000
0000
0100
0000
0010
,  // measure 31
0000
0001
0000
0100
0000
0010
0000
0220
,  // measure 32
0000
0000
0330
0110
0110
0000
0010
0200
,  // measure 33
0000
0300
0010
0000
0100
0000
0010
0000
,  // measure 34
0001
0000
0020
0000
0000
0030
0100
0000
,  // measure 35
0010
0020
0000
0230
,  // measure 36
0000
0320
0000
0000
,  // measure 37
0000
0030
0000
0000
;
