#TITLE:In copore sano;
#SUBTITLE:;
#ARTIST:Konstrakta;
#TITLETRANSLIT:;
#SUBTITLETRANSLIT:;
#ARTISTTRANSLIT:;
#GENRE:Art Pop;
#CREDIT:;
#BANNER:In copore sano-bn.png;
#BACKGROUND:In copore sano-bg.png;
#LYRICSPATH:;
#CDTITLE:cdtitle.png;
#MUSIC:In copore sano.ogg;
#OFFSET:0.106000;
#SAMPLESTART:62.080002;
#SAMPLELENGTH:14.118000;
#SELECTABLE:YES;
#BPMS:0.000000=136.000000
;
#STOPS:18.000000=1.324000,
31.000000=1.324000
;
#BGCHANGES:6.000=In copore sano.avi=1.000=0=0=0=StretchNoLoop====,
99999=-nosongbg-=1.000=0=0=0 // don't automatically add -songbackground-
;
#KEYSOUNDS:;
#ATTACKS:;

//---------------dance-single - ----------------
#NOTES:
     dance-single:
     X-Scale 2:
     Beginner:
     1:
     0.107376,0.135579,0.000000,0.000000,0.000000,79.000000,79.000000,0.000000,0.000000,0.000000,0.000000,0.107376,0.135579,0.000000,0.000000,0.000000,79.000000,79.000000,0.000000,0.000000,0.000000,0.000000:
// measure 0
0000
0000
0000
0000
,  // measure 1
0000
0000
0001
0000
,  // measure 2
0000
0000
0010
0000
,  // measure 3
0000
0000
0100
0000
,  // measure 4
0000
1000
0000
0001
,  // measure 5
0000
0000
0000
1000
,  // measure 6
0000
0000
0000
0010
,  // measure 7
0000
0000
1000
0000
,  // measure 8
0001
0000
0000
0100
,  // measure 9
0000
0000
0000
0001
,  // measure 10
0000
0000
0000
1000
,  // measure 11
0000
0000
0000
0001
,  // measure 12
0000
0000
0000
0100
,  // measure 13
0000
0000
0000
0001
,  // measure 14
0000
0000
0000
1000
,  // measure 15
0000
0000
0000
0100
,  // measure 16
0000
0000
0000
1000
,  // measure 17
0000
0000
0000
0001
,  // measure 18
0000
0000
0000
0100
,  // measure 19
0000
0000
0000
0001
,  // measure 20
0000
0000
0000
0010
,  // measure 21
0000
0000
0000
0100
,  // measure 22
0000
0000
0000
1000
,  // measure 23
0000
0000
0000
0000
,  // measure 24
0001
0000
0000
0000
,  // measure 25
1000
0000
0000
0000
,  // measure 26
0010
0000
0000
0000
,  // measure 27
1000
0000
0000
0000
,  // measure 28
0001
0000
0000
0000
,  // measure 29
0010
0000
0000
0000
,  // measure 30
0100
0000
0000
0000
,  // measure 31
1000
0000
0000
0001
,  // measure 32
0000
0000
0000
0000
,  // measure 33
0000
0000
0000
0000
,  // measure 34
0001
0000
0100
0000
,  // measure 35
0001
0000
1000
0000
,  // measure 36
0001
0000
0100
0000
,  // measure 37
0001
0000
1000
0000
,  // measure 38
0100
0000
0010
0000
,  // measure 39
0100
0000
1000
0000
,  // measure 40
0100
0000
0010
0000
,  // measure 41
0001
0000
1000
0000
,  // measure 42
0001
0000
0100
0000
,  // measure 43
0010
0000
0100
0000
,  // measure 44
0001
0000
0010
0000
,  // measure 45
0100
0000
1000
0000
,  // measure 46
0001
0000
1000
0000
,  // measure 47
0010
0000
1000
0000
,  // measure 48
0001
0000
1000
0000
,  // measure 49
0100
0000
0010
0000
,  // measure 50
0001
0000
0100
0000
,  // measure 51
0010
0000
1000
0000
,  // measure 52
0001
0000
0000
0000
,  // measure 53
1000
0000
0001
0000
,  // measure 54
0100
0000
0001
0000
,  // measure 55
0010
0000
0100
0000
,  // measure 56
1000
0000
0001
0000
,  // measure 57
1000
0000
0000
0000
;

//---------------dance-single - ----------------
#NOTES:
     dance-single:
     X-Scale 6:
     Easy:
     3:
     0.263682,0.298273,0.066600,0.180772,0.000000,194.000000,187.000000,7.000000,19.000000,0.000000,0.000000,0.263682,0.298273,0.066600,0.180772,0.000000,194.000000,187.000000,7.000000,19.000000,0.000000,0.000000:
// measure 0
0000
0000
0000
0000
,  // measure 1
0000
0000
0000
0000
1000
0001
0000
0000
,  // measure 2
0100
0001
0000
0000
0010
0100
0000
0000
,  // measure 3
1000
0100
0000
0000
0010
0001
0000
0000
,  // measure 4
1000
0001
0200
0000
0000
0000
0301
0100
,  // measure 5
0000
0000
0010
0100
0000
0000
0001
1000
,  // measure 6
0000
0000
0100
0010
0000
0000
0001
0010
,  // measure 7
0000
0000
0100
1000
0002
0000
0000
0000
,  // measure 8
0103
0000
0000
0001
0000
0000
1000
0000
,  // measure 9
0010
0000
0000
1000
0000
0000
0001
0000
,  // measure 10
0100
0000
0000
0001
0000
0000
0010
0000
,  // measure 11
0020
0000
0000
0100
0000
0000
0031
0000
,  // measure 12
1000
0000
0000
0001
0000
0000
0100
0000
,  // measure 13
0001
0000
0000
0010
0000
0000
0100
0000
,  // measure 14
1000
0000
0000
0001
0000
0000
0100
0000
,  // measure 15
0200
0000
0000
0010
0000
0000
0301
0000
,  // measure 16
0100
0000
0001
0000
1000
0200
0000
2300
,  // measure 17
0000
3001
0010
0001
,  // measure 18
1000
0000
0100
0020
0000
0030
0001
0200
,  // measure 19
0000
0302
0000
1003
0002
0000
0103
0000
,  // measure 20
0010
0000
1000
0000
0001
0010
0100
0000
,  // measure 21
1000
0000
0001
0000
0100
0001
1000
0000
,  // measure 22
0100
0000
0010
0000
0001
0010
0100
0000
,  // measure 23
2000
0000
0000
0010
0000
0000
0001
0000
,  // measure 24
3010
0000
0000
1000
0000
0000
0100
0000
,  // measure 25
0020
0000
0002
0033
0000
0000
0001
0000
,  // measure 26
1000
0000
0000
0010
0000
0000
0100
0000
,  // measure 27
0002
0000
2000
3003
0000
0000
1000
0000
,  // measure 28
0010
0000
0000
0100
0000
0000
0001
0000
,  // measure 29
0020
0000
0200
0330
0000
0000
1000
0000
,  // measure 30
0001
0000
0000
0100
0000
0000
0001
0000
,  // measure 31
2000
0000
0200
3300
0000
0000
1100
0000
,  // measure 32
0000
0000
0000
0000
,  // measure 33
0000
0000
0000
0000
,  // measure 34
0011
0001
0010
0100
,  // measure 35
1000
0100
0010
0001
,  // measure 36
0100
0010
0100
0001
,  // measure 37
1000
0001
1000
0000
0010
0100
0010
0000
,  // measure 38
0100
0001
1000
0100
,  // measure 39
0010
0001
0100
0001
,  // measure 40
0010
0100
1000
0001
,  // measure 41
0100
0001
0100
0000
0010
1000
0010
0000
,  // measure 42
1000
0000
0000
0100
0000
0000
1100
0000
,  // measure 43
1000
0000
0000
0001
0000
0000
0101
0000
,  // measure 44
0001
0000
0000
1000
0000
0000
1010
0000
,  // measure 45
0010
0000
0000
0100
0000
0000
0110
0000
,  // measure 46
0000
0010
0000
1000
,  // measure 47
0000
0001
0000
0100
,  // measure 48
0000
0001
0000
1000
,  // measure 49
0000
0100
0000
0010
,  // measure 50
0000
0001
0000
0100
,  // measure 51
0000
0001
0000
1000
,  // measure 52
0000
0001
0000
0000
,  // measure 53
1000
0100
1000
0100
,  // measure 54
0010
0001
0010
0001
,  // measure 55
0100
0010
0100
0010
,  // measure 56
1000
0001
1000
0001
,  // measure 57
1001
0000
0000
0000
;

//---------------dance-single - ----------------
#NOTES:
     dance-single:
     X-Scale 9:
     Medium:
     6:
     0.421347,0.569431,0.114172,0.275915,0.042814,310.000000,298.000000,12.000000,29.000000,0.000000,0.000000,0.421347,0.569431,0.114172,0.275915,0.042814,310.000000,298.000000,12.000000,29.000000,0.000000,0.000000:
// measure 0
0000
0000
0000
0000
,  // measure 1
0000
0000
0000
0000
0001
0001
0000
1000
,  // measure 2
1000
0000
1001
0000
0010
0010
0000
0100
,  // measure 3
0100
0000
0110
0000
0001
0001
0000
0100
,  // measure 4
0100
0000
0101
0000
0000
0000
1000
1000
,  // measure 5
0000
0100
0100
0000
1100
0000
0001
0001
,  // measure 6
0000
1000
1000
0000
1001
0000
0010
0010
,  // measure 7
0000
0001
0001
0000
0011
0000
0000
0000
,  // measure 8
1000
0100
0000
0100
0010
0000
0001
0000
,  // measure 9
1000
0010
0100
0001
0000
0010
0100
1000
,  // measure 10
0100
0001
0100
0000
1000
0100
0020
0030
,  // measure 11
0020
0000
0000
0001
0000
0000
0130
1000
,  // measure 12
0001
0000
0000
0100
0001
0000
1000
0000
,  // measure 13
0010
1000
0001
0010
0100
0000
0010
0001
,  // measure 14
1000
0010
0200
0010
0010
0000
0302
0003
,  // measure 15
0002
0000
0100
0100
0100
0000
1000
0000
,  // measure 16
0103
0000
0001
0010
0100
0000
0010
0000
,  // measure 17
0001
0000
1000
0001
0100
0000
0101
0000
,  // measure 18
0001
0000
0010
0100
1000
0000
0001
0000
,  // measure 19
1000
0000
0010
1000
0001
0000
1001
0000
,  // measure 20
1000
0000
0010
0000
0001
0010
2000
3000
,  // measure 21
2000
0000
0000
0001
3001
0000
0102
0003
,  // measure 22
0002
0000
0000
0100
0103
0000
0210
0300
,  // measure 23
0200
0001
1000
0001
,  // measure 24
0310
0000
0010
0000
0000
0000
0100
0000
0100
0000
0000
0000
0001
1000
0000
0000
,  // measure 25
0200
0000
2000
3300
1000
0000
0100
0000
,  // measure 26
0010
0000
0001
0000
0000
0000
0010
0000
0100
0000
0000
0000
0010
0001
0000
0000
,  // measure 27
2000
0000
0002
3003
0100
0000
0001
0000
,  // measure 28
0010
0000
0100
0000
0000
0000
1000
0000
0100
0000
0000
0000
0010
0001
0000
0000
,  // measure 29
0020
0000
0200
0330
1000
0000
0001
0000
,  // measure 30
0100
0000
0001
0000
0000
0000
0010
0000
0100
0000
0000
0000
1000
0100
0000
0000
,  // measure 31
2000
0000
0000
0000
0002
0000
3003
0000
1000
0000
0000
1000
0001
0000
0000
0000
,  // measure 32
0010
0000
0100
0010
0001
0000
1000
0001
,  // measure 33
0100
0001
0000
0000
0000
0000
0000
0000
,  // measure 34
1100
0000
1000
0001
2000
0000
0010
0000
,  // measure 35
3001
0000
0010
0100
0020
0000
1000
0000
,  // measure 36
0031
0000
0100
0010
0200
0000
0001
0000
,  // measure 37
0310
0100
0001
1000
0010
0100
0001
1000
,  // measure 38
0100
0000
0010
0100
0020
0000
1000
0000
,  // measure 39
0031
0000
0100
0001
0200
0000
0010
0000
,  // measure 40
0301
0000
1000
0100
2000
0000
0001
0000
,  // measure 41
3010
0100
0001
1000
0010
0100
0001
0000
,  // measure 42
1000
0000
0000
0100
0000
0000
1100
0000
,  // measure 43
1000
0100
0000
0100
0001
0100
1000
0000
,  // measure 44
1000
0001
0000
0100
0001
0000
1000
0000
,  // measure 45
0001
0010
0000
0010
1000
0010
0001
0000
,  // measure 46
1000
0010
0100
0010
1000
0010
0100
0010
,  // measure 47
1000
0000
0001
0000
0100
0001
0100
0000
,  // measure 48
0010
0100
1000
0100
0010
0100
1000
0100
,  // measure 49
0020
0030
0200
0300
0020
0030
0200
0300
,  // measure 50
0001
0010
1000
0010
0001
0100
1000
0100
,  // measure 51
0001
0000
0001
0100
0010
0000
1000
0000
,  // measure 52
0001
0010
0100
1000
0000
0000
0001
0001
,  // measure 53
0001
0010
1000
0100
,  // measure 54
0001
0010
1000
0100
,  // measure 55
0001
0100
1000
0001
0010
1000
0001
1000
,  // measure 56
0010
0000
0100
0010
0100
0000
0001
0010
0001
0000
1000
0010
1000
0000
0001
0100
,  // measure 57
0001
0000
0000
0000
;

//---------------dance-single - ----------------
#NOTES:
     dance-single:
     X-Scale 12:
     Hard:
     8:
     0.565421,0.683840,0.247372,0.304457,0.214072,416.000000,390.000000,26.000000,32.000000,24.000000,0.000000,0.565421,0.683840,0.247372,0.304457,0.214072,416.000000,390.000000,26.000000,32.000000,24.000000,0.000000:
// measure 0
0000
0000
0000
0000
,  // measure 1
0000
0000
0000
0000
0000
0000
0000
0000
1000
0000
0100
0000
1000
0001
0000
0000
,  // measure 2
0001
0000
0010
0000
0000
0000
1000
0010
0001
0000
0100
0000
0000
0000
0010
0100
,  // measure 3
0001
0000
0000
0000
0101
0000
0000
0000
0100
0000
0001
0000
1000
0001
0000
0000
,  // measure 4
0010
0100
2200
0000
0000
3300
1001
0010
,  // measure 5
1000
0001
0000
0000
0010
0000
0000
0100
0000
0000
1000
0001
0100
0000
0000
0001
,  // measure 6
0000
0000
0010
0100
1000
0000
0000
0000
1001
0000
0000
0000
1000
0000
0010
0000
,  // measure 7
1000
0001
0000
0000
1000
0000
0100
0000
2200
0000
0000
0000
0000
0000
3300
0000
,  // measure 8
1001
0000
0000
0000
1000
0000
0100
0000
0100
0010
0100
1000
0001
0000
0000
0000
,  // measure 9
1000
0100
00M0
0100
0001
1000
0001
0000
,  // measure 10
0001
0000
0010
0000
0M00
0000
0010
0000
1000
0001
0100
0000
0201
0000
0300
0000
,  // measure 11
1020
0000
1000
0000
0000
0000
0001
0000
0001
0000
0000
0000
0130
0010
1000
0001
,  // measure 12
1000
1000
0000
0001
0010
0001
0100
00M0
,  // measure 13
0100
1000
0000
0001
0100
0010
1000
0000
,  // measure 14
0010
0000
0100
0000
M000
0000
0100
0000
1000
0010
0100
0010
1000
0000
0001
0000
,  // measure 15
0100
0000
0004
0000
1003
0000
1000
0000
0010
0000
0000
0010
0100
0000
0010
0000
,  // measure 16
1000
0000
0010
0000
0M00
0000
0010
0000
0001
0000
1000
0001
0100
0000
0200
0000
,  // measure 17
0010
0000
1300
0100
0002
0000
1003
0001
,  // measure 18
0100
0000
0010
0000
0M00
0000
0010
0000
0001
0010
0100
0010
0001
0000
1000
0000
,  // measure 19
0001
0000
0010
0000
0M00
0000
0010
0000
1000
0010
0100
0001
1000
0000
0001
0000
,  // measure 20
0010
0100
000M
0100
0001
1000
2002
3003
,  // measure 21
0210
0010
0000
0001
0301
0000
0022
0033
,  // measure 22
2001
0000
0001
0000
0000
0000
0100
0000
3100
0000
1000
0100
0010
0000
0000
0000
,  // measure 23
1001
0000
4000
0000
3001
0000
0001
0000
0001
0000
0000
0100
0001
0000
1000
0000
,  // measure 24
0010
0000
0100
0000
00M0
0000
0100
0000
1000
0001
0100
0001
1000
0001
0000
0000
,  // measure 25
0022
0000
0033
0000
2200
0000
3300
0000
1000
0000
0000
0000
0001
0100
0000
0000
,  // measure 26
0010
0000
0100
0000
000M
0000
0100
0000
1000
0001
1000
0010
1000
0001
0000
0000
,  // measure 27
0202
0303
2020
3030
1000
0100
0010
0000
,  // measure 28
0001
0000
0010
0000
0M00
0000
0010
0000
1000
0000
1000
0000
1000
0100
0000
0000
,  // measure 29
2200
3300
0022
0033
0001
0010
0100
1000
,  // measure 30
0010
0000
0100
0000
000M
0000
0100
0000
1000
0001
0010
0001
1000
0001
0000
0000
,  // measure 31
1001
0000
4000
0000
3001
0000
0001
0000
0001
0000
0000
0010
0100
0000
0010
0000
,  // measure 32
0001
0100
0010
0001
1000
0100
0010
1000
,  // measure 33
0001
1000
0000
0000
0000
0000
0010
1000
,  // measure 34
0001
1000
0010
1000
0100
00M0
0100
0001
,  // measure 35
1000
0001
0100
0001
0010
0M00
0010
1000
,  // measure 36
0001
1000
0100
0010
0200
0000
0001
0000
,  // measure 37
1300
0010
0001
0010
1000
0010
0001
0010
,  // measure 38
1000
0100
1000
0001
0100
00M0
0100
1000
,  // measure 39
0001
1000
0010
0100
0010
M000
0010
0001
,  // measure 40
0010
0100
1000
0001
2000
0000
0100
0000
,  // measure 41
3001
0010
1000
0010
0001
0010
1000
0010
,  // measure 42
0100
0100
0000
1000
1000
0000
1100
0000
,  // measure 43
1000
0001
0010
0M00
0010
1000
0001
0000
,  // measure 44
0001
1000
0020
0130
0020
0030
0110
0000
,  // measure 45
1000
0001
0100
00M0
0100
1000
0001
0000
,  // measure 46
1000
0010
0100
0001
0010
0100
1000
0001
,  // measure 47
0100
0001
0010
0M00
0010
1000
0001
0000
,  // measure 48
1000
0100
0001
0100
1000
0001
0100
0010
,  // measure 49
1000
0100
0010
0M00
0010
0000
1000
0000
,  // measure 50
0001
1000
0010
0001
0010
1000
0001
0100
,  // measure 51
0001
0010
0100
2000
0010
3000
1010
0000
,  // measure 52
1000
0001
0010
0002
0003
0000
1000
1000
,  // measure 53
1010
0000
0001
0000
1000
0001
0100
0100
,  // measure 54
0101
0000
1000
0000
0001
1000
0100
0100
,  // measure 55
0110
0010
0001
1000
0001
0010
1000
0010
,  // measure 56
0001
0100
0001
0100
0010
1000
0010
1000
0100
0010
0100
0010
0001
1000
0004
4000
,  // measure 57
3003
0000
MMMM
0000
;
