#TITLE:Имя 505;
#SUBTITLE:;
#ARTIST:Время и Стекло;
#TITLETRANSLIT:Imya 505;
#SUBTITLETRANSLIT:;
#ARTISTTRANSLIT:Vremya i Steklo;
#GENRE:Deep House;
#CREDIT:;
#BANNER:imya-bn.png;
#BACKGROUND:imya-bg.png;
#LYRICSPATH:;
#CDTITLE:cdtitle.png;
#MUSIC:imya 505.ogg;
#OFFSET:-0.007000;
#SAMPLESTART:24.007000;
#SAMPLELENGTH:16.000000;
#SELECTABLE:YES;
#BPMS:0.000000=60.000000
,24.000000=120.000000
,182.000000=60.000000
;
#STOPS:100.500000=1.000000
;
#BGCHANGES:6.667=imya 505.avi=1.000=1=0=0=StretchNoLoop==CrossFade==,
184.000=imya-bg.png=1.000=0=0=1=====,
99999=-nosongbg-=1.000=0=0=0 // don't automatically add -songbackground-
;
#KEYSOUNDS:;
#ATTACKS:;

//---------------dance-single - ----------------
#NOTES:
     dance-single:
     X-Scale 7:
     Medium:
     6:
     0.342004,0.366336,0.046942,0.159602,0.140825,255.000000,250.000000,5.000000,17.000000,0.000000,0.000000,0.342004,0.366336,0.046942,0.159602,0.140825,255.000000,250.000000,5.000000,17.000000,0.000000,0.000000:
0000
0000
0000
0000
,
0000
0000
0000
0000
,
0100
0000
0000
0001
0000
0001
0000
0000
1000
0000
0000
0000
0100
0000
0010
0000
,
0100
0000
0000
1000
0000
0000
0000
0000
0001
0000
0000
1000
0000
0000
0000
0000
0100
0000
0000
0000
0000
0000
0000
0000
0010
0000
0000
0000
0100
0000
0000
0000
,
1000
0000
0000
0000
0000
0000
0000
0010
0000
0000
0000
0010
0000
0000
0000
0000
0100
0000
0000
0000
0000
0000
0000
0010
0000
0000
0010
0000
0000
0000
0000
0000
,
2000
0000
0000
0000
0001
0000
0000
0001
0000
0000
0001
0000
0000
0001
0000
0000
3001
0000
1000
0000
0001
0000
0000
0000
0020
0000
0000
0000
0000
0000
0000
0000
,
0130
0010
0001
1000
,
0001
0000
1000
0100
0010
0100
1000
0000
,
0001
0000
1000
0000
0001
0010
0100
0010
,
0001
0000
0100
0000
0010
0000
0100
0001
,
0020
0000
0031
0010
0000
0001
1000
0010
,
1000
0000
0010
0000
0100
0010
1000
0000
,
0001
0000
1000
0000
0100
0010
0001
0010
,
0100
0000
1000
0000
0001
0100
0010
0000
,
0110
0000
0010
0000
1000
0100
0010
0100
,
1000
0000
0010
0000
0100
0001
0100
0000
,
0010
0000
1000
0000
0100
0010
0100
1000
,
0100
0000
0001
0100
1000
0100
0010
0001
,
0200
0000
0310
0020
0000
0130
0010
1000
,
0001
0000
0001
0010
0100
0010
0001
0000
,
1000
0000
0010
0000
1000
0100
0010
0100
,
1000
0000
0010
0000
0100
0001
0010
0000
,
0011
0000
0000
0000
0000
0000
0000
0000
0100
0000
0000
0000
0010
0000
0000
0000
0100
0000
0000
0000
0000
0010
0000
0000
0000
0000
0100
0000
0000
0000
0000
0000
,
0001
0000
0001
0000
0000
0000
0000
0010
0000
0000
0100
0000
0000
1000
0000
0000
,
0100
0000
0000
0000
0100
0000
0000
0010
0000
0000
0001
0000
0000
1000
0000
0000
,
0001
0000
0002
0000
1003
0000
0000
0000
1100
0000
0000
0000
1000
0000
0000
1000
,
0010
0000
1000
0000
0000
0001
0000
0000
1000
0000
0100
0000
0010
0000
0000
0010
,
0001
0000
0100
0000
0000
0001
0000
0000
0010
0000
0001
0000
0010
0000
0100
0000
,
0010
0000
0001
0000
1000
0001
0000
0000
0100
0000
0100
0000
0000
0010
0000
0000
,
0100
0000
0000
0010
1000
0000
0000
0000
1010
0000
0000
0000
0001
0000
0000
0000
,
0100
0010
1000
0010
0100
0000
0001
0010
,
0100
1000
0001
0000
1000
0000
0100
0000
,
0010
1000
0010
0001
0010
0000
0001
0100
,
0010
1000
0100
0010
0002
0000
0103
0200
,
0000
0301
0100
0010
1000
0000
1000
0100
,
0010
0100
1000
0000
0010
0000
0100
0000
,
0001
0100
0010
0100
0001
0000
1000
0000
,
0100
1000
0001
0000
1001
0000
0100
0000
,
0010
0000
1000
0000
0000
1000
0000
0000
0001
0000
0000
0000
0100
0000
0000
0000
,
0010
0000
1000
0001
1000
0000
0010
0000
,
0100
0000
0001
0000
0000
0001
0000
0000
0010
0000
0000
0000
0100
0000
0000
0000
,
1000
0000
0010
0100
0002
0000
0000
0023
,
0100
0000
0030
0000
0020
0000
0000
0032
,
0010
0000
0003
0000
0002
0000
0000
2003
,
0001
0000
3000
0000
0002
0000
0000
2003
,
0100
0000
0000
0000
3000
0000
0000
0000
0020
0000
0000
0000
0000
0000
0000
0000
0130
0000
0000
0000
0010
0000
0000
0100
0000
0000
0010
0000
0000
0100
0000
0000
;

//---------------dance-single - ----------------
#NOTES:
     dance-single:
     X-Scale 3:
     Easy:
     2:
     0.159602,0.172746,0.037553,0.122049,0.000000,119.000000,115.000000,4.000000,13.000000,0.000000,0.000000,0.159602,0.172746,0.037553,0.122049,0.000000,119.000000,115.000000,4.000000,13.000000,0.000000,0.000000:
0000
0000
0000
0000
,
0000
0000
0000
0000
,
2000
0000
3002
0000
,
0203
0000
0302
0000
,
0023
0000
0230
0000
,
2300
0000
0000
0000
0000
0000
0000
0000
3002
0000
0000
0000
0000
0000
0000
0003
,
1001
0000
0001
1000
,
0001
0000
0010
0100
,
0010
0000
0001
1000
,
0001
0000
0010
0100
,
1000
0000
0000
1000
0000
0000
0100
0000
,
0000
0000
1000
0001
,
1000
0000
0010
0100
,
0001
0000
0001
0010
,
0011
0000
0001
0010
,
0100
0000
0010
1000
,
0100
0000
0001
1000
,
0010
0000
0100
0010
,
2000
0000
3000
2000
0000
3000
0000
0000
,
1000
0000
0001
0010
,
0100
0000
0100
0010
,
0001
0000
0001
1000
,
0001
0000
1000
0000
,
0001
0000
0000
0000
0000
0100
0000
0000
,
0100
0000
0001
0000
0000
0010
0000
0000
,
0100
0000
0000
0100
,
0000
0010
0000
1000
,
0000
0001
0000
0100
,
0000
0010
0010
0000
,
1000
0000
1010
0000
,
0001
1000
0010
0000
,
1000
0100
0010
0000
,
0100
1000
0001
0000
,
0100
0000
0001
0000
0020
0000
0030
0020
,
0000
0030
0000
0000
0001
0000
0000
0000
,
1000
0010
0100
0000
,
0001
0100
0010
0000
,
1000
0100
1100
0000
,
1000
0000
0001
0000
,
0010
0000
0001
1000
0001
0000
0000
0000
,
1000
0000
0100
0000
,
0010
0000
0010
0001
0100
0000
0000
0000
,
0100
0000
0001
0000
,
0001
0000
0010
0000
,
0010
0000
0100
0000
,
1000
2000
0100
0000
,
3000
0000
0000
0000
;

//---------------dance-single - ----------------
#NOTES:
     dance-single:
     X-Scale 11:
     Hard:
     8:
     0.481488,0.539830,0.037553,0.065718,0.380228,359.000000,355.000000,4.000000,7.000000,0.000000,0.000000,0.481488,0.539830,0.037553,0.065718,0.380228,359.000000,355.000000,4.000000,7.000000,0.000000,0.000000:
// measure 0
0000
0000
0000
0000
,  // measure 1
0000
0000
0000
0000
,  // measure 2
1000
0000
0000
0100
0000
0000
1000
0000
0000
0000
0001
0000
0000
0010
0000
0000
0001
0000
0000
0000
0000
0000
0100
0000
0010
0000
0100
0000
1000
0000
0100
0000
,  // measure 3
0001
0000
0000
1000
0000
0000
0001
0000
1000
0000
0000
0100
0000
0000
0010
0000
0100
0000
0000
0000
0000
0000
1000
0000
0010
0000
1000
0000
0100
0000
0010
0000
,  // measure 4
0001
0000
0000
0000
1000
0000
0000
0001
0000
0000
0010
0000
0000
0100
0000
0000
0010
0000
0000
0000
0001
0000
0000
1000
0000
0000
0010
0000
0000
0000
1000
0100
,  // measure 5
1000
0000
0000
0000
1000
0000
0000
0010
0000
0000
0100
0000
0000
0001
0000
0000
0001
0000
1000
0000
0001
0000
0000
1000
0000
0000
0100
0000
0010
0000
0100
0000
,  // measure 6
0110
0000
1000
0010
0100
0001
1000
0001
,  // measure 7
1000
0000
0001
0000
0100
0000
0000
0100
0001
0000
0100
0000
0000
0010
0000
0000
,  // measure 8
1000
0010
1000
0100
1000
0001
1000
0001
,  // measure 9
1000
0000
0100
0000
0010
0000
0000
0100
0010
0000
0100
0000
1000
0010
1000
0000
,  // measure 10
1000
0000
0001
0000
1000
0000
0010
1000
0000
0000
0100
0000
0001
0000
0100
0000
,  // measure 11
0010
0000
0001
0000
1000
0000
0000
0001
1000
0000
0001
0000
0010
0100
0000
0000
,  // measure 12
0010
0001
1000
0010
1000
0001
1000
0001
,  // measure 13
0010
0000
0001
0000
1000
0000
0010
0000
0100
0001
0100
0001
0100
0000
0000
0000
,  // measure 14
0101
0000
0001
0000
1000
0000
0100
0010
0000
0000
0001
0000
0000
0010
0000
0000
,  // measure 15
1000
0010
0100
0010
0001
0010
0100
0000
,  // measure 16
0010
0000
0100
0000
1000
0000
0100
1000
0000
0000
0010
0000
0000
1000
0000
0000
,  // measure 17
0010
1000
0001
0010
0100
1000
0100
0010
,  // measure 18
0200
0000
0310
0020
0000
1030
0010
0100
,  // measure 19
1000
0000
1000
0000
0001
0000
0010
0000
0100
0000
0010
0000
0001
0010
0000
0000
,  // measure 20
0001
0000
1000
0000
0001
0000
1000
0001
1000
0000
0000
0100
0000
0000
0010
0000
,  // measure 21
0001
1000
0100
0001
0100
1000
0100
0000
,  // measure 22
1100
0000
0000
0000
1000
0000
0000
0000
0001
0000
0000
0000
0010
0000
0000
0000
0001
0000
0000
0000
0000
0010
0000
0000
0000
0000
0100
0000
0000
0000
0000
0000
,  // measure 23
0100
0000
0010
0000
0100
0000
0000
0100
1000
0000
0001
0000
0000
1000
0000
0000
,  // measure 24
0100
0000
1000
0010
1000
0000
0100
0000
0010
0000
0100
0000
0000
1000
0000
0000
,  // measure 25
0001
0000
0000
0002
0000
0000
0103
0000
0000
0001
0000
0000
0101
0000
0100
0000
0001
0000
1000
0000
0001
0000
0100
0000
,  // measure 26
0010
0000
0000
0000
0000
0010
0000
0000
0000
0000
1000
0000
0000
0000
0000
0000
0001
0000
0000
0000
1000
0000
0000
0000
0001
0000
0000
0000
0000
0000
0001
0000
,  // measure 27
1000
0100
0001
0100
0010
0100
1000
0100
,  // measure 28
0010
0000
0000
0000
0000
0100
0000
0000
0000
0000
0010
0000
0000
0000
0000
0000
0001
0000
0000
0000
1000
0000
0000
0000
0000
0000
0001
0000
0000
0000
0000
0000
,  // measure 29
0100
0000
0000
0001
0100
0000
0400
0000
0310
0000
0000
0000
0010
0000
1000
0000
,  // measure 30
0100
0000
0010
0000
0100
0000
0010
0000
0001
0000
0100
0000
0001
0000
0000
0010
,  // measure 31
0100
0000
0010
0000
0001
0010
0000
0000
0001
0000
1000
0001
1000
0000
0001
0000
,  // measure 32
0100
1000
0100
0001
0010
0001
1000
0100
,  // measure 33
0001
0100
0010
0001
0020
0000
0130
0200
,  // measure 34
0000
0310
0100
1000
0001
1000
0010
0001
,  // measure 35
0010
0000
0100
0000
0010
0000
0000
0000
1000
0000
0010
1000
0010
0000
1000
0000
,  // measure 36
0100
0010
0100
1000
0001
0100
0010
1000
,  // measure 37
0100
0000
0010
0000
0001
0000
0000
0000
0001
0000
0010
0000
0001
0000
0100
0010
,  // measure 38
0000
0000
0100
0000
0000
0010
0000
0000
1000
0000
0001
0000
1000
0000
0000
1000
,  // measure 39
0001
0000
0010
0000
0001
0000
0001
0000
1000
0000
0100
0000
1000
0000
0001
1000
,  // measure 40
0000
0000
0100
0000
0000
0010
0000
0000
0100
0000
0010
0000
0001
0000
0000
0001
,  // measure 41
1000
0001
1000
1000
0001
0010
0001
0000
,  // measure 42
0001
1000
0001
1000
0001
0000
0000
0000
0001
0000
0010
0000
0100
0000
0000
0000
,  // measure 43
1000
0010
1000
0010
1000
0000
0000
0000
0100
0000
0010
0000
0100
0000
0000
0000
,  // measure 44
0010
0100
0010
0100
0010
0000
0000
0000
0001
0000
0010
0000
1000
0000
0010
0000
,  // measure 45
0100
0000
1000
0000
0010
1000
0010
0000
0100
0000
0001
0010
0001
0200
0300
0200
,  // measure 46
0300
0000
0000
0000
;

//---------------dance-single - ----------------
#NOTES:
     dance-single:
     X-Scale 13:
     Challenge:
     9:
     0.616949,0.755762,0.037553,0.065718,0.624325,460.000000,456.000000,4.000000,7.000000,0.000000,0.000000,0.616949,0.755762,0.037553,0.065718,0.624325,460.000000,456.000000,4.000000,7.000000,0.000000,0.000000:
// measure 0
0000
0000
0000
0000
,  // measure 1
0000
0000
0000
0000
,  // measure 2
1000
0000
0001
0000
0100
0001
0100
0000
0001
0000
0000
1000
0000
0000
0100
0000
0010
0000
0100
0000
1000
0100
1000
0000
0010
0000
0100
0000
1000
0000
0100
0000
,  // measure 3
0010
0000
1000
0000
0001
1000
0001
0000
0010
0000
0000
0100
0000
0000
0010
0000
0001
0000
1000
0000
0010
1000
0010
0000
1000
0000
0010
0000
0001
0000
0010
0000
,  // measure 4
1000
0000
0000
0000
1000
0000
0000
0001
0000
0000
0010
0000
0000
0100
0000
0000
0010
0000
0000
0000
0001
0000
0000
1000
0000
0000
0010
0000
0000
0000
1000
0100
,  // measure 5
0010
0000
0000
0000
1000
0000
0000
0010
0000
0000
0001
0000
0000
0010
0000
0000
0001
0000
1000
0000
0001
0000
0000
1000
0100
0000
1000
0000
0010
0000
0001
0000
,  // measure 6
0110
0000
0100
0000
0001
0000
0001
1000
0001
0000
0010
0000
0100
0000
0010
0000
,  // measure 7
1000
0000
0010
0000
0001
0000
0000
0100
0001
0000
0010
0000
0100
0010
0000
0000
,  // measure 8
0001
0000
0010
0000
0100
0000
1000
0010
1000
0000
0001
0000
0100
0000
1000
0000
,  // measure 9
0100
0000
0010
0000
1000
0000
0000
0100
0010
0000
0100
0000
1000
0001
0100
0001
,  // measure 10
1000
0000
0001
0000
1000
0000
0010
1000
0000
0000
0100
0000
0010
0000
0001
0000
,  // measure 11
1000
0000
0001
0000
0100
0000
0001
0010
0100
0000
1000
0000
0100
1000
0000
0000
,  // measure 12
0001
0000
0001
0000
1000
0000
0100
1000
0100
0000
0001
0000
0100
0000
1000
0000
,  // measure 13
0100
0000
0010
0000
0010
0000
0000
0001
0100
0010
1000
0001
0010
0100
1000
0000
,  // measure 14
0110
0000
0100
0000
0001
0000
0100
0010
0100
0000
0001
0000
1000
0100
0010
0000
,  // measure 15
0001
0000
0001
0000
0100
0000
0010
0100
0001
0000
0010
0000
0100
0010
0000
0000
,  // measure 16
0001
0000
0100
0000
0010
0000
1000
0010
0100
0000
0001
0000
0001
0010
0100
0000
,  // measure 17
1000
0000
1000
0000
0001
0000
0100
0001
0100
0000
0001
0010
0100
1000
0001
0010
,  // measure 18
0200
0001
1300
2000
0000
3100
1000
0100
,  // measure 19
0001
0000
1000
0000
0010
0000
0001
0010
0001
0000
0001
0000
1000
0010
1000
0000
,  // measure 20
0100
0000
1000
0000
0100
0000
0010
0100
1000
0000
0100
0000
0001
0000
0100
0000
,  // measure 21
0010
0000
0001
0000
1000
0000
0001
0000
0100
0000
0001
0000
1000
0100
1000
0000
,  // measure 22
1010
0000
0000
0000
0010
0000
0000
0000
0100
0000
0000
0000
0010
0000
0000
0000
1000
0000
0000
0000
0001
0010
0000
0000
0000
0000
0001
0000
0000
0000
0000
0000
,  // measure 23
1000
0000
1000
0100
0010
0000
0001
0010
0100
0010
0001
0000
1000
0000
0001
0000
,  // measure 24
1000
0000
0010
1000
0010
0000
0100
0000
0001
0000
0010
0000
0000
0001
0000
0000
,  // measure 25
1000
0000
0000
2000
0000
0000
3001
0000
0000
0100
0000
0000
0101
0000
0100
0000
0001
0000
0010
0000
0001
0000
1000
0000
,  // measure 26
0100
0000
0010
0000
0100
1000
0000
0000
0001
0000
1000
0100
0010
0100
1000
0000
,  // measure 27
0001
0000
0100
0000
0001
0000
0010
0000
1000
0000
0010
0000
0100
0000
1000
0100
,  // measure 28
1000
0000
0100
0000
0000
0010
0000
0000
0001
0000
0001
0010
0001
0000
0010
0000
,  // measure 29
0100
0010
0001
1000
0001
0000
0004
0000
1003
0000
0010
0000
0100
0000
0001
0100
,  // measure 30
0001
0000
0010
0000
1000
0000
0010
0000
0001
0000
0100
0000
0001
0000
1000
0001
,  // measure 31
1000
0000
0100
0000
0010
0100
1000
0000
0001
0000
0100
0001
0100
0000
0010
0100
,  // measure 32
0010
0000
1000
0000
0010
0000
1000
0000
0100
0000
0010
0000
0001
0000
1000
0100
,  // measure 33
0010
0000
0100
0000
1000
0001
0010
0001
0200
0000
1000
0000
0301
0000
0002
0000
,  // measure 34
0010
0000
0013
0000
0001
0010
0100
0000
0010
0000
0001
0000
0001
0000
1000
0001
,  // measure 35
1000
0000
0001
0000
0010
0100
1000
0000
0010
0000
0100
0010
0100
0000
0001
0010
,  // measure 36
0100
0001
0100
1000
0100
0010
0001
0100
,  // measure 37
0010
1000
0100
0010
0001
0000
0100
0000
0001
0010
0001
0010
0001
0000
1000
0100
,  // measure 38
1000
0100
1000
0000
0010
0100
0010
0100
0010
0000
1000
0001
1000
0001
1000
0000
,  // measure 39
0001
0100
0001
0000
0010
0000
0100
0000
1000
0010
1000
0010
1000
0000
0001
0100
,  // measure 40
0001
0100
0001
0000
0100
0010
0100
0010
0100
0000
0001
1000
0001
1000
0001
0000
,  // measure 41
1000
0100
1000
0000
0100
0000
0010
0000
0001
0000
1000
0000
0001
0000
0001
0010
,  // measure 42
0100
1000
0001
0100
0010
1000
0000
0000
0001
0000
0010
0000
0001
0000
1000
0010
,  // measure 43
0100
0001
1000
0100
0010
0001
0000
0000
1000
0000
0100
0000
1000
0000
0100
1000
,  // measure 44
0010
0100
0001
0010
0100
1000
0000
0000
1000
0000
0001
0000
0100
0000
0001
0010
,  // measure 45
0001
0000
0000
0000
0100
0000
0000
0000
0010
0000
1000
0000
0010
0000
0000
0000
1000
0000
0000
0000
0001
0000
1000
0001
1000
0000
0020
0000
0030
0000
0020
0000
,  // measure 46
0030
0000
0000
0000
;

//---------------dance-single - ----------------
#NOTES:
     dance-single:
     X-Scale 1:
     Beginner:
     1:
     0.111319,0.128151,0.028165,0.093883,0.000000,83.000000,80.000000,3.000000,10.000000,0.000000,0.000000,0.111319,0.128151,0.028165,0.093883,0.000000,83.000000,80.000000,3.000000,10.000000,0.000000,0.000000:
0000
0000
0000
0000
,
0000
0000
0000
0000
,
0001
0000
0000
0000
,
1000
0000
0000
0000
,
0100
0000
0010
0000
,
0100
0000
1000
0000
,
1100
0000
0010
0000
,
1000
0000
0001
0000
,
0010
0000
0001
0000
,
1000
0000
0010
0000
,
1000
0000
0010
0000
,
1000
0000
0001
0000
,
0100
0000
0010
0000
,
1000
0000
0100
0000
,
1000
0000
0001
0000
,
0100
0000
0010
0000
,
1000
0000
0100
0000
,
0010
0000
0001
0000
,
2000
0000
3000
2000
0000
3000
0000
0000
,
1000
0000
0001
0000
,
0100
0000
0010
0000
,
0100
0000
0001
0000
,
0001
0000
0000
0000
,
1000
0000
0000
0000
,
1000
0000
0000
0000
,
0200
0000
1300
0000
,
0100
0000
0010
0000
,
0001
0000
0100
0000
,
0010
0000
1000
0000
,
0000
0000
1001
0000
,
0001
0000
1000
0000
,
0010
0000
0100
0000
,
0001
0000
0100
0000
,
0010
0000
0000
0000
2000
0000
3000
2000
,
0000
3000
0000
0000
1000
0000
0000
0000
,
0001
0000
0100
0000
,
0010
0000
1000
0000
,
0010
0000
2010
0000
,
0000
0000
0001
0000
,
0000
0000
3001
0000
,
1000
0000
0010
0000
,
0100
0000
0002
0000
,
0103
0000
0200
0000
,
0310
0000
0020
0000
,
1030
0000
2000
0000
,
3000
1000
0010
0000
;
