#VERSION:0.83;
#TITLE:Immaterial;
#SUBTITLE:;
#ARTIST:SOPHIE;
#TITLETRANSLIT:;
#SUBTITLETRANSLIT:;
#ARTISTTRANSLIT:;
#GENRE:Bubblegum Pop;
#ORIGIN:;
#CREDIT:;
#BANNER:Immaterial-bn.png;
#BACKGROUND:Immaterial-bg.png;
#PREVIEWVID:;
#JACKET:Immaterial-jacket.png;
#CDIMAGE:;
#DISCIMAGE:;
#LYRICSPATH:;
#CDTITLE:cdtitle.png;
#MUSIC:Immaterial.ogg;
#OFFSET:-0.008000;
#SAMPLESTART:13.722000;
#SAMPLELENGTH:27.500000;
#SELECTABLE:YES;
#BPMS:0.000=140.000;
#STOPS:;
#DELAYS:;
#WARPS:;
#TIMESIGNATURES:0.000=4=4;
#TICKCOUNTS:0.000=4;
#COMBOS:0.000=1;
#SPEEDS:0.000=1.000=0.000=0;
#SCROLLS:0.000=1.000;
#FAKES:;
#LABELS:0.000=Song Start;
#BGCHANGES:;
#KEYSOUNDS:;
#ATTACKS:
;

//---------------dance-single - we popheads now?----------------
#NOTEDATA:;
#CHARTNAME:X-Scale 14;
#STEPSTYPE:dance-single;
#DESCRIPTION:we popheads now?;
#CHARTSTYLE:;
#DIFFICULTY:Hard;
#METER:9;
#RADARVALUES:0.617400,0.673840,0.401095,0.090246,0.396081,431.000000,391.000000,40.000000,9.000000,0.000000,0.000000,0.000000,0.000000,0.000000,0.617400,0.673840,0.401095,0.090246,0.396081,431.000000,391.000000,40.000000,9.000000,0.000000,0.000000,0.000000,0.000000,0.000000;
#CREDIT:iamthek3n;
#NOTES:
// measure 0
0000
0000
0000
0000
,  // measure 1
0000
0000
0000
0000
,  // measure 2
0000
0000
0000
0000
,  // measure 3
0000
0000
0000
0000
,  // measure 4
0100
0000
1000
0000
0000
0010
0000
0000
1000
0000
0100
0000
0001
0000
0100
0000
,  // measure 5
1000
0000
0010
0000
0000
0100
0000
0000
0001
0000
0010
0000
1000
0000
0010
0000
,  // measure 6
0001
0100
0010
1000
0100
0001
0100
1000
,  // measure 7
0100
0010
0100
1000
0100
0010
0100
1000
0100
0010
0100
1000
0100
0000
0010
0000
,  // measure 8
0110
0000
0000
0000
1001
0000
0000
0000
0110
0000
0000
0100
0010
0000
1000
0000
,  // measure 9
0000
0001
0000
0000
1000
0000
1000
0000
1000
0000
0100
0010
0001
0000
0010
0000
,  // measure 10
0001
0000
0000
0000
0101
0000
0001
1000
0001
0000
0100
0000
0010
0000
1000
0000
,  // measure 11
0000
0100
0000
0000
0010
0000
0010
0000
0010
0000
0000
0001
0100
0000
0001
0000
,  // measure 12
0011
0000
0000
0000
1010
0000
0000
0000
0011
0000
0000
0001
0010
0000
0001
0000
,  // measure 13
0000
1000
0000
0000
0100
0000
0100
0000
0100
0000
1000
0100
0010
0000
0100
0000
,  // measure 14
0001
0000
0100
0000
0010
0000
0001
0010
0000
0000
0000
0001
0000
0000
1000
0000
,  // measure 15
0000
0001
0000
0000
0010
0000
0010
0000
0010
0000
0000
0100
1000
0000
0100
0000
,  // measure 16
1100
0000
0000
0000
0101
0000
0000
0000
1100
0000
0000
1000
0010
0000
1000
0000
,  // measure 17
0000
0100
0000
0000
0010
0000
0010
0001
0010
0000
0001
0100
0001
0000
0010
0000
,  // measure 18
0100
0000
0000
0000
1100
0000
1000
0100
1000
0000
0001
0100
0000
0000
0100
0000
,  // measure 19
0000
0010
0000
0000
1000
0100
0001
0000
0100
0000
0001
0100
1000
0000
0001
0000
,  // measure 20
0100
0010
1000
0000
0001
0000
0100
0010
1000
0000
0010
0000
0100
0010
0100
0000
,  // measure 21
0001
0000
0010
0001
0010
0000
0100
0000
1000
0000
0001
1000
0001
0000
0100
0000
,  // measure 22
0010
0000
1000
0000
0001
0000
0000
0100
0010
0000
0000
1000
0000
0000
0100
0000
,  // measure 23
0000
0000
0000
0010
0000
0000
0000
0000
0000
0000
0000
0000
0001
0000
0000
0000
0000
0000
0001
0000
0000
0000
0000
0000
0001
0000
0000
0000
0000
0000
0000
0000
0000
1000
0000
0000
0001
0000
0000
0000
0000
0000
0010
0000
0001
0000
0010
0000
,  // measure 24
0001
0000
0100
0000
0001
0100
0010
2000
,  // measure 25
0000
3200
0010
0010
0310
0000
0100
0000
,  // measure 26
1000
0000
1000
0000
1000
0010
0100
0002
,  // measure 27
0000
0010
0000
0000
0013
0000
0010
0000
0010
0000
0000
0100
1000
0000
0001
0000
,  // measure 28
1000
0000
1000
0000
0001
0010
0100
2000
,  // measure 29
0000
3020
0100
0100
0130
0010
1000
0001
,  // measure 30
0010
0001
0100
0001
0010
0100
1000
0200
,  // measure 31
0000
0001
0000
0000
1300
0000
1000
0000
1000
0000
0000
0010
0100
0000
0010
0000
,  // measure 32
0101
0001
1000
0100
1000
0010
0100
0002
,  // measure 33
0000
0010
0000
0000
0103
0000
0100
0000
0100
0000
0000
0000
0110
0000
0000
0000
,  // measure 34
0010
0100
0001
0010
1000
0010
0100
2000
,  // measure 35
0000
0100
0000
0000
3010
0000
0010
0000
0010
0000
0000
0100
0010
0000
0100
0000
,  // measure 36
0002
0000
0013
0001
1000
0001
0010
0100
,  // measure 37
0000
0010
0100
0000
1000
0000
1000
0000
1000
0000
0010
0000
0100
0000
0001
0000
,  // measure 38
0010
1000
0010
0100
1000
0100
0010
0001
,  // measure 39
0100
0000
0000
0001
0000
0000
0000
0000
0000
0000
0000
0000
1000
0000
0000
0000
0000
0000
1000
0000
0000
0000
0000
0000
1000
0000
0000
0000
0000
0000
0000
0000
0000
0010
0000
0000
0100
0000
0000
0000
0000
0000
0001
0000
0010
0000
0001
0000
,  // measure 40
0010
0000
0000
0000
0011
0000
0000
0000
1010
0000
0000
1000
0001
0000
1000
0000
,  // measure 41
0000
0100
0000
0000
1000
0000
1000
0000
1000
0000
0100
0010
0100
0000
1000
0000
,  // measure 42
0001
0000
0000
0000
0011
0000
0001
1000
0001
0000
0100
0000
0010
0000
1000
0000
,  // measure 43
0000
0001
0000
0000
0100
0000
0100
0000
0100
0000
0001
0100
0001
0000
0001
0000
,  // measure 44
0011
0000
0000
0000
1010
0000
0000
0000
0011
0000
0000
0100
0000
0000
0010
0000
,  // measure 45
0000
1000
0000
0000
0100
0000
0100
0000
0100
0000
1000
0001
1000
0000
0100
0000
,  // measure 46
0001
0000
0100
0000
0010
0000
0001
0010
0001
0000
0000
0011
0000
0000
0110
0000
,  // measure 47
0000
1010
0000
0000
0010
0000
0010
0000
0010
0000
0000
0100
0010
0000
0100
0000
,  // measure 48
1010
0000
0000
0000
0001
0000
0100
0000
0101
0000
0000
0110
0000
0000
1100
0000
,  // measure 49
0000
1001
0000
0000
0001
0000
0001
0000
0001
0000
1000
0100
1000
0000
0010
0000
,  // measure 50
0100
0000
0000
0000
1010
0000
1000
0100
1000
0000
0100
0000
0010
0000
0011
0000
,  // measure 51
0000
0101
0000
0000
1001
0000
0001
1000
0001
0000
1000
0000
0010
0000
1000
0000
,  // measure 52
1100
0000
0000
0000
0101
0000
0000
0000
1100
0000
0000
1010
0000
0000
0110
0000
,  // measure 53
0000
1001
0000
0000
0001
0000
0001
0000
0001
0000
0010
0100
0010
0000
0010
0000
,  // measure 54
0001
0000
0100
0000
0001
0000
0000
1000
0010
0000
0000
1010
0000
0000
0110
0000
,  // measure 55
0000
0011
0000
0000
0010
0000
0010
0000
0010
0000
0000
0100
0010
0000
0100
0000
,  // measure 56
1000
0000
0000
0000
;

//---------------dance-single - ----------------
#NOTEDATA:;
#CHARTNAME:X-Scale 11;
#STEPSTYPE:dance-single;
#DESCRIPTION:;
#CHARTSTYLE:;
#DIFFICULTY:Medium;
#METER:8;
#RADARVALUES:0.558668,0.589610,0.431177,0.180493,0.285780,390.000000,347.000000,43.000000,18.000000,0.000000,0.000000,0.000000,0.000000,0.000000,0.558668,0.589610,0.431177,0.180493,0.285780,390.000000,347.000000,43.000000,18.000000,0.000000,0.000000,0.000000,0.000000,0.000000;
#CREDIT:iamthek3n;
#NOTES:
// measure 0
0000
0000
0000
0000
,  // measure 1
0000
0000
0000
0000
,  // measure 2
0000
0000
0000
0000
,  // measure 3
0000
0000
0000
0000
,  // measure 4
1000
0100
0010
0002
0000
0103
0001
2000
,  // measure 5
0100
0000
0010
0000
0100
0000
3001
1000
,  // measure 6
0100
0010
0100
0010
0001
0100
0001
0100
,  // measure 7
0010
1000
0001
1000
0100
0001
0100
1000
,  // measure 8
1100
0000
0000
0000
0110
0000
0000
0000
1100
0000
0000
1000
0000
0000
0001
0000
,  // measure 9
0000
0010
0000
0000
0100
0000
0100
0000
0100
0000
1000
0100
0010
0000
0100
0000
,  // measure 10
0110
0000
0000
0000
0011
0000
0000
0100
0010
0000
0000
0100
0000
0000
0001
0000
,  // measure 11
0000
0010
0000
0000
0100
0000
0100
0000
0100
0000
0000
1000
0001
0000
1000
0000
,  // measure 12
1001
0000
0000
0000
0110
0000
0000
0000
1001
0000
0000
1000
0000
0000
0100
0000
,  // measure 13
0000
0010
0000
0000
0001
0000
0001
0000
0001
0000
1000
0010
1000
0000
0001
0000
,  // measure 14
0010
1000
0100
0002
0000
1003
0100
0020
,  // measure 15
0000
0000
0030
0000
0001
0000
0010
0000
0001
0000
0000
1000
0010
0000
1000
0000
,  // measure 16
1010
0000
0000
0000
0110
0000
0000
0000
1010
0000
0000
1000
0000
0000
0001
0000
,  // measure 17
0000
0010
0000
0000
0100
0000
0100
0000
0100
0000
0000
1000
0100
0000
1000
0000
,  // measure 18
0001
0000
0000
0000
1001
0000
0000
0000
0110
0000
0000
0010
1000
0000
0001
0000
,  // measure 19
0000
0010
0000
0000
0100
0010
0001
0000
0000
0000
1000
0010
0100
0000
0000
0000
,  // measure 20
0001
0010
0100
0000
0000
0000
0010
0100
1000
0000
0000
0000
0001
1000
0010
0000
,  // measure 21
0000
0000
0100
0000
0010
0000
1000
0000
0001
0000
0010
0100
0010
0000
0001
0000
,  // measure 22
1000
0100
0010
0002
0000
1003
0100
0020
,  // measure 23
0000
0000
0030
0000
0001
0000
0001
0000
0001
0000
0000
0010
0100
0000
0000
0000
,  // measure 24
1100
0000
0000
0000
1000
0000
0000
0000
0010
0000
0000
0100
0000
0000
1000
0000
,  // measure 25
0000
0100
0000
0000
0010
0000
0010
0000
0010
0000
0000
0000
1000
0000
0000
0000
,  // measure 26
0001
0000
0000
0000
1000
0000
0000
0000
0100
0000
0000
0010
0000
0000
0001
0000
,  // measure 27
0000
1000
0000
0000
0010
0000
0010
0000
0010
0000
0000
0100
0010
0000
0100
0000
,  // measure 28
0001
0000
0000
0000
0010
0000
0000
0000
0001
0000
0000
0100
0000
0000
1000
0000
,  // measure 29
0000
0100
0000
0000
0001
0000
0001
0000
0001
0000
0000
0000
1000
0000
0000
0000
,  // measure 30
0100
0010
0001
0010
1000
0100
0010
1000
,  // measure 31
0000
0001
0000
0000
0010
0000
0010
0000
0010
0000
0000
0100
0010
0000
0100
0000
,  // measure 32
1100
1000
0001
0100
1000
0100
0001
0020
,  // measure 33
0000
0100
0000
0000
0130
0000
0010
0000
0100
0000
0000
0000
1100
0000
0000
0000
,  // measure 34
0101
0001
0100
1000
0100
0010
0100
0002
,  // measure 35
0000
1000
0000
0000
0103
0000
0001
0000
0100
0000
0000
0010
0100
0000
0010
0000
,  // measure 36
0110
0000
0100
0001
0010
0100
1000
0002
,  // measure 37
0000
0203
0010
0310
0010
0100
0001
0020
,  // measure 38
0030
0100
0010
0001
1000
0010
0100
0020
,  // measure 39
0000
1000
0030
0000
1000
0000
0010
0000
1000
0000
0000
0001
0100
0000
0001
0000
,  // measure 40
0011
0000
0000
0000
0110
0000
0000
0000
0011
0000
0000
1010
0000
0000
1001
0000
,  // measure 41
0000
0110
0000
0000
1000
0000
0100
0000
1000
0000
0001
0010
0100
0000
0010
0000
,  // measure 42
0011
0000
0000
0000
0101
0000
0000
0001
0010
0000
0000
0110
0000
0000
1010
0000
,  // measure 43
0000
1001
0000
0000
1000
0000
0010
0000
1000
0000
0000
0100
0010
0000
0100
0000
,  // measure 44
1100
0000
0000
0000
0101
0000
0000
0000
1100
0000
0000
0110
0000
0000
1100
0000
,  // measure 45
0000
0011
0000
0000
0100
0000
0010
0000
0100
0000
0001
0010
0100
0000
0010
0000
,  // measure 46
0001
1000
0100
2000
0000
3100
0010
0002
,  // measure 47
0000
1000
0003
0000
0001
0000
0100
0000
0001
0000
0000
0010
0100
0000
1000
0000
,  // measure 48
1100
0000
0100
0010
0002
0000
1003
0002
,  // measure 49
0000
0000
0013
0000
0001
0000
0100
0000
0010
0000
1000
0010
1000
0000
0001
0000
,  // measure 50
0100
0000
0000
0000
0101
0000
0001
0010
0001
0000
1000
0000
0001
0000
0010
0000
,  // measure 51
0000
0100
0000
0000
1000
0000
0001
1000
0001
0000
0100
0000
0010
0000
0100
0000
,  // measure 52
0101
0000
0000
0000
0110
0000
0000
0000
0101
0000
0000
0011
0000
0000
1010
0000
,  // measure 53
0000
1100
0000
0000
0100
0000
1000
0000
0001
0000
0100
0001
1000
0000
0100
0000
,  // measure 54
0010
0100
1000
0002
0000
0013
0100
2000
,  // measure 55
0000
0000
3000
0000
0010
0000
1000
0000
0001
0000
0000
0010
0100
0000
1000
0000
,  // measure 56
0100
0000
0000
0000
;

//---------------dance-single - ----------------
#NOTEDATA:;
#CHARTNAME:X-Scale 7;
#STEPSTYPE:dance-single;
#DESCRIPTION:;
#CHARTSTYLE:;
#DIFFICULTY:Easy;
#METER:5;
#RADARVALUES:0.393933,0.393073,0.100274,0.371013,0.000000,275.000000,265.000000,10.000000,37.000000,0.000000,0.000000,0.000000,0.000000,0.000000,0.393933,0.393073,0.100274,0.371013,0.000000,275.000000,265.000000,10.000000,37.000000,0.000000,0.000000,0.000000,0.000000,0.000000;
#CREDIT:iamthek3n;
#NOTES:
// measure 0
0000
0000
0000
0000
,  // measure 1
0000
0000
0000
0000
,  // measure 2
0000
0000
0000
0000
,  // measure 3
0000
0000
0000
0000
,  // measure 4
0001
0010
0100
1000
,  // measure 5
0001
0000
0010
0000
0100
0000
1000
0200
,  // measure 6
0010
0300
0100
2000
0000
3000
1000
0002
,  // measure 7
0100
0000
1000
0000
0100
0000
1000
0003
,  // measure 8
1001
0000
0001
0000
0200
0300
0000
0200
,  // measure 9
0300
0100
0010
1000
0001
0000
0010
0100
,  // measure 10
1000
0000
1100
0000
0100
0010
0001
2000
,  // measure 11
0000
3000
0010
0100
0010
0000
1000
0010
,  // measure 12
1000
0000
1000
0000
0020
0030
0000
0020
,  // measure 13
0030
0010
1000
0001
0010
0000
0100
0010
,  // measure 14
0001
1000
0100
1000
,  // measure 15
0001
0010
0100
0010
,  // measure 16
0011
0000
0001
0000
2000
3000
0000
2000
,  // measure 17
3000
1000
0100
0010
0001
0000
0100
0001
,  // measure 18
1000
0000
1010
0000
0010
1000
0001
0100
,  // measure 19
0000
0000
0010
0100
0010
0000
1000
0001
,  // measure 20
1000
0000
0100
0000
0020
0030
0000
0020
,  // measure 21
0030
0010
0001
1000
0100
0000
0010
0100
,  // measure 22
1000
0001
0100
0001
,  // measure 23
1000
0010
0100
0010
,  // measure 24
1010
0000
1000
0000
0001
0000
1000
0020
,  // measure 25
0030
0200
0000
0300
0001
0000
0010
0000
,  // measure 26
0001
0000
0001
0000
1000
0000
0010
0200
,  // measure 27
0000
0300
0001
0100
0001
0000
0010
0100
,  // measure 28
0010
0000
0010
0000
0001
0000
1000
0200
,  // measure 29
0300
2000
0000
3000
0001
0000
0100
0000
,  // measure 30
0010
0000
0010
0000
1000
0100
0010
0001
,  // measure 31
0000
0000
1000
0001
1000
0000
0100
0010
,  // measure 32
0110
0000
0100
0000
1000
0001
0100
0002
,  // measure 33
0000
0000
0013
0100
0010
0000
0001
0000
,  // measure 34
1000
0000
0010
0000
1000
0001
0100
0020
,  // measure 35
0000
0000
1030
0010
1000
0000
0001
0100
,  // measure 36
0001
0000
0010
0000
0100
0010
0001
2000
,  // measure 37
0000
3002
0000
0003
0100
0001
1000
0020
,  // measure 38
0000
0130
0001
0010
0100
0010
0001
2000
,  // measure 39
0000
3000
0100
1000
0100
0000
0010
0000
,  // measure 40
0101
0000
0001
0000
2000
3000
0010
2000
,  // measure 41
3000
1000
0001
0010
0100
0000
0010
0100
,  // measure 42
1000
0000
1001
0000
1000
0001
0100
0020
,  // measure 43
0000
0030
1000
0001
0100
0000
0001
1000
,  // measure 44
0010
0000
0100
0000
0020
0030
1000
0020
,  // measure 45
0030
0010
0100
0001
0010
0000
0100
0010
,  // measure 46
0001
1000
0010
2000
0000
3100
0010
0002
,  // measure 47
0000
0000
0013
0001
0010
0000
0100
0000
,  // measure 48
1010
0000
1000
0000
0002
0000
0103
0002
,  // measure 49
0003
0001
0010
0100
1000
0000
0010
1000
,  // measure 50
0001
0000
1001
0000
1000
0001
0010
0200
,  // measure 51
0000
0300
0010
0100
1000
0000
0001
1000
,  // measure 52
0010
0000
0100
0000
0020
0030
1000
0020
,  // measure 53
0030
0010
1000
0001
0010
0000
0100
0010
,  // measure 54
0001
1000
0010
0200
0000
0310
0100
0002
,  // measure 55
0000
0000
0013
0001
0010
0000
0100
0000
,  // measure 56
1000
0000
0000
0000
;

//---------------dance-single - ----------------
#NOTEDATA:;
#CHARTNAME:X-Scale 2;
#STEPSTYPE:dance-single;
#DESCRIPTION:;
#CHARTSTYLE:;
#DIFFICULTY:Beginner;
#METER:2;
#RADARVALUES:0.144681,0.168460,0.020055,0.000000,0.000000,101.000000,99.000000,2.000000,0.000000,0.000000,0.000000,0.000000,0.000000,0.000000,0.144681,0.168460,0.020055,0.000000,0.000000,101.000000,99.000000,2.000000,0.000000,0.000000,0.000000,0.000000,0.000000,0.000000;
#CREDIT:iamthek3n;
#NOTES:
// measure 0
0000
0000
0000
0000
,  // measure 1
0000
0000
0000
0000
,  // measure 2
0000
0000
0000
0000
,  // measure 3
0000
0000
0000
0000
,  // measure 4
0001
0000
0000
0000
,  // measure 5
0010
0000
0000
0000
,  // measure 6
0001
0000
0000
0000
,  // measure 7
0010
0000
0000
0000
,  // measure 8
1001
0000
1000
0000
,  // measure 9
0100
0000
1000
0000
,  // measure 10
0100
0000
0010
0000
,  // measure 11
0001
0000
0010
0000
,  // measure 12
0001
0000
0100
0000
,  // measure 13
0010
0000
0100
0000
,  // measure 14
0010
0000
1000
0000
,  // measure 15
0001
0000
1000
0000
,  // measure 16
0001
0000
0010
0000
,  // measure 17
0001
0000
0010
0000
,  // measure 18
0100
0000
0010
0000
,  // measure 19
0100
0000
0010
0000
,  // measure 20
0001
0000
1000
0000
,  // measure 21
0001
0000
1000
0000
,  // measure 22
0001
0000
0100
0000
,  // measure 23
0001
0000
0100
0000
,  // measure 24
0010
0000
1000
0000
,  // measure 25
0000
1000
0000
0100
,  // measure 26
0100
0000
0010
0000
,  // measure 27
0000
0001
0000
0010
,  // measure 28
0010
0000
0100
0000
,  // measure 29
0000
0010
0000
0001
,  // measure 30
0001
0000
1000
0000
,  // measure 31
0000
0010
0000
1000
,  // measure 32
1000
0000
0100
0000
,  // measure 33
0010
0000
0001
0000
,  // measure 34
1000
0000
0100
0000
,  // measure 35
0010
0000
0001
0000
,  // measure 36
0100
0000
0010
0000
,  // measure 37
1000
0000
0001
0000
,  // measure 38
1000
0000
0000
0000
,  // measure 39
0001
0000
0000
0000
,  // measure 40
1001
0000
1000
0000
,  // measure 41
0010
0000
0100
0000
,  // measure 42
0010
0000
1000
0000
,  // measure 43
0001
0000
0010
0000
,  // measure 44
0100
0000
0010
0000
,  // measure 45
0001
0000
0100
0000
,  // measure 46
0010
0000
0100
0000
,  // measure 47
0001
0000
1000
0000
,  // measure 48
0100
0000
1000
0000
,  // measure 49
0001
0000
0010
0000
,  // measure 50
0100
0000
1000
0000
,  // measure 51
0001
0000
1000
0000
,  // measure 52
0010
0000
0100
0000
,  // measure 53
0001
0000
1000
0000
,  // measure 54
0010
0000
0100
0000
,  // measure 55
0010
0000
1000
0000
,  // measure 56
0001
0000
0000
0000
;
