#TITLE:若你真的有想过;
#SUBTITLE:;
#ARTIST:白安;
#TITLETRANSLIT:If You Ever Thought;
#SUBTITLETRANSLIT:;
#ARTISTTRANSLIT:Ann Bai;
#GENRE:Indietronica;
#CREDIT:;
#BANNER:If You Ever Thought-bn.png;
#BACKGROUND:If You Ever Thought-bg.png;
#LYRICSPATH:;
#CDTITLE:cdtitle.png;
#MUSIC:if you ever thought.ogg;
#OFFSET:-0.002000;
#SAMPLESTART:47.240002;
#SAMPLELENGTH:16.000000;
#SELECTABLE:YES;
#BPMS:0.000000=120.000000
;
#STOPS:
;
#BGCHANGES:0.000=If You Ever Thought.avi=1.000=1=0=0=StretchNoLoop==CrossFade==,
99999=-nosongbg-=1.000=0=0=0 // don't automatically add -songbackground-
;
#KEYSOUNDS:;
#ATTACKS:;

//---------------dance-single - ----------------
#NOTES:
     dance-single:
     X-Scale 1:
     Beginner:
     1:
     0.070378,0.135679,0.008076,0.000000,0.000000,61.000000,60.000000,1.000000,0.000000,0.000000,0.000000,0.070378,0.135679,0.008076,0.000000,0.000000,61.000000,60.000000,1.000000,0.000000,0.000000,0.000000:
// measure 0
0000
0000
0000
0000
,  // measure 1
0000
0000
0000
0000
,  // measure 2
0000
0000
0000
0000
,  // measure 3
0000
0000
0000
0000
,  // measure 4
0001
0000
0000
0000
,  // measure 5
0000
0000
0000
0000
,  // measure 6
1000
0000
0000
0000
,  // measure 7
0000
0000
0000
0000
,  // measure 8
0001
0000
0000
0000
,  // measure 9
0000
0000
0000
0000
,  // measure 10
1000
0000
0000
0000
,  // measure 11
0000
0000
0000
0000
,  // measure 12
0100
0000
0000
0000
,  // measure 13
0000
0000
0000
0000
,  // measure 14
0010
0000
0000
0000
,  // measure 15
0000
0000
0000
0000
,  // measure 16
0100
0000
0000
0000
,  // measure 17
0000
0000
0000
0000
,  // measure 18
0010
0000
0000
0000
,  // measure 19
0000
0000
0000
0000
,  // measure 20
0001
0000
0000
0000
,  // measure 21
0000
0000
0000
0000
,  // measure 22
1000
0000
0000
0000
,  // measure 23
0001
0000
0000
0000
,  // measure 24
1001
0000
1000
0000
,  // measure 25
0010
0000
1000
0000
,  // measure 26
0001
0000
0010
0000
,  // measure 27
0100
0000
0010
0000
,  // measure 28
0001
0000
1000
0000
,  // measure 29
0010
0000
1000
0000
,  // measure 30
0001
0000
0100
0000
,  // measure 31
0001
0000
1000
0000
,  // measure 32
0100
0000
0010
0000
,  // measure 33
0001
0000
0010
0000
,  // measure 34
0100
0000
1000
0000
,  // measure 35
0010
0000
0100
0000
,  // measure 36
0001
0000
0100
0000
,  // measure 37
0010
0000
1000
0000
,  // measure 38
0001
0000
0010
0000
,  // measure 39
0001
0000
1000
0000
,  // measure 40
0010
0000
0000
0000
,  // measure 41
1000
0000
0000
0000
,  // measure 42
0001
0000
0000
0000
,  // measure 43
1000
0000
0000
0000
,  // measure 44
0010
0000
0000
0000
,  // measure 45
1000
0000
0000
0000
,  // measure 46
0001
0000
0000
0000
,  // measure 47
0010
0000
0000
0000
,  // measure 48
0100
0000
0000
0000
,  // measure 49
0010
0000
0000
0000
,  // measure 50
0001
0000
0000
0000
,  // measure 51
0010
0000
0000
0000
,  // measure 52
0100
0000
0000
0000
,  // measure 53
0010
0000
0000
0000
,  // measure 54
0001
0000
0000
0000
,  // measure 55
1000
0000
0000
0000
,  // measure 56
0001
0000
0000
0000
;

//---------------dance-single - ----------------
#NOTES:
     dance-single:
     X-Scale 5:
     Easy:
     3:
     0.218055,0.299220,0.040381,0.218055,0.000000,189.000000,184.000000,5.000000,27.000000,0.000000,0.000000,0.218055,0.299220,0.040381,0.218055,0.000000,189.000000,184.000000,5.000000,27.000000,0.000000,0.000000:
// measure 0
0000
0000
0000
0000
,  // measure 1
0000
0000
0000
0000
,  // measure 2
0000
0000
0000
0000
,  // measure 3
0000
0000
0000
0000
,  // measure 4
1000
0000
0000
0000
0001
0000
0000
0100
,  // measure 5
0000
0100
0000
0000
,  // measure 6
0010
0000
1000
0000
,  // measure 7
0001
0100
0001
0100
,  // measure 8
0001
0000
0000
0000
1000
0000
0000
0100
,  // measure 9
0000
0100
0100
0000
1000
0000
0000
0000
,  // measure 10
0001
0000
0000
0000
1000
0000
0000
0010
,  // measure 11
0000
0010
0010
0000
0000
0000
0000
0000
,  // measure 12
1000
0000
0000
0000
0100
0000
0000
0010
,  // measure 13
0000
0010
0010
0000
0000
0000
0000
0000
,  // measure 14
0001
0000
1000
0000
,  // measure 15
0001
1000
0001
0000
0100
0000
0001
0000
,  // measure 16
1000
0000
0000
0000
0100
0000
0000
0010
,  // measure 17
0000
0010
0010
0000
0001
0000
0000
0000
,  // measure 18
1000
0000
0000
0000
0001
0000
0000
0100
,  // measure 19
0000
0100
0100
0000
0000
0000
0000
0000
,  // measure 20
0001
0000
0000
0000
1000
0000
0000
0100
,  // measure 21
0000
0100
0100
0000
0010
0000
0000
0000
,  // measure 22
2001
0000
3002
0000
0013
0100
0010
0200
,  // measure 23
0000
2300
0000
0000
3001
0000
1000
0000
,  // measure 24
1001
0000
0001
0000
1000
0001
0000
0200
,  // measure 25
0001
0000
0000
0001
0301
0000
0000
0000
,  // measure 26
1000
0100
0010
0100
,  // measure 27
1000
0002
0000
1003
0001
0000
0010
0200
,  // measure 28
0010
0000
0000
1000
1300
0000
0001
0200
,  // measure 29
0001
0000
0000
0010
0310
0000
0100
0000
,  // measure 30
0001
0000
1000
0000
0100
0000
0010
0200
,  // measure 31
0000
2300
0000
3001
1002
0000
0000
0000
,  // measure 32
0013
0000
0100
0000
1000
0000
0001
0200
,  // measure 33
0010
0000
0000
0001
0301
0000
0100
0001
,  // measure 34
1000
0000
0100
0020
0030
0200
0000
0300
,  // measure 35
1000
0002
0000
0103
0101
0000
0001
2000
,  // measure 36
0100
0000
0000
0001
3001
0000
0010
0200
,  // measure 37
1000
0000
0300
0100
1100
0000
0000
0001
,  // measure 38
2000
0000
3001
0000
,  // measure 39
0020
0000
0230
0000
,  // measure 40
0302
0000
0000
0000
0003
1000
0000
0100
,  // measure 41
0000
1000
0000
0001
0000
1000
0000
0010
,  // measure 42
0000
0100
0010
2000
0001
0000
0000
0000
,  // measure 43
3010
0000
1000
0000
,  // measure 44
0001
0000
0000
0000
0000
0010
0000
0100
,  // measure 45
0000
1000
0000
0100
0000
0010
0000
0002
,  // measure 46
0010
0000
1000
0000
,  // measure 47
0100
0000
1000
0000
,  // measure 48
0013
0000
0000
0000
0001
1000
0000
0100
,  // measure 49
0000
1000
0000
0001
0000
0010
0000
0100
,  // measure 50
0000
0010
0000
0001
1000
0000
0000
0001
,  // measure 51
0100
0001
0000
1000
0000
0100
0000
1000
,  // measure 52
0000
0001
0000
0100
0001
0000
0000
0010
,  // measure 53
0200
0000
0000
2000
0000
0000
0000
0300
,  // measure 54
3002
0000
0000
0010
0013
0000
0000
0010
,  // measure 55
0100
0010
0100
0000
2000
0001
0000
0001
,  // measure 56
0000
0000
0000
0000
,  // measure 57
3000
0000
0000
0000
;

//---------------dance-single - ----------------
#NOTES:
     dance-single:
     X-Scale 8:
     Medium:
     6:
     0.376116,0.442924,0.258435,0.266512,0.109027,326.000000,294.000000,32.000000,33.000000,0.000000,0.000000,0.376116,0.442924,0.258435,0.266512,0.109027,326.000000,294.000000,32.000000,33.000000,0.000000,0.000000:
// measure 0
0000
0000
0000
0000
,  // measure 1
0000
0000
0000
0000
,  // measure 2
0000
0000
0000
0000
,  // measure 3
0000
0000
0000
0000
,  // measure 4
1001
0000
0000
1000
0001
0000
0000
0010
,  // measure 5
0000
0000
0010
0000
0010
0000
0000
0000
0100
0000
0000
1000
0000
0000
0000
0000
,  // measure 6
1001
0000
0000
0000
1000
0000
0000
0000
0100
0000
0000
0010
0000
0000
0001
0000
,  // measure 7
0011
1100
0101
1010
,  // measure 8
1001
0000
0001
0010
0100
0000
1000
0010
,  // measure 9
0000
1000
0001
0200
0000
1300
0100
0001
,  // measure 10
0101
0000
1000
0000
1100
0100
0000
1000
,  // measure 11
0000
0001
0001
0100
0000
0000
0000
0000
,  // measure 12
0101
0000
0001
0010
0100
0000
1000
0100
,  // measure 13
0000
1000
0001
0020
0000
0130
0010
0001
,  // measure 14
0011
0000
2000
0000
3010
0000
1000
0100
,  // measure 15
0010
0100
0010
0001
,  // measure 16
0011
0000
0010
0100
1000
0000
0001
0100
,  // measure 17
0000
0010
0100
0002
0000
1003
0100
0010
,  // measure 18
0001
0000
1000
0000
0001
0100
0000
0102
,  // measure 19
0000
1000
1003
0100
0000
1000
0100
0000
,  // measure 20
1100
0000
1000
0001
0100
0000
0010
0200
,  // measure 21
0000
1300
0100
0001
0000
1000
0001
1000
,  // measure 22
0001
0010
0010
0000
0001
0100
0100
0000
,  // measure 23
0101
0000
1100
0000
0101
0001
1000
0000
,  // measure 24
2100
0000
3002
0000
0103
0001
1000
0200
,  // measure 25
0010
0000
0000
0010
0000
0000
0310
0000
0110
0000
0100
0000
1000
0000
0001
0000
,  // measure 26
0200
0302
0023
0230
,  // measure 27
1300
0002
0000
0013
0011
0000
0001
2000
,  // measure 28
0100
0000
0000
3001
1001
0000
0001
0200
,  // measure 29
1000
0000
0000
0010
0000
0000
0301
0000
0101
0000
0000
0000
0100
0000
0001
0000
,  // measure 30
1000
0000
0000
0000
0100
0000
1000
0000
0001
0000
0000
0000
0010
0000
0100
0010
,  // measure 31
0001
0000
0000
0001
1000
0000
0001
0000
2001
0000
0000
0000
0000
0000
3100
0000
,  // measure 32
1200
0000
1300
0001
0101
0000
0001
0200
,  // measure 33
1000
0000
0000
1000
0000
0000
0301
0000
0101
0000
0000
0000
0100
0000
0001
0000
,  // measure 34
2000
0000
3100
0010
0011
0002
0000
0003
,  // measure 35
1000
0000
0002
1000
0000
0000
1003
0000
1001
0000
0000
0000
0100
0000
1000
0000
,  // measure 36
0001
0000
0000
0000
0100
0000
0001
0000
1000
0000
0100
0000
0000
0100
0010
0100
,  // measure 37
0010
0000
0000
0110
0000
0000
1000
0000
1001
0000
0001
0000
0200
0000
0000
0000
,  // measure 38
0320
0000
0000
1000
2030
3000
0001
0000
,  // measure 39
0020
0000
0000
0100
0230
0000
0000
1000
,  // measure 40
2300
0000
0000
0000
3001
0100
0000
0001
,  // measure 41
0000
1000
0000
0100
0000
1000
0000
0001
,  // measure 42
0000
0010
0100
2000
0001
0000
0000
0000
,  // measure 43
3010
1000
0010
0000
1010
0001
0000
0001
,  // measure 44
1001
0000
0000
1000
0001
1000
0000
0100
,  // measure 45
0000
0001
0000
0100
0000
1000
0000
0002
,  // measure 46
0100
0000
1000
0000
,  // measure 47
0010
0000
0000
0000
1003
0000
1000
0100
,  // measure 48
0010
0000
0001
0100
0001
1000
0000
0010
,  // measure 49
0000
0001
0010
1000
0001
1000
0000
0010
,  // measure 50
0010
0000
0000
1000
0000
0000
0001
0000
0010
0000
0000
0100
0000
0000
1000
0000
,  // measure 51
0001
0000
0000
1000
0000
0000
0010
0000
1000
0000
0001
0000
0000
0000
1000
0000
,  // measure 52
0100
0000
0010
0000
0000
0000
0100
0000
0100
0000
0000
1000
0000
0000
0001
0000
,  // measure 53
0200
0000
0000
1000
0000
0000
0002
0000
0000
0000
0000
0000
0003
0000
0000
0000
,  // measure 54
0310
0000
0000
1000
0010
0000
1000
0001
,  // measure 55
0100
0000
0001
0010
0200
1000
0000
1000
,  // measure 56
0000
0000
0000
0010
0000
0000
0000
0000
1000
0000
0000
1000
0000
0000
0000
0000
,  // measure 57
0310
0000
0000
0001
0000
0000
0000
0000
1000
0000
0000
0001
0000
0000
0000
0000
,  // measure 58
0010
0000
0000
0100
0000
0000
0000
0000
1000
0000
0000
0001
0000
0000
0000
0000
,  // measure 59
0100
0000
0000
0010
0000
0000
0000
0000
1000
0000
0000
0001
0000
0000
0000
0000
,  // measure 60
0010
0000
0000
0100
0000
0000
0000
0000
1000
0000
0000
0001
0000
0000
1000
0001
;

//---------------dance-single - ----------------
#NOTES:
     dance-single:
     X-Scale 11:
     Hard:
     8:
     0.491489,0.565959,0.193827,0.331120,0.254397,426.000000,402.000000,24.000000,41.000000,0.000000,0.000000,0.491489,0.565959,0.193827,0.331120,0.254397,426.000000,402.000000,24.000000,41.000000,0.000000,0.000000:
// measure 0
0000
0000
0000
0000
,  // measure 1
0000
0000
0000
0000
,  // measure 2
0000
0000
0000
0000
,  // measure 3
0000
0000
0000
0000
,  // measure 4
0101
0000
0001
0000
1000
0000
0100
1100
,  // measure 5
0000
0001
0001
0000
0100
0010
1000
0000
,  // measure 6
1001
0000
0010
0000
0001
0000
1000
0010
,  // measure 7
1010
0000
0001
0100
0001
0000
1000
0000
,  // measure 8
1001
0000
1000
0100
0020
0000
1030
0020
,  // measure 9
0000
0031
1000
0020
0000
0031
0010
1000
,  // measure 10
2010
0000
3002
0000
1003
0200
0000
0302
,  // measure 11
0000
0103
0100
0010
0001
0000
1000
0000
,  // measure 12
1001
0000
0001
0100
0002
0000
0013
0200
,  // measure 13
0000
0301
0100
2000
0000
3100
1000
0001
,  // measure 14
0200
0000
0302
0000
0100
0000
1003
0100
,  // measure 15
0001
1000
0010
0100
1000
0001
0010
0000
,  // measure 16
0011
0000
0001
0010
0200
0000
0310
0002
,  // measure 17
0000
1003
0001
0200
0000
1300
0100
0001
,  // measure 18
0020
0000
0230
0000
0310
0001
0000
2000
,  // measure 19
0000
0000
0010
0000
3010
0000
1000
0000
0010
1000
0010
0000
0100
0000
0001
0000
,  // measure 20
0101
0000
0100
0001
0200
0000
1300
0200
,  // measure 21
0000
0301
0010
0200
0000
2300
0000
3001
,  // measure 22
1001
0001
0100
0010
1000
0001
0100
0010
,  // measure 23
1000
0100
0010
0001
1000
0010
0100
0001
1000
0000
0001
0000
0001
0000
1000
0000
,  // measure 24
2001
0000
0000
0000
3200
0000
0010
0000
0310
0000
0100
0000
0100
1000
0001
1000
,  // measure 25
0100
0000
0100
0010
0000
0000
0001
0000
0011
0000
0000
0000
0001
0000
1000
0000
,  // measure 26
0001
0000
0000
0000
0100
0000
0010
0000
0100
0000
0001
0000
0001
0010
0100
0010
,  // measure 27
0001
0000
1000
0010
0000
0000
1000
0000
1010
0010
0000
0000
0010
0000
0100
0000
,  // measure 28
0010
0000
1000
0100
0000
0000
1000
0000
0001
0000
0010
0000
0100
0010
0001
1000
,  // measure 29
0001
0000
0100
0010
0000
0000
0010
0000
1001
0000
0010
0000
1000
0000
0001
0000
,  // measure 30
1000
0000
0100
1000
0000
0000
0010
0000
1010
0000
0000
0000
0001
0100
0010
1000
,  // measure 31
0001
0000
0010
0100
0000
0000
0100
0000
1100
0000
1000
0000
0010
0000
0010
0000
,  // measure 32
2010
0000
0000
0000
3002
0000
0010
0000
0013
0000
0100
0000
0100
0010
0001
1000
,  // measure 33
0010
0000
0100
0010
0000
0000
1000
0000
0001
0000
0010
0000
1000
0000
0010
0000
,  // measure 34
0001
0100
0000
0000
0100
0000
0010
0000
0100
0000
0001
0000
0001
1000
0010
0100
,  // measure 35
0001
1000
0000
0100
1000
0000
1000
0000
0001
0000
0100
0000
0001
0000
1000
0000
,  // measure 36
1000
0100
0000
0000
0100
0000
0010
0000
0100
0000
1000
0000
0001
0010
0100
1000
,  // measure 37
0001
0000
1000
0001
0000
0000
0100
0000
0010
0000
0001
0000
1000
0000
0100
0000
,  // measure 38
0010
0000
1000
0000
0001
0000
1000
0000
0001
0000
0000
0000
1000
0100
0010
0100
,  // measure 39
1000
0000
0001
0010
0000
0000
1000
0000
0010
0000
0001
0000
1000
0000
0001
0000
,  // measure 40
2001
0000
0000
0100
3100
1000
0000
0001
,  // measure 41
0010
0000
1000
0000
0010
0000
0002
0000
0000
0003
0200
0000
0000
0300
0010
0000
,  // measure 42
1000
0001
0010
0200
1000
0000
0010
0000
,  // measure 43
1300
0100
0010
0000
0010
0000
0000
0000
0101
0000
0001
0000
0100
0000
0010
0000
,  // measure 44
1000
0000
0000
0001
0100
0000
0001
0000
1000
0000
0010
0000
0000
0000
0100
0000
,  // measure 45
0002
0000
0000
2003
0000
0000
3020
0000
0130
0000
0002
0000
0000
0000
1003
0000
,  // measure 46
0001
1000
0000
0000
0100
0000
0010
0000
0001
0000
0000
0000
1000
0000
0100
0000
,  // measure 47
0010
1000
0000
0010
0001
0000
0000
0000
0011
0000
1000
0001
1000
0000
0010
0000
,  // measure 48
1010
0000
0010
1000
0001
0100
0000
0001
,  // measure 49
0010
0000
0100
0000
1000
0000
0000
0000
0002
0000
0000
0203
0000
0000
2300
0000
,  // measure 50
3002
0000
0000
0023
0000
0000
2030
0000
3001
0000
0000
0100
0000
0000
0010
0000
,  // measure 51
0100
0010
0000
0100
0001
0000
1000
0000
0010
0000
0100
0000
0000
0000
0001
0000
,  // measure 52
0101
0000
0100
0000
0010
0000
0100
0000
0001
0000
0000
0010
0000
0000
0100
0000
,  // measure 53
1000
0001
1000
0000
0100
0000
0010
0001
,  // measure 54
0011
0000
0000
0000
0000
0000
0001
0000
1000
0000
0000
0100
0010
0000
0100
0000
,  // measure 55
1000
0001
1000
0000
2001
0001
0000
0001
,  // measure 56
0000
0010
0000
0010
0000
0000
0001
0000
0001
0000
0000
0010
0000
0000
0010
0000
,  // measure 57
0000
0100
0000
0100
0000
0000
0001
0000
3001
0000
0000
0001
0000
0000
0100
0000
,  // measure 58
0010
0100
0000
0000
0001
0000
1000
0000
0100
0000
0000
0010
0000
0000
0100
0000
,  // measure 59
1000
0010
0000
0000
0100
0000
0001
0000
0010
0000
0000
0100
0000
0000
0010
0000
,  // measure 60
0001
1000
0000
0001
0010
0000
0100
0000
1000
0000
0000
0010
1000
0000
0001
0010
;
