#TITLE:Ice u out;
#SUBTITLE:;
#ARTIST:Ninajirachi & Kota Banks;
#TITLETRANSLIT:;
#SUBTITLETRANSLIT:;
#ARTISTTRANSLIT:;
#GENRE:Speed Electro;
#CREDIT:;
#BANNER:Ice u out-bn.png;
#BACKGROUND:Ice u out-bg.png;
#LYRICSPATH:;
#CDTITLE:cdtitle.png;
#MUSIC:Ice u out.ogg;
#OFFSET:-0.002000;
#SAMPLESTART:57.602001;
#SAMPLELENGTH:12.800000;
#SELECTABLE:YES;
#BPMS:0.000000=150.000000
;
#STOPS:
;
#BGCHANGES:0.000=Ice u out.avi=1.000=1=0=0=StretchNoLoop==CrossFade==,
99999=-nosongbg-=1.000=0=0=0 // don't automatically add -songbackground-
;
#KEYSOUNDS:;
#ATTACKS:;

//---------------dance-single - ----------------
#NOTES:
     dance-single:
     X-Scale 3:
     Beginner:
     2:
     0.119349,0.176762,0.008794,0.000000,0.000000,95.000000,94.000000,1.000000,0.000000,0.000000,0.000000,0.119349,0.176762,0.008794,0.000000,0.000000,95.000000,94.000000,1.000000,0.000000,0.000000,0.000000:
0000
0000
0000
0000
,
0000
0000
0000
0000
,
0000
0000
0000
0000
,
0000
0000
0000
0000
,
0001
0000
0000
0000
,
0000
0000
0000
0000
,
1000
0000
0000
0000
,
0000
0000
0000
0000
,
0010
0000
0000
0000
,
0000
0000
0000
0000
,
0100
0000
0000
0000
,
0000
0000
0000
0000
,
0001
0000
0000
1000
,
0000
0001
0000
1000
,
0000
0100
0000
1000
,
0000
0001
0000
0100
,
0000
0001
0000
1000
,
0000
0001
0000
0100
,
0000
0001
0000
1000
,
0000
0000
0000
0000
,
0001
0000
0000
0000
,
0100
0000
0000
0000
,
0001
0000
0000
0000
,
1000
0000
0000
0000
,
0001
0000
0000
0000
,
0100
0000
0000
0000
,
0001
0000
0000
0000
,
1000
0000
0000
0000
,
0100
0000
0010
0000
,
0100
0000
1000
0000
,
0100
0000
0010
0000
,
0001
0000
1000
0000
,
0001
0000
0100
0000
,
0001
0000
1000
0000
,
0100
0000
0010
0000
,
0001
0000
0000
0000
,
1001
0000
0001
0000
,
1000
0000
0001
0000
,
1000
0000
0100
0000
,
0010
0000
0100
0000
,
0010
0000
0001
0000
,
0010
0000
0001
0000
,
0010
0000
0100
0000
,
0010
0000
0100
0000
,
1000
0000
0001
0000
,
1000
0000
0001
0000
,
0100
0000
0001
0000
,
0100
0000
0001
0000
,
0100
0000
0010
0000
,
0100
0000
0010
0000
,
1000
0000
0001
0000
,
1000
0000
0000
0000
,
0000
0001
0000
0010
,
0000
0001
0000
1000
,
0000
0001
0000
0010
,
0000
0001
0000
1000
,
0000
0100
0000
0010
,
0000
0100
0000
1000
,
0000
0001
0000
1000
,
0000
0000
0000
0000
,
0001
0000
0000
0000
,
0010
0000
0000
0000
,
0100
0000
0000
0000
,
1000
0000
0000
0000
,
0010
0000
0000
0000
,
0100
0000
0000
0000
,
0001
0000
0000
0000
,
1000
0000
0000
0000
;

//---------------dance-single - ----------------
#NOTES:
     dance-single:
     X-Scale 7:
     Easy:
     5:
     0.340459,0.420140,0.140706,0.140706,0.000000,271.000000,255.000000,16.000000,16.000000,0.000000,0.000000,0.340459,0.420140,0.140706,0.140706,0.000000,271.000000,255.000000,16.000000,16.000000,0.000000,0.000000:
0000
0000
0000
0000
,
0000
0000
0000
0000
,
0000
0000
0000
0000
,
0000
0000
0000
0000
,
1000
0000
0000
0001
0000
0000
1000
0000
,
0000
0000
0000
0000
,
0010
0000
0000
0000
,
0000
0010
0100
0001
,
1000
0000
0000
0001
0000
0000
0100
0000
,
0000
0000
0000
0000
0000
0000
0001
0100
,
0001
0000
0000
0000
,
0000
0000
1000
0100
0010
0000
0100
0000
,
2000
0000
0000
3002
0000
0000
0203
0000
,
0000
0000
0010
0000
0000
0000
0301
1000
,
0200
0010
0000
1000
,
0000
0000
0310
0100
1000
0000
0001
0000
,
0020
0000
0000
0230
0000
0000
2300
0000
,
0000
0000
0001
0000
0000
0000
3001
1000
,
0200
0010
0000
0010
,
0300
0000
0000
0000
,
1001
0001
1000
0001
,
0100
0000
0001
0000
1000
0000
0100
0010
,
0001
1000
0010
1000
,
0001
0000
0010
0100
1000
0000
0001
0000
,
1000
0010
1000
0001
,
1000
0000
0100
0000
0010
0000
0100
1000
,
0001
0100
0001
1000
,
0001
0000
0100
0010
1000
0000
0001
0000
,
0010
0000
0100
0000
1000
0000
0010
1000
,
0002
0003
0002
0003
0002
0000
1003
0100
,
0010
0100
1000
0001
,
0100
0010
2000
0000
3100
0010
0002
0000
,
1003
0000
0001
0000
0100
0001
1000
0000
,
0010
0000
0100
0000
0010
0000
1000
0100
,
0010
0100
1000
0001
,
1000
0000
0000
0000
,
1001
0000
1000
0000
0001
1000
0000
1000
,
0010
0000
1000
0000
0100
0010
0000
0010
,
0001
0000
0100
0000
0001
1000
0000
1000
,
0001
0000
0100
0010
0000
0010
1000
0000
,
0001
0000
0010
0000
0100
0010
0000
0010
,
0001
0000
1000
0000
0001
0100
0000
0100
,
0010
0000
1000
0000
0100
0010
0000
0010
,
0100
0000
1000
0001
0100
0001
0000
1000
,
0000
1001
0100
1100
,
1000
1001
0010
0011
,
0001
0010
0100
0000
0010
0100
0000
0100
,
1000
0000
0001
0000
0100
0001
1000
0000
,
0100
1100
0001
1001
,
0100
0110
0001
0101
,
0001
1000
0100
0000
1000
0010
0000
0010
,
0200
0301
0000
0001
,
1001
0100
1000
0001
,
1000
0000
0010
0000
1000
0000
0100
0010
,
0001
1000
0001
0100
,
0010
0000
0100
0000
0001
0000
0010
0100
,
1000
0001
0100
0001
,
0010
0000
0100
0000
1000
0000
0100
0010
,
0001
1000
0001
1000
,
1001
0110
1001
0110
,
1001
1000
0001
1000
,
0100
1000
0001
0010
,
0100
0010
0001
1000
,
0010
0000
1000
0001
0000
0100
0000
0001
,
0000
1000
0001
0010
,
0100
0010
0001
1000
,
0100
0010
0001
1000
,
0010
0000
0100
0001
0000
1000
0002
2000
,
0000
3003
0000
0000
;

//---------------dance-single - ----------------
#NOTES:
     dance-single:
     X-Scale 10:
     Medium:
     7:
     0.400762,0.417832,0.026382,0.299001,0.039574,319.000000,316.000000,3.000000,34.000000,0.000000,0.000000,0.400762,0.417832,0.026382,0.299001,0.039574,319.000000,316.000000,3.000000,34.000000,0.000000,0.000000:
0000
0000
0000
0000
,
0000
0000
0000
0000
,
0000
0000
0000
0000
,
0000
0000
0000
0000
,
0002
0000
0000
0023
0000
0000
0230
0000
,
0000
0000
0000
0000
0000
0000
0301
0100
,
2000
0000
0000
0000
,
0000
0000
3010
0100
0001
0000
1000
0000
,
0001
0000
0100
0010
0100
0000
0001
0100
,
0001
0000
0000
0000
0000
1000
0100
0001
,
1000
0010
0001
1000
0001
0100
0001
1000
,
0000
0100
0010
0000
0001
0000
1000
0000
,
0002
0000
0100
0203
0000
0000
0320
0000
,
0000
0000
0001
0000
0000
0000
0130
0010
,
2000
0001
0000
0010
,
0000
0000
3001
0010
0100
0000
0010
0000
,
0001
0000
1000
0100
0010
0000
0100
0000
,
1000
0000
0001
0000
0100
0001
1000
0002
,
0000
0100
0000
0103
,
0001
1000
0001
1000
0001
1000
0000
0000
,
1001
0000
0000
0000
0100
0000
0000
0000
1000
0000
0100
0010
0000
0000
0000
0000
,
0001
0000
0100
0000
0001
0010
0200
0000
,
1300
0000
0000
0000
0001
0000
0000
0000
1000
0000
0100
0010
0000
0000
0000
0000
,
0100
0000
0000
0000
1000
0000
0000
0000
0001
0100
0000
0001
0000
0000
1000
0000
,
0001
0010
0100
1000
,
0001
0000
0100
0000
0001
1000
0001
0000
,
0100
0000
0000
0000
0010
0000
0000
0000
1000
0010
0000
2000
0000
0000
0000
0000
,
3001
0000
0000
0000
0010
0000
0000
0000
0100
0000
0010
0001
0000
0000
0001
0000
,
1000
0001
1000
0100
,
0010
0000
0010
0000
0100
0000
1000
0001
,
0100
0001
1000
0001
,
0010
0100
1000
0000
0010
0100
0001
0000
,
1000
0000
0100
0000
0010
0100
1000
0000
,
0002
0203
2300
3002
,
0023
2030
3002
1000
,
1003
1000
1000
0000
0000
0000
1000
0001
,
1001
0000
0100
0000
1000
0100
0001
0100
,
1000
0000
0001
0000
1000
0010
0100
1000
,
0100
0010
2000
0000
3001
0200
0300
0001
,
0200
0300
0010
0100
0001
1000
0200
0000
,
0310
0000
0100
0000
1000
0001
0100
0001
,
1000
0000
0001
0000
0010
0100
1000
0001
,
0100
0001
2000
0000
3100
0020
0030
0100
,
0020
0030
0001
0010
0100
0001
0000
1000
,
0010
0100
1000
0000
0001
0100
0010
0000
,
1000
0100
0010
0000
0100
1000
0001
0000
,
0100
0001
2000
0000
3001
0200
0300
0010
,
0200
0300
0001
1000
0100
0001
0200
0000
,
1300
0001
0100
0000
0010
0100
0001
0000
,
0010
0100
1000
0000
0001
1000
0010
0000
,
1000
0100
0020
0000
0031
0020
0030
0001
,
0200
0000
0301
0100
0001
0000
1000
0000
,
1001
0100
1000
0001
,
1000
0000
0100
0000
1000
0000
0100
0010
,
0001
1000
0001
0100
,
0001
0000
1000
0000
0010
0000
0100
0010
,
1000
0001
0010
0100
,
0010
0000
0001
0000
0010
0000
0100
1000
,
0001
1000
0100
0010
,
0100
1000
0100
0001
0100
1000
0100
0010
,
0001
0000
0000
0000
1000
0000
0000
0000
0001
0000
0000
1000
0000
0000
0020
0000
,
0000
0100
0000
0130
0000
0010
0100
0001
,
1000
0100
0000
0100
0000
0010
0000
0010
,
0000
0001
0000
1000
0001
0100
0001
1000
,
0001
0000
0000
0000
0010
0000
0000
0000
0100
0000
0000
0010
0000
0000
0002
0000
,
0000
1000
0000
1003
0000
0001
0000
0001
,
0000
0100
0000
0100
0000
0010
0000
0010
,
0000
1000
0000
1000
0000
0001
0100
0010
;

//---------------dance-single - ----------------
#NOTES:
     dance-single:
     X-Scale 15:
     Hard:
     10:
     0.591720,0.716283,0.219854,0.325383,0.211060,471.000000,446.000000,25.000000,37.000000,0.000000,0.000000,0.591720,0.716283,0.219854,0.325383,0.211060,471.000000,446.000000,25.000000,37.000000,0.000000,0.000000:
// measure 0
0000
0000
0000
0000
,  // measure 1
0000
0000
0000
0000
,  // measure 2
0000
0000
0000
0000
,  // measure 3
0000
0000
0000
0000
,  // measure 4
2100
0000
0000
3002
0000
0000
0203
0000
,  // measure 5
1000
0000
0010
0000
1300
0100
0001
2000
,  // measure 6
0020
0000
0000
0000
3030
0200
0000
0302
,  // measure 7
0000
0000
0013
0100
1000
0000
0001
0000
,  // measure 8
1000
0000
0010
1000
0010
0000
0100
0000
1000
0000
0100
0001
0100
0000
0010
0000
,  // measure 9
0000
0000
1000
0001
0000
0100
0010
1000
,  // measure 10
0001
0010
0100
0001
0100
1000
0001
2000
,  // measure 11
0000
3100
0200
0000
0310
0000
0001
0000
,  // measure 12
1000
1001
0010
0011
,  // measure 13
1000
0001
0020
0000
0130
0000
1000
0010
,  // measure 14
1000
1001
0010
1100
,  // measure 15
0100
0010
0001
0002
0100
0000
0203
0000
,  // measure 16
1300
0100
0010
0100
0002
0000
0023
0000
,  // measure 17
0130
0010
0002
0003
1000
0010
1000
0002
,  // measure 18
0000
0000
0000
0000
0000
0013
0010
0010
,  // measure 19
0010
0010
0100
0100
0100
0100
0100
0000
,  // measure 20
1001
0000
0000
0000
1000
0000
0001
0010
0001
0000
0010
0100
0000
0000
0000
0000
,  // measure 21
1000
0000
0000
0001
0100
0000
0010
0100
0001
0000
1000
0010
0100
0000
0010
0000
,  // measure 22
1000
0000
0000
0000
0001
0000
0010
0100
1000
0000
0001
0100
0000
0000
0010
0000
,  // measure 23
0100
0000
0000
0000
0001
0000
1000
0000
0100
1000
0000
0001
0100
0000
0001
0000
,  // measure 24
1000
0000
0000
0000
0100
0000
0010
0100
1000
0000
0001
0010
0000
0000
0000
0000
,  // measure 25
0001
0000
0000
0100
0001
0000
1000
0001
0100
0000
0010
0100
0001
0000
1000
0000
,  // measure 26
0100
0000
0001
0000
1000
0000
0010
0000
0001
0010
0000
0001
0000
0000
1000
0000
,  // measure 27
0001
0000
0010
0100
1000
0000
0100
0010
0001
0000
1000
0001
0000
0000
0100
0000
,  // measure 28
0101
0000
0001
0010
0100
0000
1000
0000
,  // measure 29
1100
0000
0001
0000
1001
0000
0100
0001
,  // measure 30
0010
0000
0100
0000
1000
0000
0010
1000
,  // measure 31
0001
0010
0200
0300
0001
0010
0200
0300
,  // measure 32
0001
1000
0000
0000
1100
0000
0100
0000
1000
0000
0001
0000
0100
0000
0000
0000
,  // measure 33
0202
0303
0220
0330
2002
3003
0100
1000
,  // measure 34
1100
0000
0100
0010
0011
0001
0001
0001
,  // measure 35
1000
0000
1000
0000
1000
0000
1000
0020
0000
0000
0000
0000
0130
0000
0100
0000
,  // measure 36
1001
0001
0100
1000
0100
0010
0100
1000
,  // measure 37
0100
0001
0010
1000
0001
0100
0010
0001
,  // measure 38
1000
0010
0200
0000
1300
0100
0001
1000
,  // measure 39
0002
0000
0103
0010
0001
0010
2000
0000
,  // measure 40
3010
0100
1000
0001
0010
0100
0001
1000
,  // measure 41
0100
0001
1000
0010
0100
1000
0001
0100
,  // measure 42
1000
0100
0002
0000
1003
0100
0001
0100
,  // measure 43
2000
0000
3001
0100
0010
1000
0100
0010
,  // measure 44
0001
0010
0100
0001
1000
0010
0100
1000
,  // measure 45
0001
0100
1000
0100
0010
0100
0001
0010
,  // measure 46
0100
1000
2100
0000
3001
0010
0110
0100
,  // measure 47
1000
0000
1010
0010
1000
0100
0012
0000
,  // measure 48
1003
0100
0010
1000
0001
0100
0010
0001
,  // measure 49
1000
0010
0100
1000
0001
0010
0100
0001
,  // measure 50
1000
0100
1002
0000
0013
1000
0010
0100
,  // measure 51
2000
0000
0000
0000
3001
0000
0001
0000
0001
0010
0001
0000
0011
0000
0000
0000
,  // measure 52
1001
0000
0400
0000
1300
0000
0001
0100
0010
0000
0100
0001
1000
0000
0100
0000
,  // measure 53
0010
0000
0100
0010
0001
0000
1000
0001
0010
0000
0001
0000
0100
0000
0010
0000
,  // measure 54
0001
0000
0010
0000
1000
0000
0100
0010
0001
0000
1000
0001
0100
0000
0001
0000
,  // measure 55
0010
0000
0100
1000
0001
0000
0100
0001
1000
0000
0100
0000
0001
0000
1000
0000
,  // measure 56
0010
0000
0001
0000
0100
0000
0001
0010
0100
0000
1000
0001
0100
0000
0001
0000
,  // measure 57
0010
0000
0100
0010
0001
0000
1000
0001
0100
0000
0001
0000
0010
0000
0100
1000
,  // measure 58
0001
0000
1000
0000
0010
0000
0100
0010
1000
0000
0100
0010
0001
0000
1000
0000
,  // measure 59
0001
0010
0001
0000
1000
0010
1000
0000
0100
0010
0100
0000
1000
0001
1000
0000
,  // measure 60
0001
0000
0000
0000
1001
0000
0000
0000
0100
0000
0000
1000
0000
0000
0002
0000
,  // measure 61
0100
0000
0103
0001
1000
0100
0000
0100
,  // measure 62
0010
0000
0000
0000
0011
0000
0000
0000
0001
0000
0000
0100
0000
0000
0020
0000
,  // measure 63
0000
0000
0000
0000
0130
0000
0001
0000
0000
0000
0001
0100
0001
0000
1000
0100
,  // measure 64
1000
0000
0000
0000
0100
0000
0000
0000
0010
0000
0000
0100
0000
0000
2000
0000
,  // measure 65
0010
0000
3010
1000
0001
0010
0000
1000
,  // measure 66
0000
0100
0000
0001
0000
1000
0000
0010
,  // measure 67
0000
1000
0000
0001
0100
1000
0100
0001
;

//---------------dance-single - ----------------
#NOTES:
     dance-single:
     X-Scale 15 (DANCERUSH Special):
     Challenge:
     10:
     0.407043,0.450150,0.158295,0.193471,0.017588,324.000000,306.000000,18.000000,22.000000,160.000000,0.000000,0.407043,0.450150,0.158295,0.193471,0.017588,324.000000,306.000000,18.000000,22.000000,160.000000,0.000000:
0000
0000
0000
0000
,
0000
0000
0000
0000
,
0000
0000
0000
0000
,
0000
0000
0000
0000
,
2000
0000
0000
3200
0000
0000
0320
0000
,
0000
0000
0000
0000
0000
0000
1030
0010
,
0002
0000
0000
0000
,
0000
0000
0013
0100
1000
0000
0010
0000
,
1000
0000
0001
0M10
1000
0000
0001
0010
,
0000
0000
0000
0000
0000
0000
0100
0010
,
0001
0000
1000
0010
0001
1000
0100
0001
,
0000
0001
1000
0001
0200
0000
0020
0330
,
0LL0
1000
MMMM
1000
,
MMMM
0000
1000
0000
0000
0000
1000
0010
,
0100
0001
MMMM
0001
,
MMMM
0000
0001
0010
0200
0000
2000
3300
,
LL00
0000
0001
1000
0010
0000
1000
0000
,
0001
1000
0010
0000
1000
0010
0001
0020
,
0000
0000
1000
0000
0000
0000
200M
000M
,
000M
000M
000M
000M
000M
303M
L0L0
0000
,
1001
0000
1000
0100
00M0
0100
0001
0000
,
1000
0000
0010
0000
0001
0000
1000
0100
,
0001
0100
0001
1000
,
0001
0000
1000
0001
0010
0000
0M10
0000
,
1000
0000
0001
0100
00M0
0100
1000
0000
,
0001
0000
0100
0000
1000
0000
0001
0010
,
1000
0000
0000
0000
0100
0000
0000
0000
0010
0100
0000
2000
0000
0000
0000
0000
,
3001
0000
1000
0001
0100
0000
0001
0000
,
0101
0000
1000
0000
0001
0100
1000
0100
,
0001
MMMM
0001
MMMM
0001
0000
0100
0001
,
1000
MMMM
1000
MMMM
1000
MMMM
1000
MMMM
,
1000
0100
001M
0000
1000
0100
001M
0000
,
1000
0000
0001
0000
0100
0010
1000
0000
,
0001
0000
0010
0000
1000
0000
0010
0100
,
1000
0000
0001
1000
0001
1000
0001
1000
,
0001
1000
0001
0000
0000
0000
1010
0011
,
0001
MMMM
0001
MMMM
0001
0010
0M00
0010
,
1000
MMMM
1000
MMMM
1000
0100
00M0
0100
,
0001
1000
0002
0000
0013
0100
M000
0100
,
0001
0000
1000
0100
0001
0100
2000
0000
,
3001
MMMM
0001
MMMM
0001
0100
00M0
0100
,
1000
MMMM
1000
MMMM
1000
0100
00M0
0100
,
0001
1000
0020
0000
0130
0010
0M00
0010
,
0001
0000
1000
0100
0001
1000
0010
0001
,
1000
MMMM
1000
MMMM
1000
0010
0M00
0010
,
0001
MMMM
0001
MMMM
0001
0010
0M00
0010
,
1000
0001
1001
0000
1000
0100
0001
0100
,
2000
0000
3001
0100
1000
0100
0002
0000
,
1003
MMMM
1000
MMMM
1000
0100
00M0
0100
,
0001
MMMM
0001
MMMM
0001
0010
0M00
0010
,
1000
0001
1001
0000
0100
1000
0001
1000
,
0200
0000
0000
0000
0020
0330
0LL0
0000
,
0001
1000
1001
0000
0100
1000
0001
0000
,
0010
0000
0101
0000
0001
0000
1000
0100
,
0010
0000
1100
0000
0001
1000
0010
0000
,
0100
0000
1010
0000
0001
0000
1000
0100
,
0010
0000
0011
0000
1000
0001
0100
0000
,
0010
0000
1001
0000
0100
0000
1000
0001
,
0010
0000
1100
0000
1000
0100
0010
0000
,
0001
MMMM
0001
MMMM
0001
MMMM
0001
MMMM
,
0001
0000
MMMM
0000
0001
0000
MMMM
0000
0001
0000
0000
0010
0000
0000
0200
0000
,
0000
1000
0000
1300
0000
0001
0000
0001
,
0000
0100
0000
0100
0000
0010
0000
0010
,
0000
1000
0010
1000
0001
0000
0100
0000
,
0001
0000
MMMM
0000
0001
0000
MMMM
0000
0001
0000
0000
1000
0000
0000
0200
0000
,
0000
0010
0000
0310
0000
0100
0000
0100
,
0000
1000
0000
1000
0000
0001
0000
0001
,
0000
1000
0000
1000
0100
0001
0200
2000
,
0000
3300
LL00
0000
0000
0000
0000
0000
;
