#VERSION:0.83;
#TITLE:Ibiza 7AM;
#SUBTITLE:;
#ARTIST:Sandro Silva;
#TITLETRANSLIT:;
#SUBTITLETRANSLIT:;
#ARTISTTRANSLIT:;
#GENRE:Big Room House;
#ORIGIN:;
#CREDIT:;
#BANNER:Ibiza 7AM-bn.png;
#BACKGROUND:Ibiza 7AM-bg.png;
#PREVIEWVID:;
#JACKET:Ibiza 7AM-jacket.png;
#CDIMAGE:;
#DISCIMAGE:;
#LYRICSPATH:;
#CDTITLE:cdtitle.png;
#MUSIC:Ibiza 7AM.ogg;
#OFFSET:-0.005000;
#SAMPLESTART:52.505001;
#SAMPLELENGTH:15.000000;
#SELECTABLE:YES;
#BPMS:0.000=64.000,
48.000=128.000;
#STOPS:;
#DELAYS:;
#WARPS:;
#TIMESIGNATURES:0.000=4=4;
#TICKCOUNTS:0.000=4;
#COMBOS:0.000=1;
#SPEEDS:0.000=1.000=0.000=0;
#SCROLLS:0.000=1.000;
#FAKES:;
#LABELS:0.000=Song Start;
#BGCHANGES:;
#KEYSOUNDS:;
#ATTACKS:
;

//---------------dance-single - ----------------
#NOTEDATA:;
#CHARTNAME:X-Scale 13;
#STEPSTYPE:dance-single;
#DESCRIPTION:;
#CHARTSTYLE:;
#DIFFICULTY:Hard;
#METER:9;
#RADARVALUES:0.468290,0.533633,0.123879,0.066704,0.509810,344.000000,331.000000,13.000000,7.000000,0.000000,0.000000,0.000000,0.000000,0.000000,0.468290,0.533633,0.123879,0.066704,0.509810,344.000000,331.000000,13.000000,7.000000,0.000000,0.000000,0.000000,0.000000,0.000000;
#CREDIT:;
#NOTES:
0000
0000
0000
0000
,
0000
0000
0000
0000
,
0001
0000
0010
0000
0010
0000
0010
0000
0010
0000
0010
0000
0010
0000
0100
0010
,
0001
0000
1000
0000
1000
0000
1000
0000
1000
0000
1000
0000
1000
0010
0001
0010
,
1000
0000
0100
0000
0100
0000
0100
0000
0100
0000
0100
0000
0100
0000
0010
0100
,
1000
0001
0001
0001
0200
0000
0000
0000
,
0310
0000
0100
0000
0002
0000
0000
2003
0000
0000
0000
0000
0000
0000
0000
0000
,
0000
0000
0000
0000
3000
0000
0000
0000
0010
0000
0000
0100
0000
0000
1000
0000
0000
0000
0100
0000
0000
0000
0002
0000
0000
0000
0000
0000
0000
0000
0000
0000
,
0103
0000
0000
0000
0001
0000
0000
0000
0010
0000
0000
0100
0000
0000
1000
0000
0000
0000
0010
0000
0000
0000
2000
0000
0000
0000
0000
0000
3000
0000
0000
0000
,
0002
0000
0023
0000
1000
0100
0001
0100
,
0031
0000
0000
0010
0000
0000
0001
0000
0000
0000
0000
1000
0000
0000
0010
0000
0000
0000
0000
0100
0000
0000
0010
0000
0000
0000
1000
0000
0001
0000
1000
0000
,
0000
0000
0000
0100
0000
0000
0010
0000
0000
0000
0000
0001
0000
0000
0100
0000
0000
0000
0000
0001
0000
0000
1000
0000
0000
0000
0100
0000
0010
0000
0001
0000
,
1000
0001
0100
0010
1000
0001
0100
0010
,
1000
0100
0010
0001
1000
0100
0010
0001
,
1000
0001
1000
0001
1000
0001
1000
0001
1000
0001
1000
0001
1000
0001
1000
0001
,
1000
0000
0010
0100
0000
0001
0010
0000
0100
0010
0001
1000
0001
0000
0000
0000
,
1001
0000
0000
1000
0000
1000
0001
0000
0011
0000
0000
0010
0000
0000
0100
0000
,
0110
0000
0000
1000
0000
1000
0001
0000
1000
0000
0100
0000
0001
0000
0010
0000
,
1000
0000
0000
0001
0000
0001
0100
0000
0101
0000
0000
1000
0000
0000
0001
0000
,
1001
0000
0000
0100
0000
0100
0001
0000
1000
0000
0001
0000
0010
0000
0100
0010
,
0001
0000
0000
1000
0000
1000
0010
0000
1010
0000
0000
0001
0000
0000
0100
0000
,
0101
0000
0000
0001
0000
0001
1000
0000
0001
0000
0010
0000
1000
0000
0100
0000
,
0001
0000
0000
1000
0000
1000
0010
0000
1010
0000
0000
0001
0000
0000
0010
0000
,
0011
0000
0000
0001
0000
0001
0100
0000
0010
0000
1000
0000
0100
0000
0010
0100
,
1000
0000
0000
0001
0100
0001
1000
0000
0100
0000
0010
0100
0000
0000
0100
0000
,
1100
0000
0000
1000
0001
1000
0100
0000
0010
0000
0100
0000
1000
0000
0001
0000
,
0100
0000
0000
0001
0100
0001
1000
0000
0100
0000
0010
0100
1000
0000
0001
0000
,
1000
0000
0000
0010
1000
0001
0010
0000
0100
0000
0010
0000
0001
0000
1000
0001
,
1000
0000
0000
0010
1000
0001
0100
0000
0010
0000
0001
0010
0100
0000
0001
0000
,
1000
0000
0000
0100
0010
0001
1000
0000
0001
0100
0001
0000
0010
0000
0100
0000
,
1000
0000
0000
0010
1000
0001
0010
0000
0100
0000
0010
0100
1000
0000
0001
0000
,
1001
0000
0000
1000
0010
0000
1000
0000
0001
0000
0010
0000
0001
0010
0000
0000
,
0011
0000
0000
0010
0001
1000
0010
0000
1000
0000
0001
0010
0100
0000
0010
0000
,
0001
0000
0000
1000
0001
0100
0010
0000
1000
0000
0001
0000
0010
0000
0001
0000
,
1000
0000
0000
0100
1000
0001
0100
0000
0010
0000
0100
0010
1000
0000
0100
0000
,
0010
0000
0000
0001
0010
0001
1000
0000
0100
0000
0010
0100
0000
1000
0001
1000
,
0010
0000
0000
0100
0001
0010
0100
0000
0010
0000
0001
1000
0010
0000
0100
0000
,
0001
0000
0000
0010
0001
1000
0001
0000
0010
0000
1000
0000
0010
0000
0100
0000
,
1000
0000
0000
0100
1000
0001
0100
0000
0010
0000
1000
0100
0010
0000
0100
0000
,
1000
0000
0000
0001
0000
0000
0100
0000
0001
0000
1000
0000
0001
0000
0010
0000
,
0011
0000
0000
0000
;

//---------------dance-single - ----------------
#NOTEDATA:;
#CHARTNAME:X-Scale 11;
#STEPSTYPE:dance-single;
#DESCRIPTION:;
#CHARTSTYLE:;
#DIFFICULTY:Medium;
#METER:8;
#RADARVALUES:0.415199,0.400225,0.057175,0.085762,0.414519,305.000000,299.000000,6.000000,9.000000,0.000000,0.000000,0.000000,0.000000,0.000000,0.415199,0.400225,0.057175,0.085762,0.414519,305.000000,299.000000,6.000000,9.000000,0.000000,0.000000,0.000000,0.000000,0.000000;
#CREDIT:;
#NOTES:
0000
0000
0000
0000
,
0000
0000
0000
0000
,
2000
0100
0010
0001
0100
0010
0001
0100
,
3020
0001
0100
1000
0001
0100
1000
0001
,
0230
1000
0001
0010
1000
0001
0010
1000
,
0302
0100
0010
1000
2003
0001
0010
0001
,
3100
0000
0010
0000
0002
0000
0000
2003
0000
0000
0000
0000
0000
0000
0000
0000
,
3100
0000
0000
0000
0000
0000
0000
0000
0010
0000
0000
0100
0000
0000
1000
0000
0000
0000
0001
0000
0000
0000
2000
0000
0000
0000
0000
0000
0000
0000
0000
0000
,
3000
0000
0000
0000
0001
0000
0000
0000
0010
0000
0000
0001
0000
0000
0100
0000
0000
0000
0010
0000
0000
0000
0200
0000
0000
0000
0000
0000
0000
0000
0300
0000
,
0001
0000
1000
0000
0001
1000
0001
1000
,
1001
0000
0000
0001
0000
0000
1000
0000
0000
0000
0000
0001
0000
0000
0100
0000
0000
0000
0000
0001
0000
0000
0010
0000
0000
0000
0001
0000
0100
0000
0001
0000
,
0000
0000
0000
1000
0000
0000
0001
0000
0000
0000
0000
1000
0000
0000
0010
0000
0000
0000
0000
1000
0000
0000
0100
0000
0000
0000
1000
0000
0001
0000
1000
0000
,
0001
0000
0000
0010
0000
0000
0001
0000
1000
0000
0000
0100
0000
0000
0010
0000
,
0001
0000
0000
1000
0000
0000
0001
0000
0100
0000
1000
0000
0001
0000
0010
0000
,
1000
0000
0000
0100
0000
0000
1000
0000
0001
0000
0000
0100
0000
0000
0001
0000
,
0010
0000
0001
0100
0000
0001
1000
0000
0100
0000
0001
0000
0100
0000
1000
0000
,
1100
0000
0000
0100
0000
0100
1000
0000
0001
0000
0100
0000
0001
0000
1000
0000
,
0100
0000
0000
0010
0000
0010
0001
0000
1000
0000
0001
0000
0010
0000
0001
0000
,
1000
0000
0000
0010
0000
0010
0100
0000
0001
0000
0010
0000
0001
0000
1000
0000
,
0100
0000
0000
1000
0000
1000
0001
0000
0010
0000
0001
0000
1000
0000
0100
0010
,
0100
0000
0000
1000
0000
1000
0001
0000
0100
0000
1000
0000
0100
0000
0001
0000
,
0010
0000
0000
0100
0000
0100
1000
0000
0001
0000
1000
0000
0100
0000
0010
0000
,
0001
0000
0000
0100
0000
0100
0001
0000
1000
0000
0001
0000
0010
0000
0100
0000
,
1000
0000
0000
0001
0000
0001
0010
0000
0001
0000
1000
0000
0100
0000
1000
0001
,
1000
0000
0000
0010
0000
0010
1000
0000
0001
0000
0010
0001
0000
0000
1000
0000
,
0100
0000
0000
1000
0000
1000
0001
0000
0010
0000
1000
0000
0010
0000
0100
0000
,
1000
0000
0000
0001
0000
0001
0100
0000
0010
0000
0100
0001
0000
0000
0010
0000
,
0100
0000
0000
1000
0000
1000
0001
0000
0100
0000
0001
0000
1000
0000
0100
0010
,
0100
0000
0000
1000
0000
1000
0001
0000
0010
0000
0001
0100
0000
0000
0010
0000
,
0100
0000
0000
0001
0000
0001
0010
0000
1000
0000
0010
0000
0001
0000
0010
0000
,
0100
0000
0000
1000
0000
1000
0001
0000
1000
0000
0100
0010
0000
0000
0100
0000
,
0110
0000
0000
0000
1001
0000
0000
0000
0110
0000
0100
0000
0000
0100
0000
0000
,
0101
0000
0000
0001
0000
0001
1000
0000
0100
0000
0010
0100
0010
0000
0001
0000
,
1000
0000
0001
0100
0001
0000
0010
0000
1000
0000
0010
0000
0100
0000
1000
0000
,
0001
0000
0000
0100
0000
0100
0001
0000
1000
0000
0010
1000
0001
0000
0010
0000
,
0100
0000
0010
0001
1000
0000
0001
0000
0010
0000
1000
0000
0010
0000
0001
0010
,
0001
0000
0000
0100
0000
0100
0001
0000
1000
0000
0001
0010
0001
0000
0100
0000
,
0010
0000
1000
0100
1000
0000
0001
0000
0100
0000
1000
0000
0100
0000
0010
0000
,
1000
0000
0000
0001
0000
0001
0100
0000
0001
0000
0010
0100
0010
0000
0001
0000
,
0000
0000
0000
1000
0000
0000
0010
0000
1000
0000
0000
0000
0001
0000
0010
0000
,
0100
0000
0000
0000
;

//---------------dance-single - ----------------
#NOTEDATA:;
#CHARTNAME:X-Scale 6;
#STEPSTYPE:dance-single;
#DESCRIPTION:;
#CHARTSTYLE:;
#DIFFICULTY:Easy;
#METER:4;
#RADARVALUES:0.260010,0.285875,0.057175,0.038117,0.066704,191.000000,185.000000,6.000000,4.000000,0.000000,0.000000,0.000000,0.000000,0.000000,0.260010,0.285875,0.057175,0.038117,0.066704,191.000000,185.000000,6.000000,4.000000,0.000000,0.000000,0.000000,0.000000,0.000000;
#CREDIT:;
#NOTES:
0000
0000
0000
0000
,
0000
0000
0000
0000
,
0001
0000
0010
0000
0001
0000
0010
0100
,
1000
0000
0010
0000
1000
0000
0010
0100
,
0001
0000
0010
0000
0001
0000
0010
0100
,
1000
0010
1000
0010
,
0100
0001
2000
0000
3200
0000
0000
0000
,
0300
0000
0000
0000
0010
0000
0000
0001
0000
0010
0000
0001
0000
0000
0000
0000
,
1000
0000
0000
0000
0010
0000
0000
1000
0000
0001
0000
1000
0000
0000
0000
0000
,
0200
0320
0001
0100
,
0031
0000
0000
0010
0000
0000
0000
0001
0000
0000
0000
1000
0000
0010
0000
1000
,
0000
0000
0000
0001
0000
0000
0000
0010
0000
0000
0000
0100
0000
0000
1000
0000
,
0001
0000
0010
0000
,
0100
0000
1000
0000
,
0001
0010
0100
0010
,
0001
0000
1000
0000
,
1001
1000
0100
1000
,
0001
0000
0100
0000
0001
0010
0100
0010
,
0001
1000
0100
1000
,
0001
0000
0100
0000
0001
0010
0001
0000
,
1000
0100
1000
0001
,
0010
0000
0100
0000
1000
0001
0100
0001
,
1000
0100
1000
0001
,
0100
0000
0001
0000
0010
0100
0010
0000
,
0101
0000
0001
0000
1000
0000
0100
0010
,
0100
0000
1000
0000
0001
0010
0100
0010
,
0001
0000
1000
0100
1000
0000
0001
0000
,
0100
0000
0001
0010
0001
0000
1000
0100
,
0010
0000
0100
0000
1000
0000
0001
1000
,
0001
0000
0010
0000
0100
1000
0001
1000
,
0100
0000
0010
0001
0010
0000
0100
0000
,
1100
1001
0101
0001
,
1001
0000
1000
0010
1000
0000
0001
0010
,
0001
0000
0100
0010
0100
0001
0010
0100
,
1000
0000
0010
1000
0010
0000
0100
0010
,
0100
0000
0001
0010
0001
0000
1000
0010
,
1000
0000
0100
0010
0001
0000
1000
0001
,
0100
0000
0010
0100
0001
0010
0001
1000
,
0100
0000
0010
0100
1000
0000
0001
1000
,
0010
0000
0000
0000
1000
0000
1000
0100
,
0010
0000
0000
0000
;

//---------------dance-single - ----------------
#NOTEDATA:;
#CHARTNAME:X-Scale 1;
#STEPSTYPE:dance-single;
#DESCRIPTION:;
#CHARTSTYLE:;
#DIFFICULTY:Beginner;
#METER:1;
#RADARVALUES:0.091208,0.114350,0.009529,0.000000,0.000000,67.000000,66.000000,1.000000,0.000000,0.000000,0.000000,0.000000,0.000000,0.000000,0.091208,0.114350,0.009529,0.000000,0.000000,67.000000,66.000000,1.000000,0.000000,0.000000,0.000000,0.000000,0.000000,0.000000;
#CREDIT:;
#NOTES:
0000
0000
0000
0000
,
0000
0000
0000
0000
,
0001
0000
0000
0000
,
0010
0000
0000
0000
,
0100
0000
0000
0000
,
1000
0000
0000
0000
,
0001
0000
0000
0000
,
0100
0000
0000
0000
,
0010
0000
0000
0000
,
1000
0000
0100
0000
,
1000
0000
0000
0000
,
0000
0000
0000
0000
,
0001
0000
0000
0000
,
0010
0000
0000
0000
,
0100
0000
0000
0000
,
1000
0000
0001
0000
,
1000
0000
0100
0000
,
1000
0000
0001
0000
,
0100
0000
0001
0000
,
0010
0000
0100
0000
,
0010
0000
0001
0000
,
1000
0000
0001
0000
,
0100
0000
0001
0000
,
1000
0000
0100
0000
,
1000
0000
0010
0000
,
1000
0000
0001
0000
,
0010
0000
0100
0000
,
1000
0000
0010
0000
,
1000
0000
0001
0000
,
0100
0000
0001
0000
,
0010
0000
0001
0000
,
1000
0000
0100
0000
,
1000
0000
0001
0000
,
0100
0000
0001
1000
,
0001
0000
0010
0000
,
0100
0000
1000
0100
,
1000
0000
0100
0000
,
0010
0000
0001
0100
,
0001
0000
1000
0000
,
0001
0000
0000
0000
,
1001
0000
0000
0000
;

//---------------dance-single - ----------------
#NOTEDATA:;
#CHARTNAME:X-Scale 14;
#STEPSTYPE:dance-single;
#DESCRIPTION:;
#CHARTSTYLE:;
#DIFFICULTY:Challenge;
#METER:9;
#RADARVALUES:0.398864,0.533633,0.104821,0.114350,0.404989,293.000000,282.000000,11.000000,12.000000,150.000000,0.000000,0.000000,0.000000,0.000000,0.398864,0.533633,0.104821,0.114350,0.404989,293.000000,282.000000,11.000000,12.000000,150.000000,0.000000,0.000000,0.000000,0.000000;
#CREDIT:;
#NOTES:
// measure 0
0000
0000
0000
0000
,  // measure 1
0000
0000
0000
0000
,  // measure 2
1200
0000
0010
0000
0001
0000
0010
0000
1000
0000
0010
0000
0301
0000
0100
1000
,  // measure 3
0020
0000
0001
0000
0100
0000
1000
0000
0001
0000
0100
0000
1030
0010
0001
0010
,  // measure 4
0200
0000
1000
0000
0010
0000
1000
0000
0001
0000
0010
0000
0301
0000
0100
0001
,  // measure 5
0020
0000
0100
0000
1000
0000
0100
0000
0001
0000
0100
0000
1030
0010
0100
0010
,  // measure 6
0001
0000
0010
0000
0200
0000
0000
2300
0000
0000
0000
0000
0000
0000
0000
0000
,  // measure 7
0001
0000
0000
0000
3000
0000
0000
0000
0001
0000
0000
0010
0000
0000
2000
0000
0000
0000
3200
0000
0000
0000
0302
0000
0000
0000
0000
0000
0000
0000
0000
0000
,  // measure 8
0103
0000
0000
0000
0010
0000
0000
0000
1000
0000
0000
0100
0000
0000
0002
0000
0000
0000
0023
0000
0000
0000
2030
0000
0000
0000
0000
0000
3000
0000
0000
0000
,  // measure 9
0001
1000
0010
0100
0001
0010
0100
1000
1100
0000
0101
0000
0011
0000
1010
0000
,  // measure 10
1001
0000
0000
1000
0000
0000
0100
0000
0000
0000
0000
0010
0000
0000
0001
0000
0000
0000
0000
0100
0000
0000
0010
0000
0000
0000
1000
0000
0001
0000
0100
0000
,  // measure 11
0001
0000
0000
0010
0000
0000
0100
0000
0000
0000
0000
1000
0000
0000
0010
0000
0000
0000
0000
0100
0000
0000
0001
0000
0000
0000
1000
0000
0001
0000
1000
0100
,  // measure 12
0010
0000
0000
0100
1000
0000
0010
0000
0100
0000
0000
0001
0010
0000
0001
0000
,  // measure 13
1000
0000
0000
0100
0010
0000
0100
0000
1000
0000
0010
0000
0001
0000
0100
0000
,  // measure 14
1000
0000
0000
0100
0010
0000
0001
0000
1000
0000
0000
0010
0100
0000
0001
0000
,  // measure 15
0101
0000
0001
0100
00M0
0100
1000
0000
0100
0010
0001
1000
0001
0000
0000
0000
,  // measure 16
0001
MMMM
0001
MMMM
0001
MMMM
0001
MMMM
,  // measure 17
0001
MMMM
0001
MMMM
0001
MMMM
1000
MMMM
,  // measure 18
0001
MMMM
0001
MMMM
0001
MMMM
0001
MMMM
,  // measure 19
0001
MMMM
0001
MMMM
0001
0010
0010
0100
,  // measure 20
1000
MMMM
1000
MMMM
1000
MMMM
1000
MMMM
,  // measure 21
1000
MMMM
1000
MMMM
1000
MMMM
0001
MMMM
,  // measure 22
1000
MMMM
1000
MMMM
1000
MMMM
1000
MMMM
,  // measure 23
1000
0000
MMMM
0000
1000
0000
MMMM
0000
1000
0000
0010
0000
0100
0000
0001
0100
,  // measure 24
0001
0000
0000
1000
0000
1000
0010
0000
0100
0000
0000
0001
0010
0000
0001
0000
,  // measure 25
1000
0000
0000
0100
0000
0100
0010
0000
0001
0000
MMMM
0000
1000
0000
MMMM
0000
,  // measure 26
0001
0000
0000
0010
0M00
0010
1000
0000
0001
0000
0000
0010
0001
0000
1000
0000
,  // measure 27
0001
0000
0000
0100
00M0
0100
1000
0000
0001
0000
0010
0000
1000
0000
0010
0000
,  // measure 28
0001
0000
0000
0010
0M00
0010
1000
0000
0100
0000
0000
0010
0001
0000
1000
0000
,  // measure 29
0001
0000
0000
0100
00M0
0100
1000
0000
0001
0000
MMMM
0000
1000
0000
MMMM
0000
,  // measure 30
0001
0000
0000
0010
0M00
0010
1000
0000
0100
0000
0000
1000
0001
0000
1000
0000
,  // measure 31
1001
0000
0000
0000
0110
0000
0000
0000
1001
0000
1000
0000
0000
1000
0000
0000
,  // measure 32
1100
0000
0000
0100
1000
0000
0100
0000
0010
0000
0100
1000
0001
0000
0100
0000
,  // measure 33
0010
0000
0000
0100
0000
0100
0001
0000
1000
0000
MMMM
0000
0001
0000
MMMM
0000
,  // measure 34
1000
0000
0000
0100
0000
0100
0010
0000
0001
0000
0100
0001
0100
0000
0010
0000
,  // measure 35
1000
0000
0000
0001
0000
0001
0100
0000
0010
0000
0100
0000
0001
0000
0010
0100
,  // measure 36
1000
0000
0000
0100
0000
0100
0010
0000
0100
0000
1000
0001
1000
0000
0010
0000
,  // measure 37
0100
0000
0000
0001
0000
0001
0010
0000
0001
0000
MMMM
0000
1000
0000
MMMM
0000
,  // measure 38
0001
0000
0000
0010
0000
0010
0100
0000
1000
0000
0010
1000
0001
0000
0010
0000
,  // measure 39
0100
0000
0000
1000
0000
1000
0001
0000
0010
0000
1000
0000
0010
0000
0100
0000
,  // measure 40
1000
0000
0000
0000
;
