#TITLE:I'm Sprung;
#SUBTITLE:;
#ARTIST:T-Pain;
#TITLETRANSLIT:;
#SUBTITLETRANSLIT:;
#ARTISTTRANSLIT:;
#GENRE:Hip-Hop;
#CREDIT:;
#BANNER:sprung-bn.png;
#BACKGROUND:sprung-bg.png;
#LYRICSPATH:;
#CDTITLE:cdtitle.png;
#MUSIC:im sprung.ogg;
#OFFSET:0.050000;
#SAMPLESTART:67.150002;
#SAMPLELENGTH:19.299999;
#SELECTABLE:YES;
#BPMS:0.000000=100.000000
;
#STOPS:
;
#BGCHANGES:0.000=im sprung.mp4=1.000=1=0=1===CrossFade==,
175.000=sprung-bg.png=1.000=1=0=1===CrossFade==,
99999=-nosongbg-=1.000=0=0=0 // don't automatically add -songbackground-
;
#KEYSOUNDS:;
#ATTACKS:;

//---------------dance-single - ----------------
#NOTES:
     dance-single:
     :
     Challenge:
     8:
     0.407802,0.498844,0.047577,0.532861,0.294977,300.000000,295.000000,5.000000,56.000000,12.000000,0.000000,0.407802,0.498844,0.047577,0.532861,0.294977,300.000000,295.000000,5.000000,56.000000,12.000000,0.000000:
// measure 0
0000
0000
0000
0000
,  // measure 1
0000
0000
0000
0000
,  // measure 2
0000
0000
0000
0000
,  // measure 3
0000
0000
0000
0000
,  // measure 4
0000
2000
0001
3000
,  // measure 5
0002
0100
0013
0000
,  // measure 6
0020
0100
0031
0000
,  // measure 7
2000
0001
3100
0000
,  // measure 8
2100
3002
0203
0302
,  // measure 9
2003
3002
2003
0000
3020
0000
0230
0000
,  // measure 10
0302
0023
0032
0000
1003
2000
3020
0000
,  // measure 11
2030
3200
2300
0000
0001
3000
0000
0002
,  // measure 12
MMM0
0000
0000
0000
0103
0000
0001
0100
0010
0100
1000
0100
0010
0000
0100
0000
,  // measure 13
0001
0000
0000
0000
0010
0001
0010
0001
0010
0000
0001
1000
0100
0000
0000
1000
,  // measure 14
0100
0000
0000
0100
1000
0100
1000
0000
0001
1000
0001
0000
0010
0000
0100
0000
,  // measure 15
0010
0000
0000
0001
1000
0001
1000
0100
0010
0100
0010
0001
0010
0000
0100
0000
,  // measure 16
0010
0000
0000
0000
0101
0000
0001
0010
0001
0010
0100
0010
0100
0000
0000
0010
,  // measure 17
0100
0000
0000
0000
1000
0001
0100
0001
0000
1000
0001
1000
0010
0000
0100
0000
,  // measure 18
0010
0000
0000
0000
0010
0001
0010
0100
0010
0001
0010
0000
1000
0000
1000
0000
,  // measure 19
0001
0000
1000
0000
0001
1000
0010
1000
0010
0100
0010
0100
0010
0000
1000
0000
,  // measure 20
MMM1
0000
0002
0000
1000
0000
0003
0010
0001
1000
0001
0100
0010
0000
0010
0000
,  // measure 21
0100
0000
0000
0000
0010
0000
1000
0100
1000
0000
0100
0000
0010
0000
0000
0100
,  // measure 22
0020
0000
0032
0000
0023
0000
0230
0000
0320
0000
0032
0000
0000
0023
0000
0000
,  // measure 23
0230
0000
0000
0300
0200
0000
0000
1000
0000
0000
1300
0000
0100
0000
0100
0000
,  // measure 24
1000
0100
0010
0100
1000
0000
2000
0000
0001
0000
0000
0000
3001
0000
1000
0001
,  // measure 25
0010
0100
0010
0001
0010
0000
0020
0000
1000
0000
0000
0000
0031
0100
0010
1000
,  // measure 26
0010
0100
0010
0000
1000
0000
2000
0000
0001
0000
3002
0000
0023
0000
0230
0000
,  // measure 27
0010
0000
0000
0000
0310
0000
0010
0001
0010
0000
0010
0000
0001
0000
1000
0000
,  // measure 28
M1MM
0000
0000
0000
1100
0000
1000
0100
0000
1000
0001
0000
0001
0000
0010
0000
,  // measure 29
0100
0000
0000
0010
0001
0000
2000
0000
0001
0001
0000
0000
3001
0000
1000
0000
,  // measure 30
0100
0100
0001
0010
0010
1000
0100
0010
,  // measure 31
0001
0000
0100
0000
0010
0000
0001
0010
0000
0000
0010
0000
1000
0000
0100
0000
,  // measure 32
0010
0000
0001
0000
0101
0000
0001
0100
0000
0001
1000
0000
1000
0000
0010
0000
,  // measure 33
1000
0000
0000
0100
0010
0000
0020
0000
0001
0001
0000
0000
0130
0000
0010
0000
,  // measure 34
0100
0000
1000
0000
0001
0000
0100
0010
0000
0100
0001
0000
0010
0000
0100
0000
,  // measure 35
1000
0010
1000
0100
0010
0001
0010
0100
,  // measure 36
1MMM
0001
0000
0000
1002
0000
0000
1000
2003
0000
0010
0000
3020
0000
0000
0000
,  // measure 37
0130
0000
0010
0000
0200
0000
0000
0010
0320
0000
1000
0000
2030
0000
0000
0000
,  // measure 38
3100
0000
0010
0000
0001
0000
0000
1000
0001
0000
0010
0000
0100
0000
0000
0000
,  // measure 39
1000
0000
0100
0000
0010
0000
0000
0100
0010
0000
0001
0000
1000
0000
0002
0000
,  // measure 40
0100
0203
0320
2030
,  // measure 41
3001
1000
0002
0000
0023
0000
0230
0000
,  // measure 42
1300
0100
2000
0000
0000
3010
2000
0000
,  // measure 43
3001
0000
0010
0000
0200
0000
0000
0000
0000
0000
0000
0300
0000
0000
0000
0000
;

//---------------dance-single - ----------------
#NOTES:
     dance-single:
     :
     Hard:
     7:
     0.320804,0.353348,0.028546,0.513831,0.095154,236.000000,233.000000,3.000000,54.000000,0.000000,0.000000,0.320804,0.353348,0.028546,0.513831,0.095154,236.000000,233.000000,3.000000,54.000000,0.000000,0.000000:
// measure 0
0000
0000
0000
0000
,  // measure 1
0000
0000
0000
0000
,  // measure 2
0000
0000
0000
0000
,  // measure 3
0000
0000
0000
0000
,  // measure 4
0000
0002
1003
2000
,  // measure 5
3010
0020
0100
0030
,  // measure 6
1000
2000
0001
3000
,  // measure 7
0010
0020
0001
0030
,  // measure 8
1000
2000
3002
2003
,  // measure 9
3002
0023
0230
0000
0320
0000
0230
0000
,  // measure 10
2300
3200
0320
0000
0100
0230
0320
0000
,  // measure 11
0032
2003
3002
0000
1000
0003
0000
0002
,  // measure 12
0010
0000
0000
0000
0013
0000
0000
0001
0000
0000
0010
0000
0001
0000
0010
0000
,  // measure 13
0100
0000
0000
0000
0100
0000
0000
0010
0000
0000
0001
1000
0001
0000
1000
0000
,  // measure 14
0100
0000
0000
0000
0100
0000
0010
0100
0000
1000
0100
0000
0001
0000
0100
0000
,  // measure 15
1000
0000
0000
0000
1000
0000
0000
0001
0010
0000
0001
0000
1000
0000
0010
0000
,  // measure 16
1000
0000
0000
0000
1010
0000
0000
0100
0000
0000
0001
0000
0010
0000
0100
0000
,  // measure 17
0010
0000
0000
0000
0010
0000
0000
0001
0000
0000
0100
0000
0001
0000
1000
0000
,  // measure 18
0010
0000
0000
0000
0010
0000
1000
0100
0000
0100
0010
0000
0100
0000
1000
0000
,  // measure 19
0001
0000
0001
0010
0100
0000
0100
0010
,  // measure 20
0001
0000
0002
0000
1000
0000
0003
1000
0001
0000
1000
0000
0010
0000
0100
0000
,  // measure 21
1000
0000
0000
0000
0100
0000
0000
0001
0000
0000
0100
0000
0001
0000
0010
0000
,  // measure 22
0002
2003
3002
0023
0230
2300
3200
0000
,  // measure 23
2300
0000
3002
0000
0100
0100
0103
0001
,  // measure 24
1000
0000
1000
0002
0100
0000
0000
0003
,  // measure 25
0001
0000
0001
2000
0010
0000
0000
3000
,  // measure 26
1000
0000
1000
0002
0010
0023
0032
2003
,  // measure 27
0010
0000
3010
1000
0100
0001
0100
1000
,  // measure 28
0100
0000
0000
0000
0110
0000
0000
0100
0000
0000
0100
0000
1000
0000
0001
0000
,  // measure 29
0100
0000
0000
0100
0001
0000
1000
0000
0010
0000
0000
0000
1000
0000
0010
0000
,  // measure 30
1000
0000
0001
0010
0100
0010
0001
0010
,  // measure 31
0001
0000
1000
0100
0010
0100
1000
0100
,  // measure 32
1000
0000
0000
0000
1100
0000
0000
0100
1000
0000
0010
0000
1000
0000
0100
0000
,  // measure 33
0010
0000
0000
0010
0001
0000
0100
0000
0001
0000
0000
0000
0100
0000
0010
0000
,  // measure 34
0100
0000
0001
1000
0001
0010
0100
0010
,  // measure 35
0100
0000
1000
0001
1000
0100
0010
0100
,  // measure 36
0010
0000
0001
0000
1000
0000
0000
1000
0000
0000
1000
0000
1000
0000
0000
0000
,  // measure 37
0002
0000
0023
0000
0031
0000
0000
0001
0000
0000
0001
0000
0001
0000
0000
0000
,  // measure 38
2000
0000
3020
0000
1030
0000
0000
1000
0000
0000
1000
0000
1000
0000
0000
0000
,  // measure 39
0002
0000
0203
0000
0301
0000
0000
0001
0100
0000
0001
0000
0001
0000
0020
0000
,  // measure 40
0100
0230
0320
0032
,  // measure 41
1003
0100
2000
0000
3020
0000
2030
0000
,  // measure 42
3001
0100
0002
0000
0000
0013
0020
0000
,  // measure 43
0031
0000
1000
0000
0200
0000
0000
0000
0000
0000
0000
0300
0000
0000
0000
0000
;

//---------------dance-single - ----------------
#NOTES:
     dance-single:
     :
     Medium:
     5:
     0.269149,0.332563,0.038062,0.294977,0.033304,198.000000,194.000000,4.000000,31.000000,0.000000,0.000000,0.269149,0.332563,0.038062,0.294977,0.033304,198.000000,194.000000,4.000000,31.000000,0.000000,0.000000:
0000
0000
0000
0000
,
0000
0000
0000
0000
,
0000
0000
0000
0000
,
0000
0000
0000
0000
,
0000
0002
0000
0003
,
1000
2000
0000
3000
,
0010
0020
0000
0030
,
0100
0200
0000
0300
,
0001
1000
0100
0010
,
0001
0010
0001
0000
0010
0000
0100
0000
,
1000
0100
1000
0000
0001
0100
0001
0000
,
1000
0100
2000
0000
0000
3000
0000
2000
,
0010
0000
0000
0000
3010
0000
0000
1000
0000
0000
0010
0000
1000
0000
0000
0000
,
0001
0000
0000
0000
0001
0000
0000
0010
0000
0000
0001
0000
1000
0000
0000
0000
,
0100
0000
0100
1000
0100
0010
0100
0100
,
0100
0000
0010
0001
0010
0100
0010
0010
,
0010
0000
0000
0000
0011
0000
0000
0001
0000
0000
1000
0000
0010
0000
0000
0000
,
0100
0000
0000
0000
0100
0000
0000
0001
0000
0000
1000
0000
0100
0000
0000
0000
,
0010
0000
0010
1000
0010
0001
0010
0010
,
0010
0000
0001
1000
0100
0001
0100
0100
,
0100
2000
0100
3000
1000
0100
1000
0000
,
0001
0000
0000
0000
0001
0000
0000
0100
0000
0000
0001
0000
0010
0000
0000
0000
,
0001
0000
0001
0010
0100
0010
0001
0000
,
1000
0000
2000
0000
0100
0000
3001
1000
,
0001
0000
0100
0020
0000
0000
0000
0030
,
0000
0000
0010
0200
0000
0000
0000
0300
,
0000
0000
0100
0002
0000
2003
3002
2003
,
0010
0000
3010
1000
0001
0000
0100
0000
,
0001
0000
0101
0000
0001
0100
0001
0000
,
1000
0000
0000
0100
1000
0000
0100
0000
1000
0000
0000
0000
1000
0000
0100
0000
,
0010
0000
0001
0000
0100
0000
0010
0100
,
0001
0000
1000
0000
0010
0000
0100
0010
,
1000
0000
1010
0000
0100
0000
0010
0100
,
0010
0000
0000
0010
1000
0000
0001
0000
0010
0000
0000
0000
0001
0000
0010
0000
,
0100
0000
0010
0000
0001
0000
1000
0010
,
1000
0000
0001
0000
0010
0000
0001
0100
,
0001
1001
0100
1000
,
0001
0010
0001
0000
0100
0000
0001
0000
,
1000
0100
1000
0000
0010
1000
0001
0000
,
0001
0100
0001
0000
1000
0100
0010
0020
,
0100
0230
0320
0032
,
0023
0230
2300
0000
3020
0000
2030
0000
,
3002
0203
0320
0000
0000
0230
0320
0000
,
2030
0000
3200
0000
2300
0000
0000
0000
0000
0000
0000
3000
0000
0000
0000
0000
;

//---------------dance-single - ----------------
#NOTES:
     dance-single:
     :
     Easy:
     3:
     0.221572,0.270207,0.028546,0.209338,0.000000,163.000000,160.000000,3.000000,22.000000,0.000000,0.000000,0.221572,0.270207,0.028546,0.209338,0.000000,163.000000,160.000000,3.000000,22.000000,0.000000,0.000000:
0000
0000
0000
0000
,
0000
0000
0000
0000
,
0000
0000
0000
0000
,
0000
0000
0000
0000
,
0000
0002
0000
0003
,
0000
0020
0000
0030
,
0000
0200
0000
0300
,
0000
2000
0000
3000
,
0000
1000
0001
1000
,
0001
0010
0100
0000
0010
0000
0100
0000
,
0010
0100
1000
0000
0001
0100
0001
0000
,
0001
0100
0020
0000
0000
0030
0000
0020
,
0000
1030
0010
1000
,
0001
0001
1000
0010
,
0100
0000
0100
0000
0001
0000
1000
0100
,
1000
0000
1000
0000
0010
0000
0100
0010
,
0100
0110
0001
1000
,
0010
0010
0100
0001
,
1000
0000
1000
0000
0010
0000
0100
0010
,
1000
0000
1000
0000
0001
0000
0100
0001
,
1000
0002
0100
0003
1000
0000
0001
0000
,
0100
0100
0001
1000
,
0001
0000
0100
0010
0100
0010
0100
0000
,
0100
0200
0010
0300
,
0001
0000
1000
0002
0000
0000
0000
0003
,
0000
0000
0001
0200
0000
0000
0000
0300
,
0000
0000
0100
0020
0000
2030
0000
0000
,
0010
3010
1000
0000
,
0001
1001
0001
1000
,
0010
1000
0001
0010
,
0100
0000
0010
0000
0001
0000
1000
0100
,
1000
0000
0001
0000
0100
0000
0001
0010
,
0001
1000
0001
0010
,
0001
1000
0010
0100
,
0001
0000
0010
0000
0100
0000
1000
0010
,
1000
0000
0100
0000
0010
0000
0001
0100
,
0001
0011
0001
1000
,
0001
0010
0001
0000
0100
0000
0010
0000
,
1000
0100
1000
0000
0010
1000
0010
0000
,
0010
0100
0010
0000
1000
0000
0010
0020
,
0100
2030
3002
2003
,
3010
0100
0002
0000
2003
0000
3002
0000
,
1003
0100
2000
0000
0000
3001
2000
0000
,
3001
0000
0100
0000
0002
0000
0000
0000
0000
0000
0000
0003
0000
0000
0000
0000
;

//---------------dance-single - ----------------
#NOTES:
     dance-single:
     :
     Beginner:
     1:
     0.142731,0.228637,0.019031,0.133215,0.000000,105.000000,103.000000,2.000000,14.000000,0.000000,0.000000,0.142731,0.228637,0.019031,0.133215,0.000000,105.000000,103.000000,2.000000,14.000000,0.000000,0.000000:
0000
0000
0000
0000
,
0000
0000
0000
0000
,
0000
0000
0000
0000
,
0000
0000
0000
0000
,
0000
0002
0000
0003
,
0000
2000
0000
3000
,
0000
0002
0000
0003
,
0000
2000
0000
3000
,
0000
1000
1000
1000
,
0001
0100
0100
0100
,
0001
0000
0020
0000
0000
0130
1000
0000
,
1000
0100
0020
0000
0000
0030
0000
0020
,
0000
0031
0000
0000
,
1000
0001
0000
0000
,
0010
0100
0000
0000
,
1000
0001
0000
0000
,
0100
0010
0000
0000
,
0001
0010
0000
0000
,
0100
1000
0000
0000
,
1000
0001
0000
0000
,
0001
0002
0100
0003
0000
0000
0000
0000
,
0010
0100
0000
0000
,
0001
1000
0100
1000
,
0001
2000
0010
3000
,
1000
0000
0001
0000
,
0100
0000
0010
0000
,
0100
0000
0001
0000
,
1000
0000
0010
0000
,
0100
0110
0000
1000
,
0000
0001
0000
0010
,
0000
0100
0000
1000
,
0000
0001
0000
0100
,
0000
0001
0000
1000
,
0000
0010
0000
0100
,
0000
0001
0000
1000
,
0000
0010
0000
0100
,
0000
0110
0100
0100
,
0001
1000
1000
1000
,
0001
0000
0200
0000
0310
1000
0010
0000
,
0010
0100
0020
0000
1000
0000
0030
0020
,
1000
1030
0001
1000
,
0001
0010
0100
0010
,
0001
0000
2000
0000
0000
3001
1000
0000
,
1000
0000
0001
0000
2000
0000
0000
0000
0000
0000
0000
3000
0000
0000
0000
0000
;
