#VERSION:0.83;
#TITLE:I Want You;
#SUBTITLE:;
#ARTIST:DJ Isaac;
#TITLETRANSLIT:;
#SUBTITLETRANSLIT:;
#ARTISTTRANSLIT:;
#GENRE:Hardstyle;
#ORIGIN:;
#CREDIT:;
#BANNER:I Want You-bn.png;
#BACKGROUND:I Want You-bg.png;
#PREVIEWVID:;
#JACKET:I Want You-jacket.png;
#CDIMAGE:;
#DISCIMAGE:;
#LYRICSPATH:;
#CDTITLE:cdtitle.png;
#MUSIC:I Want You.ogg;
#OFFSET:-0.003000;
#SAMPLESTART:38.403000;
#SAMPLELENGTH:12.800000;
#SELECTABLE:YES;
#BPMS:0.000=75.000,
32.000=150.000,
56.000=75.000,
60.000=150.000,
116.000=75.000,
120.000=150.000,
148.000=75.000,
150.000=150.000,
178.000=75.000;
#STOPS:;
#DELAYS:;
#WARPS:;
#TIMESIGNATURES:0.000=4=4;
#TICKCOUNTS:0.000=4;
#COMBOS:0.000=1;
#SPEEDS:0.000=1.000=0.000=0;
#SCROLLS:0.000=1.000;
#FAKES:;
#LABELS:0.000=Song Start;
#BGCHANGES:;
#KEYSOUNDS:;
#ATTACKS:
;

//---------------dance-single - ----------------
#NOTEDATA:;
#CHARTNAME:X-Scale 14;
#STEPSTYPE:dance-single;
#DESCRIPTION:;
#CHARTSTYLE:;
#DIFFICULTY:Hard;
#METER:9;
#RADARVALUES:0.661180,0.905528,0.201229,0.307138,0.730777,437.000000,418.000000,19.000000,29.000000,0.000000,0.000000,1.000000,0.000000,0.000000,0.661180,0.905528,0.201229,0.307138,0.730777,437.000000,418.000000,19.000000,29.000000,0.000000,0.000000,1.000000,0.000000,0.000000;
#CREDIT:;
#NOTES:
// measure 0
0000
0000
0000
0000
,  // measure 1
0000
0000
0000
0000
,  // measure 2
0000
0000
0000
0000
,  // measure 3
0000
0000
0000
0000
,  // measure 4
1000
0000
0200
0000
0300
0000
2000
0000
3000
0000
0002
0000
0003
0000
0010
0001
0010
0000
0200
0000
0300
0000
2000
0000
3000
0000
0002
0000
0103
0000
0001
0100
,  // measure 5
0001
0000
0020
0000
0030
0000
0200
0000
0300
0000
2000
0000
3001
0000
1000
0100
2000
0000
3000
0000
0002
0000
0003
0000
0100
0000
0001
0010
0000
0010
0000
0010
,  // measure 6
0100
0000
1000
0000
0001
0000
0010
0000
0100
0000
0010
0001
0000
0001
0000
0001
1000
0000
0010
0000
0100
0000
0001
0000
0010
0000
0100
0010
0000
0010
0000
0010
,  // measure 7
0001
0000
1000
0000
0010
0000
0001
0000
0010
0000
0100
0001
0000
0001
0000
0001
0100
0000
0010
0000
1000
0000
0010
0000
0100
0010
1000
0001
0000
1000
0000
0001
,  // measure 8
0010
0000
0100
0000
0010
0000
0001
0000
1000
0000
0100
0010
0000
0100
0010
0100
,  // measure 9
0010
0000
0001
0000
0100
0000
0010
0000
1000
0001
1000
0100
0000
0100
0000
0100
,  // measure 10
0010
0000
0100
0000
1000
0000
0001
0000
0100
0000
0010
1000
0000
0001
1000
0001
,  // measure 11
0010
0000
0100
0000
1000
0000
0100
0000
0010
0100
1000
0001
1000
0010
0100
0001
,  // measure 12
1000
0100
0010
0001
1000
0100
0010
0001
,  // measure 13
0040
0001
0100
0001
,  // measure 14
0030
0002
0003
0020
0030
0002
0003
0200
0302
0003
0020
0030
0020
0030
0020
0030
,  // measure 15
0101
0000
0100
0001
0100
0000
0001
0100
0001
0000
0100
0001
0100
0000
0010
0000
,  // measure 16
1000
0000
0100
1000
0100
0000
1000
0100
1000
0000
0100
1000
0100
0000
0010
0000
,  // measure 17
0001
0000
1000
0001
1000
0000
0001
1000
0001
0000
1000
0001
1000
0000
0100
0000
,  // measure 18
0002
0000
1003
0010
0002
0000
1003
0010
,  // measure 19
1001
0000
1000
0010
1000
0000
0010
1000
0010
0000
1000
0010
1000
0000
0001
0000
,  // measure 20
0010
0000
0100
0010
0100
0000
0010
0100
0010
0000
0100
0010
0100
0000
1000
0000
,  // measure 21
0001
0000
0100
0001
0100
0000
0001
0100
0001
0000
0100
0001
0100
0000
0010
0000
,  // measure 22
0110
0000
1001
0000
1100
0000
0101
0001
,  // measure 23
1001
0000
1000
0001
1000
0000
0001
1000
0001
0000
1000
0001
2000
0000
0100
0000
,  // measure 24
3001
0000
0010
0100
0010
0000
0100
0010
0100
0000
0010
0100
0020
0000
0001
0000
,  // measure 25
0130
0000
1000
0100
1000
0000
0100
1000
0100
0000
1000
0100
1000
0000
0001
0000
,  // measure 26
1001
0000
1100
0000
1010
1000
1002
0000
,  // measure 27
0103
0001
1000
0010
0100
0001
1000
0010
,  // measure 28
0100
0001
0010
0100
1000
0001
0010
0100
,  // measure 29
1000
0000
0000
0000
0100
0000
0000
0000
1000
0000
0000
0000
0001
0000
0000
0000
0200
0000
0000
0000
0000
0000
0000
0000
0300
0000
0020
0000
0030
0000
0020
0030
,  // measure 30
0110
0000
0100
0010
1000
0000
0001
0000
0100
0000
0001
0000
1000
0000
0001
0000
,  // measure 31
0010
0001
1000
0100
0010
0001
0002
0000
,  // measure 32
0013
0000
0100
0010
0100
0000
1000
0000
0100
0000
0001
0000
0100
0000
1000
0000
,  // measure 33
0001
0000
0000
0100
0001
0000
0100
0000
0010
0100
0010
0000
0110
0000
1000
0000
,  // measure 34
1001
0000
0001
0100
0001
0000
0010
0000
0100
0000
0000
0010
0100
0000
1000
0000
,  // measure 35
0001
0000
0100
0001
0100
0000
0010
0000
0001
0000
0010
0000
2000
0000
0000
0000
,  // measure 36
3001
0010
0100
1000
0010
0100
0001
0010
0100
1000
0010
0100
,  // measure 37
0001
0000
0000
0100
0001
0000
0010
0000
1000
0000
0010
0000
0001
0000
0001
0000
0011
0000
0000
0000
0010
0000
0000
0000
0100
0000
0000
0000
0010
0000
0000
0000
,  // measure 38
0100
0000
1000
0000
0010
0000
1000
0010
1000
0000
0001
0000
1000
0000
0001
0000
,  // measure 39
1000
0000
0100
0000
0001
0000
1000
0000
0010
0000
0001
0000
1000
0000
0000
0010
0000
0000
1000
0000
0000
0010
0000
0000
,  // measure 40
0100
0000
0000
0010
0000
0000
0100
0000
0000
0000
0000
0000
1000
0000
0000
0000
0000
0000
0100
0000
0000
0000
0000
0000
0001
0000
0000
0000
0010
0000
0000
0000
0100
0000
0000
0000
1000
0000
0000
0000
0000
0000
0010
0000
0000
0100
0000
0000
,  // measure 41
0010
0000
0000
0000
0100
0000
0000
0000
0001
0000
0000
0000
0101
0000
0000
0000
0000
0000
1000
0000
0000
0000
0000
0000
1010
0000
0000
0000
0000
0000
0010
0000
0000
0000
0000
0000
1000
0000
0000
0000
0000
0000
0010
0000
0000
1000
0000
0000
,  // measure 42
0001
0000
0100
0000
0010
0000
0100
0010
1000
0000
0001
0000
1000
0000
0001
0010
,  // measure 43
0001
0000
0010
0000
1000
0000
0001
0000
0100
0000
1000
0000
0001
0000
0000
1000
0000
0000
0100
0000
0000
0010
0000
0000
,  // measure 44
0001
0000
0000
1000
0000
0000
0001
0000
0000
0000
0000
0000
1000
0000
0000
0100
0000
0000
0010
0000
0000
0100
0000
0000
1000
0000
0100
0000
0010
0000
0001
0000
0100
0000
0010
0000
1000
0000
0001
0000
1000
0000
1100
0000
0000
0100
0000
0000
,  // measure 45
1010
0000
0000
0000
;

//---------------dance-single - ----------------
#NOTEDATA:;
#CHARTNAME:X-Scale 11;
#STEPSTYPE:dance-single;
#DESCRIPTION:;
#CHARTSTYLE:;
#DIFFICULTY:Medium;
#METER:8;
#RADARVALUES:0.497776,0.524253,0.381275,0.180047,0.233001,329.000000,293.000000,36.000000,17.000000,0.000000,0.000000,0.000000,0.000000,0.000000,0.497776,0.524253,0.381275,0.180047,0.233001,329.000000,293.000000,36.000000,17.000000,0.000000,0.000000,0.000000,0.000000,0.000000;
#CREDIT:;
#NOTES:
// measure 0
0000
0000
0000
0000
,  // measure 1
0000
0000
0000
0000
,  // measure 2
0000
0000
0000
0000
,  // measure 3
0000
0000
0000
0000
,  // measure 4
1000
0000
0100
0000
0010
0000
0001
1000
0001
0000
0100
0000
0010
0000
1000
0001
,  // measure 5
1000
0000
0100
0000
0010
0000
0001
1000
0001
0000
1000
0000
0001
0100
0010
0100
,  // measure 6
0001
0000
0100
0000
0010
0000
1000
0001
1000
0000
0100
0000
0010
0000
0001
1000
,  // measure 7
0001
0000
0100
0000
0010
0000
1000
0001
0100
0000
0010
0000
0100
0000
0010
0000
,  // measure 8
0110
0000
0000
0000
0100
0000
0001
0000
1000
0000
0100
0010
0000
0100
0000
0010
,  // measure 9
0001
0000
0000
0000
1000
0000
0001
0000
0010
0100
0000
0010
0000
0100
0000
0010
,  // measure 10
0001
0000
0000
0000
1000
0000
0001
0000
1000
0000
0010
0100
0000
0010
0000
0100
,  // measure 11
0001
0000
0100
0000
0010
0000
0100
0000
0001
1000
0001
1000
0001
1000
0001
1000
,  // measure 12
0001
1000
0100
1000
0001
1000
0100
1000
,  // measure 13
1001
0110
1001
0110
,  // measure 14
0000
1000
0000
0100
0000
1000
0000
0001
0010
0000
0100
0000
0100
0000
0100
0000
,  // measure 15
0110
0000
1001
0000
0110
0000
1000
0100
,  // measure 16
1010
0000
0011
0000
1010
0000
0001
0010
,  // measure 17
0011
0000
0110
0000
0011
0000
0100
0001
,  // measure 18
2000
0000
3010
1000
0020
0000
1030
0010
,  // measure 19
1010
0000
1001
0000
1010
0000
1001
0010
,  // measure 20
0101
0000
0110
0000
0101
0000
0110
0010
,  // measure 21
1010
0000
0011
0000
1010
0000
0011
0010
,  // measure 22
0200
0000
1300
0100
2000
0000
3100
1000
,  // measure 23
1100
1000
0100
0001
0100
1000
0200
0000
,  // measure 24
0310
0001
0100
0010
0100
0001
0020
0000
,  // measure 25
0130
0010
0001
1000
0001
0010
0100
1000
,  // measure 26
0020
0000
0031
0010
0200
0000
0310
0100
,  // measure 27
0002
1000
0010
1000
,  // measure 28
2003
0001
0010
0001
,  // measure 29
3100
1000
0001
0010
0200
0000
0300
0000
,  // measure 30
1010
0000
1000
0100
0010
0100
1000
0100
,  // measure 31
0010
0000
0001
0200
0300
0010
0020
0000
,  // measure 32
1030
0000
0010
0100
1000
0100
0001
0100
,  // measure 33
0010
0000
0000
1000
0000
0000
0010
0000
1000
0100
0010
0000
0012
0000
0000
0000
,  // measure 34
1003
0000
0000
0000
0001
0000
0100
0000
0001
0000
0000
1000
0010
0000
0100
0000
,  // measure 35
0010
0000
1000
0100
0001
0100
2000
0000
,  // measure 36
3100
0000
0100
1000
0000
1000
0001
0000
0001
0100
0000
0100
,  // measure 37
0010
0000
0000
0000
0000
0000
0011
0010
0110
0000
0100
0000
1000
0000
0001
0000
,  // measure 38
1000
0100
1000
0001
1000
0100
1000
0001
,  // measure 39
0100
0000
0001
0000
1000
0000
0100
0000
0010
0000
0100
0000
1000
0000
0000
0001
0000
0000
0010
0000
0000
0001
0000
0000
,  // measure 40
1000
0001
0010
0001
1001
0000
0110
0000
,  // measure 41
1001
0000
0110
0100
1001
1000
0100
0001
,  // measure 42
0100
1000
0100
0010
0001
0100
0001
1000
,  // measure 43
0001
0000
0100
0000
0010
0000
0100
0000
0001
0000
0010
0000
0100
0000
0000
1000
0000
0000
0001
0000
0000
1000
0000
0000
,  // measure 44
0100
0000
0010
0000
0001
0000
1000
0000
0002
0000
0013
0100
2000
0000
3001
0100
,  // measure 45
0001
0000
0000
0000
;

//---------------dance-single - ----------------
#NOTEDATA:;
#CHARTNAME:X-Scale 6;
#STEPSTYPE:dance-single;
#DESCRIPTION:;
#CHARTSTYLE:;
#DIFFICULTY:Easy;
#METER:4;
#RADARVALUES:0.323781,0.428935,0.084728,0.285956,0.000000,214.000000,206.000000,8.000000,27.000000,0.000000,0.000000,0.000000,0.000000,0.000000,0.323781,0.428935,0.084728,0.285956,0.000000,214.000000,206.000000,8.000000,27.000000,0.000000,0.000000,0.000000,0.000000,0.000000;
#CREDIT:;
#NOTES:
// measure 0
0000
0000
0000
0000
,  // measure 1
0000
0000
0000
0000
,  // measure 2
0000
0000
0000
0000
,  // measure 3
0000
0000
0000
0000
,  // measure 4
0001
0010
0001
0010
0100
1000
0100
1000
,  // measure 5
0001
0100
0001
0100
0010
1000
0010
1000
,  // measure 6
0100
0010
0100
0010
0001
1000
0001
1000
,  // measure 7
0010
0100
0010
0100
0001
0010
0001
0010
,  // measure 8
0011
0010
0100
1000
,  // measure 9
1100
0100
0010
0001
,  // measure 10
0011
0010
0100
1000
,  // measure 11
1100
0100
0010
0001
,  // measure 12
1000
0001
1000
0001
1000
0001
1000
0001
,  // measure 13
0010
0100
0010
0100
0010
0100
0010
0100
,  // measure 14
0000
0000
0000
0000
0000
0000
0000
0000
0000
0000
0000
0000
0000
0000
0000
0000
2000
0000
0000
3000
0002
0000
0000
0003
2000
0000
0000
3000
0002
0000
0000
0003
,  // measure 15
1001
0000
1000
0000
0001
0000
0010
0100
,  // measure 16
0010
0000
0001
0000
1000
0000
0001
0100
,  // measure 17
0001
0000
1000
0000
0100
0000
1000
0100
,  // measure 18
2000
3002
2003
3002
,  // measure 19
1003
0000
0100
0000
1000
0000
0001
0100
,  // measure 20
0001
0000
0100
0000
0010
0000
0100
0001
,  // measure 21
0100
0000
0010
0000
1000
0000
0001
0010
,  // measure 22
0002
2003
3002
2003
,  // measure 23
3100
1000
0000
0001
0000
1000
0020
0000
,  // measure 24
0030
0100
0000
0010
0000
0100
0002
0000
,  // measure 25
0003
0010
0000
0100
0000
0010
0000
0100
,  // measure 26
2000
3002
2003
3002
,  // measure 27
0013
0100
0000
0010
0000
0200
0000
0000
,  // measure 28
0300
1000
0000
0001
0000
2000
0000
0000
,  // measure 29
3000
0001
0010
0100
1000
0000
0000
0000
,  // measure 30
1001
1000
0001
1000
,  // measure 31
0001
0000
1000
0100
0000
0100
0010
0000
,  // measure 32
0001
0100
0001
0100
,  // measure 33
0010
0000
1000
0000
0010
0000
1000
0001
,  // measure 34
1000
0100
0010
0001
,  // measure 35
1000
0100
0010
0001
,  // measure 36
2000
0001
0100
0001
,  // measure 37
3100
0000
0000
1100
1100
0000
1000
0000
,  // measure 38
0001
1000
0001
0000
0010
0100
0010
0000
,  // measure 39
0001
2000
3010
1000
,  // measure 40
0100
0010
0100
0000
1000
0000
0001
0000
,  // measure 41
1000
0000
0001
1000
0001
0000
0010
0000
,  // measure 42
0100
0010
0100
0000
1000
0001
1000
0000
,  // measure 43
0010
0000
0200
0000
0301
1000
0000
0010
,  // measure 44
0000
1000
0000
0100
0020
0032
0023
0032
,  // measure 45
0013
0000
0000
0000
;

//---------------dance-single - ----------------
#NOTEDATA:;
#CHARTNAME:X-Scale 3;
#STEPSTYPE:dance-single;
#DESCRIPTION:;
#CHARTSTYLE:;
#DIFFICULTY:Beginner;
#METER:3;
#RADARVALUES:0.189125,0.238297,0.074137,0.000000,0.000000,125.000000,118.000000,7.000000,0.000000,0.000000,0.000000,0.000000,0.000000,0.000000,0.189125,0.238297,0.074137,0.000000,0.000000,125.000000,118.000000,7.000000,0.000000,0.000000,0.000000,0.000000,0.000000,0.000000;
#CREDIT:;
#NOTES:
// measure 0
0000
0000
0000
0000
,  // measure 1
0000
0000
0000
0000
,  // measure 2
0000
0000
0000
0000
,  // measure 3
0000
0000
0000
0000
,  // measure 4
1000
0100
1000
0100
,  // measure 5
0010
0001
0010
0001
,  // measure 6
1000
0010
1000
0010
,  // measure 7
0100
0001
0100
0001
,  // measure 8
1001
0000
0100
0000
,  // measure 9
1001
0000
0010
0000
,  // measure 10
1001
0000
0100
0000
,  // measure 11
1001
0000
0010
0000
,  // measure 12
1001
1000
0001
1000
,  // measure 13
0001
1000
0001
1000
,  // measure 14
0000
0000
0000
0000
,  // measure 15
0001
0000
0010
0100
,  // measure 16
1000
0000
0001
0100
,  // measure 17
0010
0000
1000
0100
,  // measure 18
0010
0000
0010
0000
,  // measure 19
0010
0000
0001
1000
,  // measure 20
0010
0000
0100
0001
,  // measure 21
1000
0000
0100
0010
,  // measure 22
0001
0000
0001
0000
,  // measure 23
0001
0010
0100
1000
,  // measure 24
0001
0010
0100
1000
,  // measure 25
0001
0100
0010
1000
,  // measure 26
0001
0100
0010
1000
,  // measure 27
0001
0000
1000
0000
,  // measure 28
0001
0000
1000
0000
,  // measure 29
1001
0000
0000
0000
,  // measure 30
1000
0000
0001
0000
,  // measure 31
1000
0000
0001
0000
,  // measure 32
0010
0000
0100
0000
,  // measure 33
0010
0000
0100
0000
,  // measure 34
1000
0000
0010
0000
,  // measure 35
1000
0000
0010
0000
,  // measure 36
0100
0000
0001
0000
,  // measure 37
0100
0000
1001
0001
,  // measure 38
1000
0001
1000
0100
,  // measure 39
0010
0100
0010
0001
,  // measure 40
0100
0001
0100
0000
,  // measure 41
0010
0000
0100
0010
,  // measure 42
0100
0010
1000
0001
,  // measure 43
1000
0001
0010
0100
,  // measure 44
0010
0100
1000
0000
,  // measure 45
1000
0000
0000
0000
;
