#VERSION:0.83;
#TITLE:I Know How It Goes;
#SUBTITLE:(feat. Vera Blue & Ecca Vandal);
#ARTIST:Nina Las Vegas;
#TITLETRANSLIT:;
#SUBTITLETRANSLIT:;
#ARTISTTRANSLIT:;
#GENRE:Electropop;
#ORIGIN:;
#CREDIT:;
#BANNER:IKHIG-bn.png;
#BACKGROUND:IKHIG-bg.png;
#PREVIEWVID:;
#JACKET:IKHIG-jacket.png;
#CDIMAGE:;
#DISCIMAGE:;
#LYRICSPATH:;
#CDTITLE:cdtitle.png;
#MUSIC:IKHIG.ogg;
#OFFSET:-0.004000;
#SAMPLESTART:43.639999;
#SAMPLELENGTH:14.545000;
#SELECTABLE:YES;
#BPMS:0.000=132.000;
#STOPS:;
#DELAYS:;
#WARPS:;
#TIMESIGNATURES:0.000=4=4;
#TICKCOUNTS:0.000=4;
#COMBOS:0.000=1;
#SPEEDS:0.000=1.000=0.000=0;
#SCROLLS:0.000=1.000;
#FAKES:;
#LABELS:0.000=Song Start;
#BGCHANGES:;
#KEYSOUNDS:;
#ATTACKS:
;

//---------------dance-single - ----------------
#NOTEDATA:;
#CHARTNAME:X-Scale 12;
#STEPSTYPE:dance-single;
#DESCRIPTION:;
#CHARTSTYLE:;
#DIFFICULTY:Hard;
#METER:8;
#RADARVALUES:0.537564,0.586087,0.077701,0.288604,0.360754,339.000000,332.000000,7.000000,26.000000,0.000000,0.000000,1.000000,0.000000,0.000000,0.537564,0.586087,0.077701,0.288604,0.360754,339.000000,332.000000,7.000000,26.000000,0.000000,0.000000,1.000000,0.000000,0.000000;
#CREDIT:;
#NOTES:
// measure 0
0000
0000
0000
0000
,  // measure 1
0000
0000
0000
0000
,  // measure 2
0000
0000
0000
0000
,  // measure 3
0000
0000
0000
0000
,  // measure 4
0011
0010
0000
0010
1000
0000
0001
0010
,  // measure 5
0000
0010
2000
0000
0000
0000
3001
0000
,  // measure 6
1000
0100
0000
0100
0001
0000
1000
0100
,  // measure 7
0000
0000
0100
0000
0002
0000
0000
0000
0010
0000
0000
0100
0000
0000
1003
0000
,  // measure 8
1001
0000
1000
0000
0010
0000
1000
0010
1000
0000
0000
0000
0100
0000
1000
0000
,  // measure 9
0001
0000
1000
0000
0010
0000
0000
0100
0010
0000
0000
0000
1000
0000
0100
0000
,  // measure 10
0010
0000
0001
0000
1000
0000
0001
0010
0001
0000
0000
0000
1000
0000
0100
0000
,  // measure 11
0001
0000
0100
0000
1000
0000
0000
0010
0100
0000
0010
0000
1000
0000
0100
0000
,  // measure 12
0010
0000
0001
0000
1000
0000
0001
1000
0100
0000
1000
0000
0001
0000
0010
0000
,  // measure 13
1000
0000
0010
0000
0001
0000
0000
0001
0100
0000
0100
0000
0010
0000
1000
0000
,  // measure 14
0100
0001
1000
0010
0001
0000
0100
0010
,  // measure 15
1000
0000
0001
0000
1000
0000
0000
0100
1000
0000
0001
0000
0010
0000
0001
0000
,  // measure 16
0021
0001
0000
0100
0130
0000
0100
1000
,  // measure 17
0000
0001
1000
0000
0100
0000
0010
0000
,  // measure 18
1002
1000
0000
0010
0013
0000
0100
1000
,  // measure 19
0000
0000
0001
0000
1000
0000
0000
0000
0010
0000
0000
0100
0010
0000
0010
0000
,  // measure 20
1020
1000
0000
0100
0130
0000
0001
0010
,  // measure 21
1000
0100
0001
0000
1000
0000
0100
0000
,  // measure 22
0021
0001
0000
0100
0130
0000
1000
0010
,  // measure 23
0001
0000
1000
0000
0100
0000
0001
0000
1000
0001
1000
0001
1000
0000
1000
0000
,  // measure 24
1010
0010
0000
0000
0100
0000
0001
0000
1000
0000
0001
0000
0010
0000
0010
0100
,  // measure 25
1000
0000
0000
0001
0010
0000
0001
0010
0000
0000
0100
0000
1000
0000
0002
0000
,  // measure 26
1003
0000
0000
0100
0010
0000
0100
0010
0000
0000
0001
0000
1000
0000
0200
0000
,  // measure 27
0310
0000
0100
0010
0100
0000
1000
0100
1000
0000
0001
0100
0000
0000
0001
0100
,  // measure 28
0001
0100
0000
0010
1000
0000
0001
0000
1000
0000
0100
0000
0010
0000
0100
1000
,  // measure 29
0001
0000
0000
0100
0010
0000
0100
0010
0000
0000
0100
0000
0001
0000
0200
0000
,  // measure 30
0301
0000
0000
1000
0100
0000
1000
0100
0000
0000
0010
0000
0001
0000
1000
0000
,  // measure 31
0001
0000
0100
0010
0100
0000
0010
0100
0010
0000
1000
0000
0001
0000
0001
1000
,  // measure 32
0001
0010
0000
0100
0010
0000
0001
0000
0001
0000
1000
0000
1000
0000
0100
0010
,  // measure 33
0001
0000
0000
1000
0010
0000
1000
0010
0000
0000
1000
0000
0001
0000
0200
0000
,  // measure 34
0310
0000
1000
0100
0010
0000
0100
0010
0000
0000
0001
0000
1000
0000
0200
0000
,  // measure 35
1300
0000
0001
0100
0010
0000
0100
0010
4000
0000
3001
1000
0000
0000
0001
1000
,  // measure 36
0001
0010
0000
0100
1000
0000
0001
0000
1000
0000
0100
0000
1000
0000
0001
0010
,  // measure 37
0100
0000
0000
1000
0010
0000
1000
0010
0000
0000
0100
0000
0100
0000
0002
0000
,  // measure 38
1003
0000
0001
0010
0100
0000
0010
0100
0000
0000
1000
0000
1000
0000
0002
0000
,  // measure 39
0013
0000
0001
0100
0010
0000
0100
0010
1000
0000
0001
0000
1000
0000
0010
0100
,  // measure 40
0001
1000
0000
0000
0010
0000
0100
0000
0002
0000
0000
0000
2003
0000
0000
0000
,  // measure 41
3001
1000
0000
0000
0020
0000
0030
0200
0000
0302
0000
0000
1000
0000
0000
0000
,  // measure 42
0103
0001
0000
0000
1000
0100
0000
0000
2000
0000
0000
0000
3001
0000
0000
0000
,  // measure 43
1000
0000
0010
0100
0001
0000
0001
0001
,  // measure 44
0001
0010
0000
0000
0100
0000
0010
0000
0002
0000
0000
0000
1003
0000
1000
0000
,  // measure 45
1000
0100
0000
0000
2000
0000
3000
0002
0000
0203
0000
0000
1000
0000
0000
0000
,  // measure 46
0301
0100
0000
0000
0010
1000
0000
0000
0200
0000
0000
0000
1300
0000
0000
0000
,  // measure 47
0100
0000
0000
1000
0100
0000
1000
0000
0001
0000
0100
0000
0002
0000
2000
0000
,  // measure 48
3003
0000
0000
0000
;

//---------------dance-single - ----------------
#NOTEDATA:;
#CHARTNAME:X-Scale 10;
#STEPSTYPE:dance-single;
#DESCRIPTION:;
#CHARTSTYLE:;
#DIFFICULTY:Medium;
#METER:7;
#RADARVALUES:0.417048,0.532806,0.133202,0.155402,0.149852,263.000000,251.000000,12.000000,14.000000,0.000000,0.000000,0.000000,0.000000,0.000000,0.417048,0.532806,0.133202,0.155402,0.149852,263.000000,251.000000,12.000000,14.000000,0.000000,0.000000,0.000000,0.000000,0.000000;
#CREDIT:;
#NOTES:
0000
0000
0000
0000
,
0000
0000
0000
0000
,
0000
0000
0000
0000
,
0000
0000
0000
0000
,
1010
1000
0000
0010
1000
0000
0001
0010
,
0200
0000
0000
0000
0000
0000
0000
0300
,
1000
0001
0000
1000
0001
0000
0100
0010
,
2000
0000
0000
0000
0000
0000
0000
0000
0001
0000
0000
0001
0000
0000
3001
0000
,
1001
1000
0000
0001
0010
0000
0001
0010
,
2000
0000
3020
0000
0032
0000
1003
0100
,
1000
0010
0000
0100
0010
0000
1000
0100
,
0010
0000
0001
0100
0001
0000
0010
0100
,
1000
0001
0000
0001
0100
0010
0100
0000
,
0001
1000
0000
1000
0010
0100
0010
0000
,
0001
0010
1000
0001
1000
0000
0100
0000
,
0010
0001
1000
0001
,
1001
1000
0000
0001
1000
0000
0010
0100
,
0000
0010
0100
0000
0001
0000
0010
0000
,
0001
1000
0000
0001
1000
0000
0100
0010
,
0000
0100
0010
0000
0001
0000
0001
0001
,
1000
0100
0000
1000
0100
0000
0010
0001
,
0000
0010
0001
0000
1000
0000
0010
0000
,
1000
0001
0000
1000
0001
0000
0010
0100
,
1000
0100
0001
0100
0010
0100
1000
1000
,
1010
0000
0000
0001
0000
0000
0010
0000
0001
0000
0000
0000
1000
0000
0100
0000
,
0010
0000
0000
0001
0000
0000
0001
0000
0000
0000
1000
0000
0010
0000
0100
0000
,
0101
0000
0000
0010
0000
0000
0010
0000
0000
0000
1000
0000
0001
0000
0010
0000
,
0100
0000
0000
1000
0100
0000
1000
0100
0000
0000
1000
0001
0000
0000
1000
0000
,
1001
0000
0000
0001
0000
0000
1000
0000
0001
0000
0000
0000
0010
0000
0100
0000
,
1000
0000
0000
0001
0000
0000
0001
0000
0000
0000
1000
0000
0010
0000
0100
0000
,
0101
0000
0000
0010
0000
0000
0001
0000
0000
0000
1000
0000
0100
0000
0010
0000
,
0001
0000
0000
1000
0100
0000
1000
0100
0010
0000
0000
0000
0010
0000
0010
0000
,
0011
0000
0001
0000
1000
0000
0001
0000
0010
0000
0100
0000
1000
0000
0100
1000
,
0100
0000
0000
1000
0001
0000
1000
0001
0000
0000
0100
0000
0010
0000
1000
0000
,
1001
0000
0000
0100
0001
0000
0100
0001
0000
0000
0010
0000
0100
0000
1000
0000
,
0001
0000
0000
0100
0010
0000
0100
0010
0000
0000
1000
0001
0000
0000
1000
0000
,
1001
0000
0010
0000
0001
0000
1000
0000
0001
0000
0010
0000
0100
0000
1000
0100
,
1000
0000
0000
0001
0100
0000
0001
0100
0000
0000
0010
0000
0100
0000
0001
0000
,
0101
0000
0000
1000
0100
0000
1000
0100
0000
0000
0010
0000
0001
0000
1000
0000
,
0001
0000
0000
0100
0010
0000
0100
0010
1000
0000
0001
0000
1000
0000
1000
0000
,
1002
0000
0000
0000
0003
0000
0100
0010
,
2000
0000
3001
0010
,
0200
0000
0000
0000
0300
0000
1000
0001
,
0200
0000
0000
0000
0310
0000
0010
0010
,
0020
0000
0000
0000
0030
0000
0100
0100
,
0200
0000
0301
1000
,
0002
0000
0003
0010
,
0200
0000
0000
0000
1300
1000
2000
0000
,
3000
0000
0000
0000
;

//---------------dance-single - ----------------
#NOTEDATA:;
#CHARTNAME:X-Scale 6;
#STEPSTYPE:dance-single;
#DESCRIPTION:;
#CHARTSTYLE:;
#DIFFICULTY:Easy;
#METER:4;
#RADARVALUES:0.313975,0.372965,0.066601,0.455106,0.077701,198.000000,192.000000,6.000000,41.000000,0.000000,0.000000,0.000000,0.000000,0.000000,0.313975,0.372965,0.066601,0.455106,0.077701,198.000000,192.000000,6.000000,41.000000,0.000000,0.000000,0.000000,0.000000,0.000000;
#CREDIT:;
#NOTES:
0000
0000
0000
0000
,
0000
0000
0000
0000
,
0000
0000
0000
0000
,
0000
0000
0000
0000
,
2000
0000
0000
0000
0000
0000
3001
1000
,
0002
0000
0000
0003
,
0200
0000
0000
0000
0000
0000
0310
0100
,
0020
0000
0000
0030
,
0110
0100
0002
2003
,
3002
0000
0023
0000
0230
0000
1300
0100
,
0010
0001
2000
3002
,
2003
0000
3010
1000
0002
0000
0023
0000
,
0130
0000
1000
0010
2000
0000
3200
0000
,
0302
0000
0203
0000
2300
0000
3100
1000
,
0001
0100
0010
1000
0002
0000
0023
0000
,
0230
2300
3200
0320
,
0032
0000
0000
0000
0000
0000
1003
0001
,
2000
0000
3001
1000
,
0002
0000
0000
0000
0000
0000
1003
0001
,
2000
0000
0000
0000
3001
0000
1000
1000
,
1000
0100
0000
0100
0010
0000
0010
0001
,
0000
0001
1000
0000
0010
0000
0100
0000
,
0001
0010
0000
0010
0100
0000
0100
1000
,
0000
1000
0001
0000
0100
0000
0100
0100
,
0110
0000
0000
0010
0000
0000
0010
0000
0000
0000
1000
0000
0010
0000
1000
0000
,
0001
0000
0000
0001
0000
0000
0001
0000
0000
0000
1000
0000
0010
0000
0100
0000
,
0010
0000
0000
0010
0000
0000
0010
0000
0000
0000
1000
0000
0001
0000
0010
0000
,
0100
0000
0000
0100
0000
0000
0100
0000
0000
0000
1000
0000
0010
0000
1000
0000
,
0001
0000
0000
0001
0000
0000
0001
0000
0000
0000
0010
0000
0100
0000
1000
0000
,
0010
0000
0000
0010
0000
0000
0010
0000
0000
0000
1000
0000
0001
0000
1000
0000
,
0100
0000
0000
0100
0000
0000
0100
0000
0000
0000
0010
0000
0001
0000
1000
0000
,
0001
0000
0000
0001
0000
0000
0001
0000
0000
0000
1000
0000
0001
0000
1000
0000
,
0010
0000
0100
0000
0001
1000
0001
0000
,
0010
0000
0000
0010
0000
0000
0010
0000
0000
0000
0100
0000
1000
0000
0001
0000
,
0100
0000
0000
0100
0000
0000
0100
0000
0000
0000
0001
0000
0010
0000
0100
0000
,
1000
0000
0000
0000
1000
0000
0000
1000
0000
0000
1000
0000
0001
0000
0000
0000
,
0100
0000
0010
0100
0001
0000
1000
0001
,
0100
0000
0000
0100
0000
0000
0100
0000
0000
0000
0001
0000
0010
0000
0001
0000
,
1000
0000
0000
1000
0000
0000
1000
0000
0000
0000
0100
0000
0010
0000
0001
0000
,
0100
0000
0000
0000
0100
0000
0000
0100
0000
0000
0100
0000
0000
0000
0000
0000
,
0120
0000
0000
0000
2030
0000
0000
3000
,
1001
0000
0110
0000
,
1002
0000
0000
0000
2003
0000
0000
3000
,
0002
0000
0000
0000
0013
0000
0100
0010
,
0200
0000
0000
0000
2300
0000
0001
3001
,
0002
0000
1000
2003
,
3200
0000
0000
0320
,
0032
0000
0000
0000
,
0003
0000
0000
0000
;

//---------------dance-single - ----------------
#NOTEDATA:;
#CHARTNAME:X-Scale 1;
#STEPSTYPE:dance-single;
#DESCRIPTION:;
#CHARTSTYLE:;
#DIFFICULTY:Beginner;
#METER:1;
#RADARVALUES:0.107830,0.156512,0.011100,0.000000,0.000000,68.000000,67.000000,1.000000,0.000000,0.000000,0.000000,0.000000,0.000000,0.000000,0.107830,0.156512,0.011100,0.000000,0.000000,68.000000,67.000000,1.000000,0.000000,0.000000,0.000000,0.000000,0.000000,0.000000;
#CREDIT:;
#NOTES:
0000
0000
0000
0000
,
0000
0000
0000
0000
,
0000
0000
0000
0000
,
0000
0000
0000
0000
,
1000
0000
0000
0000
,
0100
0000
0000
0000
,
0010
0000
0000
0000
,
0001
0000
0000
0000
,
1000
0000
0010
0000
,
0100
0000
0001
0000
,
1000
0000
0010
0000
,
0100
0000
0001
0000
,
1000
0000
0100
0000
,
0010
0000
0001
0000
,
1000
0000
0100
0000
,
0010
0000
0001
0000
,
1000
0000
0000
0000
,
0010
0000
1000
0000
,
0001
0000
0000
0000
,
0010
0000
0100
0000
,
1000
0000
0000
0000
,
0001
0000
0100
0000
,
0010
0000
0000
0000
,
1000
0000
0001
0000
,
1001
0000
1000
0000
,
0100
0000
0000
0000
,
0010
0000
0000
0000
,
0100
0000
0000
0000
,
1000
0000
0010
0000
,
1000
0000
0000
0000
,
0001
0000
0000
0000
,
0100
0000
0001
0000
,
1000
0000
0100
0000
,
0010
0000
0001
0000
,
1000
0000
0100
0000
,
0010
0000
0001
0000
,
1000
0000
0010
0000
,
0100
0000
0001
0000
,
1000
0000
0010
0000
,
0100
0000
0001
0000
,
1000
0000
0000
0000
,
0100
0000
0000
0000
,
0010
0000
0000
0000
,
0001
0000
0000
0000
,
1000
0000
0000
0000
,
0010
0000
0000
0000
,
0100
0000
0000
0000
,
0001
0000
0000
0000
;
