#VERSION:0.83;
#TITLE:I Don't Wanna Spend Another Christmas Without You;
#SUBTITLE:;
#ARTIST:The Ready Set;
#TITLETRANSLIT:;
#SUBTITLETRANSLIT:;
#ARTISTTRANSLIT:;
#GENRE:Electropop Rock;
#ORIGIN:;
#CREDIT:;
#BANNER:I Don't Wanna Spend Another Christmas Without You-bn.png;
#BACKGROUND:I Don't Wanna Spend Another Christmas Without You-bg.png;
#PREVIEWVID:;
#JACKET:I Don't Wanna Spend Another Christmas Without You-jacket.png;
#CDIMAGE:;
#DISCIMAGE:;
#LYRICSPATH:;
#CDTITLE:cdtitle.png;
#MUSIC:I Don't Wanna Spend Another Christmas Without You.ogg;
#OFFSET:-0.002000;
#SAMPLESTART:44.001999;
#SAMPLELENGTH:13.333000;
#SELECTABLE:YES;
#BPMS:0.000=135.000;
#STOPS:;
#DELAYS:;
#WARPS:;
#TIMESIGNATURES:0.000=4=4;
#TICKCOUNTS:0.000=4;
#COMBOS:0.000=1;
#SPEEDS:0.000=1.000=0.000=0;
#SCROLLS:0.000=1.000;
#FAKES:;
#LABELS:0.000=Song Start;
#BGCHANGES:;
#KEYSOUNDS:;
#ATTACKS:
;

//---------------dance-single - ----------------
#NOTEDATA:;
#CHARTNAME:X-Scale 10;
#STEPSTYPE:dance-single;
#DESCRIPTION:;
#CHARTSTYLE:;
#DIFFICULTY:Hard;
#METER:7;
#RADARVALUES:0.435878,0.526667,0.178051,0.574620,0.024280,377.000000,355.000000,22.000000,71.000000,0.000000,0.000000,0.000000,0.000000,0.000000,0.435878,0.526667,0.178051,0.574620,0.024280,377.000000,355.000000,22.000000,71.000000,0.000000,0.000000,0.000000,0.000000,0.000000;
#CREDIT:iamthek3n;
#NOTES:
// measure 0
0000
0000
0000
0000
,  // measure 1
0000
0000
0000
0000
,  // measure 2
0000
0000
0000
0000
,  // measure 3
0000
0000
0000
0000
,  // measure 4
0000
0000
0000
1000
,  // measure 5
0001
0000
0100
0010
1000
0002
0003
2000
,  // measure 6
3000
0000
0010
1000
0100
0020
0000
0032
,  // measure 7
0003
1000
0100
2000
0000
0000
3000
0000
,  // measure 8
0000
0000
0000
0010
1000
0002
0000
0000
,  // measure 9
0103
0000
0001
0010
1000
0001
0100
1000
,  // measure 10
0010
0100
0001
1000
0100
0020
0000
0000
,  // measure 11
0031
0000
0010
0100
1000
0002
0000
0103
,  // measure 12
0001
0000
1000
0000
0010
0000
0000
0100
0000
0000
0020
0000
0000
0000
2030
0000
,  // measure 13
0001
3000
1000
0100
0010
0002
0000
0203
,  // measure 14
0001
0300
0100
0010
1000
0002
0000
0023
,  // measure 15
0000
1030
0010
0002
0100
0000
1003
0000
,  // measure 16
0000
1000
1000
0000
0001
0000
1001
0000
,  // measure 17
0000
1100
0100
0000
1000
0100
0010
0000
,  // measure 18
0000
0011
0000
0001
1000
0001
0100
0000
,  // measure 19
0000
0101
0001
0000
0010
0100
1000
0000
,  // measure 20
0000
0000
1100
0000
0000
0000
1000
0000
0010
0000
1000
0000
0001
0000
0000
0010
,  // measure 21
0000
0000
0001
0000
2000
0000
0000
0000
3010
0000
1000
0000
0100
0000
0000
0010
,  // measure 22
0000
0000
0001
0000
0200
0000
0000
0000
0310
0000
0100
0000
0001
0000
0000
1000
,  // measure 23
0000
0000
0100
0000
1000
0000
0000
0010
0000
0000
0100
0000
0101
0000
0000
0000
,  // measure 24
0000
0000
0001
0100
0001
0000
2000
0000
,  // measure 25
0100
3100
1000
0001
0200
0000
0302
0000
,  // measure 26
0010
0013
0100
1000
0001
0100
0010
0100
,  // measure 27
0001
0001
1000
0010
1000
0002
0000
0203
,  // measure 28
0010
0310
0100
0001
1000
0200
0000
0310
,  // measure 29
0001
0001
0100
0010
2000
0000
3200
0000
,  // measure 30
0010
0310
0100
1000
0001
0010
1000
0010
,  // measure 31
0001
0001
1000
0010
1000
0002
0000
0203
,  // measure 32
0000
0300
0001
0010
0100
1000
1100
1000
,  // measure 33
1001
0001
0001
0000
0101
0100
0100
0000
,  // measure 34
0110
0010
0010
0000
1010
1000
1000
0002
,  // measure 35
0100
0103
0001
0010
0001
2000
0000
3020
,  // measure 36
0100
0230
0000
0001
0301
0000
0101
0000
,  // measure 37
0001
0002
0000
0000
1003
0001
1000
0000
,  // measure 38
0100
0200
0000
0000
0310
0000
0101
0000
,  // measure 39
0001
2000
0000
0000
3100
0020
0000
0032
,  // measure 40
0000
1003
0001
1000
1000
0000
2001
0000
,  // measure 41
3000
0100
0200
0000
0300
1000
2000
0000
,  // measure 42
3000
0001
0002
0000
0003
0100
0100
0020
,  // measure 43
0000
0001
0001
0000
1000
2030
0000
0010
,  // measure 44
0000
3001
0000
1000
0010
1000
2010
0000
,  // measure 45
3000
0001
0002
0000
0103
0010
0020
0000
,  // measure 46
0030
1000
2000
0000
3001
0010
0010
0200
,  // measure 47
0000
1000
1300
0100
1000
0001
0000
0100
,  // measure 48
0000
0010
0010
1000
0000
0001
0100
0002
,  // measure 49
0000
0000
0013
0200
0000
1300
0020
0000
,  // measure 50
0030
0000
1000
0001
0100
0001
2000
0000
,  // measure 51
0010
0000
3010
1000
0001
0000
0020
0000
,  // measure 52
0100
0000
0031
0010
1000
0010
0100
1000
,  // measure 53
0001
0100
0010
1000
0001
0200
0000
0302
,  // measure 54
0000
0003
0010
0001
0001
0000
0101
0000
,  // measure 55
0001
0100
1000
0100
0002
0000
0023
0000
,  // measure 56
0130
1000
0001
0100
0010
1000
0100
0001
,  // measure 57
0100
0010
0001
1000
0010
2000
0000
3002
,  // measure 58
0000
0003
0100
0001
0001
0000
0011
0002
,  // measure 59
0003
1000
2000
0000
3001
0010
0020
0000
,  // measure 60
0130
0010
0020
0000
0031
1000
1000
0020
,  // measure 61
0000
0130
0010
1000
0001
0010
0100
1000
,  // measure 62
0001
2000
0000
0010
3010
0000
1001
0000
,  // measure 63
0010
0002
0000
0000
1003
0001
0020
0000
,  // measure 64
0130
0200
0000
0000
1300
0000
1100
0000
,  // measure 65
1000
1002
0000
0000
0013
0000
0110
0000
,  // measure 66
0010
2010
0000
0001
0001
0000
3100
1000
,  // measure 67
0010
0000
0001
0000
0010
0000
1000
0000
0100
0000
0000
2000
0000
0000
0000
0000
,  // measure 68
0000
0002
0000
0000
3003
0000
0000
0000
;

//---------------dance-single - ----------------
#NOTEDATA:;
#CHARTNAME:X-Scale 8;
#STEPSTYPE:dance-single;
#DESCRIPTION:;
#CHARTSTYLE:;
#DIFFICULTY:Medium;
#METER:6;
#RADARVALUES:0.353790,0.388071,0.267077,0.582713,0.016186,306.000000,273.000000,33.000000,72.000000,0.000000,0.000000,0.000000,0.000000,0.000000,0.353790,0.388071,0.267077,0.582713,0.016186,306.000000,273.000000,33.000000,72.000000,0.000000,0.000000,0.000000,0.000000,0.000000;
#CREDIT:iamthek3n;
#NOTES:
// measure 0
0000
0000
0000
0000
,  // measure 1
0000
0000
0000
0000
,  // measure 2
0000
0000
0000
0000
,  // measure 3
0000
0000
0000
0000
,  // measure 4
0000
0000
0000
2001
,  // measure 5
0001
0000
3010
0102
,  // measure 6
0100
0000
0000
0023
0000
0030
0210
0000
,  // measure 7
0000
0000
1000
0000
0000
0010
0000
0000
1000
0000
0000
0010
0000
0000
1000
0000
,  // measure 8
0000
0010
0300
0000
0000
0000
1000
0000
0001
0000
2000
0000
0000
0000
3000
0000
,  // measure 9
1010
0000
0000
1000
0100
0001
0100
1000
,  // measure 10
0010
0100
0002
0000
0000
0013
0011
0000
,  // measure 11
0001
0000
1000
0010
0100
0002
0000
0103
,  // measure 12
0020
0000
1030
0002
0000
0000
1003
0000
,  // measure 13
1001
0000
1000
0100
1000
0002
0000
0023
,  // measure 14
0000
0030
0100
0010
0001
2000
0000
3020
,  // measure 15
0000
0031
0010
2000
0000
3000
1010
0000
,  // measure 16
0000
0001
0101
0000
0001
0000
0011
0000
,  // measure 17
0000
0010
0200
0000
0000
0000
2300
0000
,  // measure 18
0000
3001
0000
1000
0100
1000
1100
0000
,  // measure 19
0000
1000
0002
0000
0000
0000
0023
0000
,  // measure 20
0000
0130
0000
0000
0010
0000
0011
0000
,  // measure 21
0000
1001
0000
0000
1000
0000
1100
0000
,  // measure 22
0000
0101
0000
0000
0001
0000
0011
0000
,  // measure 23
0000
0101
0000
0000
0001
1000
0001
0000
,  // measure 24
0000
0000
0010
0100
1000
0000
1010
0000
,  // measure 25
1000
0010
0001
0000
0010
0000
1000
0000
,  // measure 26
0010
1000
0100
0000
1000
0000
0001
0000
,  // measure 27
0100
0001
1000
0000
0010
0000
0100
0000
,  // measure 28
0001
0010
0100
0001
0100
1000
0001
0000
,  // measure 29
0100
0001
1000
0000
0100
0000
1000
0000
,  // measure 30
0010
0100
0001
0000
0010
0000
0100
0000
,  // measure 31
0010
0100
1000
0000
0001
0020
0000
0032
,  // measure 32
0000
0003
0000
0000
0000
0000
1001
1000
,  // measure 33
0000
0010
0020
0000
0030
1000
2000
0000
,  // measure 34
3000
0001
0002
0000
0003
0010
0020
0000
,  // measure 35
0000
0230
0000
0000
1300
0000
1200
0000
,  // measure 36
0300
1002
0000
0010
0013
0000
0201
0000
,  // measure 37
0300
2001
0000
0000
3010
0000
0120
0000
,  // measure 38
0030
0012
0000
0000
0103
0000
0101
0000
,  // measure 39
0001
0020
0000
0000
0130
0000
1100
0000
,  // measure 40
1000
0002
0000
0010
0013
0000
0011
0000
,  // measure 41
0000
0100
0200
0000
0300
0001
0002
0000
,  // measure 42
0003
0010
0020
0000
0030
0100
0200
0000
,  // measure 43
0000
0010
0000
0000
1300
0002
0100
0000
,  // measure 44
0000
0103
0000
0001
0010
0100
1100
0000
,  // measure 45
0000
1000
2000
0000
3000
0001
0002
0000
,  // measure 46
0003
0100
0200
0000
0300
0010
0020
0000
,  // measure 47
0001
0130
0010
1000
,  // measure 48
0001
0010
0100
2000
,  // measure 49
0000
3002
0000
0000
2003
0000
0000
3000
,  // measure 50
0000
0000
0000
0000
0001
0010
0011
0000
,  // measure 51
0001
0000
1000
0010
2000
0000
3200
0000
,  // measure 52
0300
0010
0100
1000
0001
0100
1000
0100
,  // measure 53
0010
0100
0001
1000
0100
0020
0000
0032
,  // measure 54
0000
0003
0100
0001
1000
0020
0000
0031
,  // measure 55
0010
1000
0100
0010
0002
0000
2003
0000
,  // measure 56
3000
0000
0010
1000
0001
0100
0010
0100
,  // measure 57
1000
0100
0010
1000
0001
0020
0000
0032
,  // measure 58
0000
0003
0000
1000
1000
0000
1010
0000
,  // measure 59
0000
0001
0002
0000
0003
1000
2000
0000
,  // measure 60
3000
0100
0200
0000
0300
0010
0020
0000
,  // measure 61
0000
0030
0001
0200
0000
0302
0000
2003
,  // measure 62
0000
3000
0100
0020
0000
0230
0000
2300
,  // measure 63
0000
3000
0001
0200
0000
0301
2000
0000
,  // measure 64
3000
1020
0000
0000
0001
0000
0230
0000
,  // measure 65
0300
2001
0000
0000
0100
0000
3010
0000
,  // measure 66
0000
0102
0000
1000
1000
0000
0103
0000
,  // measure 67
0001
0000
0000
0000
1000
0000
0000
0000
0010
0000
0000
2000
0000
0000
0000
0000
,  // measure 68
0000
0002
0000
0000
3003
0000
0000
0000
;

//---------------dance-single - ----------------
#NOTEDATA:;
#CHARTNAME:X-Scale 6;
#STEPSTYPE:dance-single;
#DESCRIPTION:;
#CHARTSTYLE:;
#DIFFICULTY:Easy;
#METER:4;
#RADARVALUES:0.271701,0.378156,0.048559,0.145678,0.000000,235.000000,229.000000,6.000000,18.000000,0.000000,0.000000,0.000000,0.000000,0.000000,0.271701,0.378156,0.048559,0.145678,0.000000,235.000000,229.000000,6.000000,18.000000,0.000000,0.000000,0.000000,0.000000,0.000000;
#CREDIT:iamthek3n;
#NOTES:
// measure 0
0000
0000
0000
0000
,  // measure 1
0000
0000
0000
0000
,  // measure 2
0000
0000
0000
0000
,  // measure 3
0000
0000
0000
0000
,  // measure 4
0000
0000
0000
0000
,  // measure 5
1000
0000
0001
0000
,  // measure 6
1000
0000
0001
0000
,  // measure 7
1000
0000
0000
0000
,  // measure 8
0000
0000
0000
0001
,  // measure 9
0010
0001
0010
0100
,  // measure 10
1000
0100
1000
0100
,  // measure 11
0010
0100
0010
0001
,  // measure 12
0100
0001
0100
0010
,  // measure 13
1000
0010
1000
0001
,  // measure 14
1000
0001
0010
0001
,  // measure 15
0010
0001
0100
0001
,  // measure 16
0100
0001
1000
1001
,  // measure 17
0000
1000
0200
0000
0000
0000
0010
0000
,  // measure 18
0000
1300
0000
0001
0100
0001
2000
0000
,  // measure 19
0000
3100
0020
0000
0000
0000
0001
0000
,  // measure 20
0000
0130
0000
1000
0100
1000
0001
0000
,  // measure 21
0000
0100
0002
0000
1003
0000
0001
0000
,  // measure 22
0000
0010
0200
0000
1300
0000
1100
0000
,  // measure 23
0000
1001
0000
0000
0001
0100
0002
0000
,  // measure 24
0000
0000
0000
0000
0000
0003
0000
0000
,  // measure 25
1000
0001
0000
0000
1000
0000
0000
0000
,  // measure 26
0001
0100
0000
0000
0001
0000
0000
0000
,  // measure 27
0010
0100
0000
0000
0010
0000
0000
0000
,  // measure 28
0001
1000
0000
0000
0001
0000
0000
0000
,  // measure 29
0100
0010
0000
0000
0100
0000
0000
0000
,  // measure 30
0001
0010
0000
0000
0001
0000
0000
0000
,  // measure 31
1000
0100
0000
0000
1000
0000
0000
0000
,  // measure 32
0000
0000
0000
1001
,  // measure 33
0001
0100
0001
0000
1000
0100
1000
0000
,  // measure 34
0001
0100
0001
0000
1000
0100
1000
0000
,  // measure 35
0001
0200
0000
0000
0001
0000
0310
0000
,  // measure 36
0001
2000
0000
0000
0001
0000
3100
0000
,  // measure 37
0010
0002
0000
0000
0100
0000
1003
0000
,  // measure 38
0100
0020
0000
0000
0001
0000
0130
0000
,  // measure 39
0010
0002
0000
0000
0100
0000
1003
0000
,  // measure 40
0001
0200
0000
0000
0000
0300
0110
0000
,  // measure 41
0000
0010
0100
0000
0000
0010
1000
0000
,  // measure 42
0000
0010
0100
0000
0000
0010
1000
0001
,  // measure 43
0000
0001
0000
0000
1000
0000
0001
0100
,  // measure 44
0000
0100
0000
0001
0010
0000
0001
0000
,  // measure 45
0000
1000
0010
0000
0000
1000
0001
0000
,  // measure 46
0000
1000
0010
0000
0000
1000
0001
0100
,  // measure 47
0000
0100
0000
0000
0001
0000
0010
0000
,  // measure 48
0001
1000
0001
0010
,  // measure 49
0000
0001
0000
0000
1000
0000
0000
0000
,  // measure 50
0000
0000
0000
1001
,  // measure 51
1000
0010
0000
0000
1000
0000
0001
0000
,  // measure 52
0010
0001
0000
0000
0010
0000
0100
0000
,  // measure 53
1000
0010
0000
0000
1000
0000
0001
0000
,  // measure 54
0100
0001
0000
0000
0010
0000
0100
0000
,  // measure 55
0010
0001
0000
0000
1000
0000
0001
0000
,  // measure 56
0100
0010
0000
0000
1000
0000
0001
0000
,  // measure 57
0010
0001
0000
0000
1000
0000
0010
0000
,  // measure 58
0100
0010
0000
1000
1000
0000
0001
0000
,  // measure 59
1000
0010
1000
0000
0001
0010
0001
0000
,  // measure 60
1000
0010
1000
0000
0001
0010
0001
0000
,  // measure 61
0010
0200
0000
0000
1000
0000
0310
0000
,  // measure 62
0001
2000
0000
0000
0100
0000
3001
0000
,  // measure 63
0010
0002
0000
0000
0010
0000
1003
0000
,  // measure 64
0010
0200
0000
0000
0001
0000
0310
0000
,  // measure 65
1000
0200
0000
0000
0010
0000
1300
0000
,  // measure 66
0001
0020
0000
0100
0100
0000
0031
0000
;

//---------------dance-single - ----------------
#NOTEDATA:;
#CHARTNAME:X-Scale 2;
#STEPSTYPE:dance-single;
#DESCRIPTION:;
#CHARTSTYLE:;
#DIFFICULTY:Beginner;
#METER:1;
#RADARVALUES:0.108681,0.134550,0.000000,0.000000,0.000000,94.000000,94.000000,0.000000,0.000000,0.000000,0.000000,0.000000,0.000000,0.000000,0.108681,0.134550,0.000000,0.000000,0.000000,94.000000,94.000000,0.000000,0.000000,0.000000,0.000000,0.000000,0.000000,0.000000;
#CREDIT:iamthek3n;
#NOTES:
// measure 0
0000
0000
0000
0000
,  // measure 1
0000
0000
0000
0000
,  // measure 2
0000
0000
0000
0000
,  // measure 3
0000
0000
0000
0000
,  // measure 4
0000
0000
0000
0000
,  // measure 5
0000
0000
0000
0000
,  // measure 6
0000
0000
0000
0000
,  // measure 7
0000
0000
0000
0000
,  // measure 8
0000
0000
0000
0000
,  // measure 9
0001
0000
1000
0000
,  // measure 10
0001
0000
1000
0000
,  // measure 11
0100
0000
0010
0000
,  // measure 12
0100
0000
0010
0000
,  // measure 13
0001
0000
0100
0000
,  // measure 14
0001
0000
0100
0000
,  // measure 15
0010
0000
1000
0000
,  // measure 16
0010
0000
1000
1000
,  // measure 17
0000
0000
0000
0001
,  // measure 18
0000
0000
0000
0100
,  // measure 19
0000
0000
0000
0001
,  // measure 20
0000
0000
0000
1000
,  // measure 21
0000
0000
0000
0100
,  // measure 22
0000
0000
0000
0010
,  // measure 23
0000
0000
0000
0001
,  // measure 24
0000
0000
0000
0000
,  // measure 25
1000
0000
0100
0000
,  // measure 26
1000
0000
0100
0000
,  // measure 27
0010
0000
0001
0000
,  // measure 28
0010
0000
0001
0000
,  // measure 29
0100
0000
0010
0000
,  // measure 30
0100
0000
0010
0000
,  // measure 31
1000
0000
0001
0000
,  // measure 32
0000
0000
0000
0000
,  // measure 33
1000
0000
0010
0000
,  // measure 34
1000
0000
0001
0000
,  // measure 35
1000
0000
0010
0000
,  // measure 36
1000
0000
0001
0000
,  // measure 37
0010
0000
0100
0000
,  // measure 38
0010
0000
0001
0000
,  // measure 39
0010
0000
0100
0000
,  // measure 40
1000
0000
0000
0001
,  // measure 41
0000
0000
0000
0010
,  // measure 42
0000
0000
0000
0100
,  // measure 43
0000
0000
0000
1000
,  // measure 44
0000
0000
0000
0010
,  // measure 45
0000
0000
0000
0100
,  // measure 46
0000
0000
0000
0001
,  // measure 47
0000
0000
0000
1000
,  // measure 48
0000
0000
0000
0001
,  // measure 49
0000
0000
0000
0000
,  // measure 50
0000
0000
0000
0000
,  // measure 51
1000
0000
0100
0000
,  // measure 52
1000
0000
0001
0000
,  // measure 53
0100
0000
0001
0000
,  // measure 54
1000
0000
0010
0000
,  // measure 55
0100
0000
0010
0000
,  // measure 56
1000
0000
0001
0000
,  // measure 57
0010
0000
0100
0000
,  // measure 58
0010
0000
0001
0000
,  // measure 59
1000
0000
0010
0000
,  // measure 60
1000
0000
0001
0000
,  // measure 61
0100
0000
0001
0000
,  // measure 62
1000
0000
0100
0000
,  // measure 63
0010
0000
0100
0000
,  // measure 64
1000
0000
0001
0000
,  // measure 65
1000
0000
0010
0000
,  // measure 66
0100
0000
0001
0000
;
