#TITLE:I Could Be The One;
#SUBTITLE:;
#ARTIST:Avicii vs Nicky Romero;
#TITLETRANSLIT:;
#SUBTITLETRANSLIT:;
#ARTISTTRANSLIT:;
#GENRE:Progressive House;
#CREDIT:;
#BANNER:icbto-bn.png;
#BACKGROUND:icbto-bg.png;
#LYRICSPATH:;
#CDTITLE:cdtitle.png;
#MUSIC:icbto.ogg;
#OFFSET:0.000000;
#SAMPLESTART:46.405998;
#SAMPLELENGTH:30.000000;
#SELECTABLE:YES;
#BPMS:0.000000=128.000000
;
#STOPS:
;
#BGCHANGES:;
#KEYSOUNDS:;
#ATTACKS:;

//---------------dance-single - ----------------
#NOTES:
     dance-single:
     X-Scale 11:
     Hard:
     8:
     0.512920,0.562974,0.041993,0.000000,0.283456,342.000000,338.000000,4.000000,0.000000,7.000000,0.000000,0.512920,0.562974,0.041993,0.000000,0.283456,342.000000,338.000000,4.000000,0.000000,7.000000,0.000000:
// measure 0
0000
0000
0000
0000
,  // measure 1
0000
0000
0000
0000
,  // measure 2
0000
0000
0000
0000
,  // measure 3
0000
0000
0000
0000
,  // measure 4
0000
0000
0000
0000
0000
0000
0000
0000
0000
0000
0000
0000
1100
0000
0000
1000
,  // measure 5
0100
0000
0000
0100
1000
0000
0000
1000
0001
0000
0000
0001
0010
0000
0000
0010
,  // measure 6
0100
0000
0000
0000
0M00
0000
0001
0000
0100
0000
0001
0100
0001
0000
0000
0001
,  // measure 7
1000
0000
0000
1000
0100
0000
0000
0100
0010
0000
0000
0010
0100
0000
0000
0000
,  // measure 8
0000
0000
0000
0000
0000
0000
1000
0000
0001
0000
1000
0000
0100
0000
0000
0100
,  // measure 9
1000
0000
0000
1000
0001
0000
0000
0001
0010
0000
0001
0000
0100
0000
0000
0100
,  // measure 10
0000
0000
0100
0000
0000
0000
0001
0000
1000
0000
0001
0000
0010
0000
0000
0010
,  // measure 11
0001
0000
0000
0001
1000
0000
0000
1000
0100
0000
1000
0000
0010
0000
1000
0000
,  // measure 12
M000
0000
0000
0100
0001
0100
0001
0010
,  // measure 13
00M0
0000
0010
0000
1000
0000
0001
0000
0000
0000
1000
0000
0100
0000
0000
0010
,  // measure 14
0100
0010
0000
0001
1000
0001
0010
0100
,  // measure 15
0M00
0000
0100
0000
0001
0000
1000
0000
0000
0000
0100
0000
1000
0000
0100
0010
,  // measure 16
0000
0100
0010
0000
0000
0000
0001
0000
1000
0000
0001
0000
0100
0000
0010
0000
,  // measure 17
00M0
0000
0010
0000
0001
0000
1000
0000
0000
0000
0001
0000
0010
0000
0000
0001
,  // measure 18
0100
0001
0000
1000
0100
0001
0100
0010
,  // measure 19
0000
0010
0001
0010
0000
0001
1000
0100
,  // measure 20
1000
0100
1000
0100
1000
0100
1000
0100
1000
0000
0000
0000
1100
0000
1000
0000
,  // measure 21
0000
0000
0001
0000
1000
0000
0001
0000
0000
0000
0010
0000
0100
0000
1000
0100
,  // measure 22
1000
0100
1000
0100
1000
0100
1000
0000
0100
0000
0001
0000
0100
0000
1000
0000
,  // measure 23
0000
0000
1000
0000
0001
0000
0010
0000
0000
0000
0001
0000
0100
0000
0001
0010
,  // measure 24
0001
0010
0001
0010
0001
0010
0001
0000
0010
0000
0100
0000
0110
0000
0010
0000
,  // measure 25
0001
0010
1000
0010
0001
1000
0100
1000
,  // measure 26
0010
0001
0010
1000
0100
0100
0010
0001
,  // measure 27
1000
0001
0010
0100
0001
0100
1000
0010
,  // measure 28
0100
0001
1000
0001
1000
1000
0100
1000
,  // measure 29
0001
0100
0010
1000
0001
0010
0001
0100
,  // measure 30
1000
0100
0001
0010
0001
0001
1000
0001
,  // measure 31
0010
0001
1000
0100
1000
0010
0001
0010
,  // measure 32
0100
0000
0100
0000
0100
0000
0100
0000
0100
0000
0001
0000
1000
0000
0000
0100
,  // measure 33
1000
0000
0000
1000
0001
0000
0000
0001
0010
0000
0001
0000
0100
0000
0000
0100
,  // measure 34
0000
0000
0100
0000
0001
0000
0010
0000
0100
0000
0010
0000
0001
0000
0000
1000
,  // measure 35
0001
0000
0000
0001
0010
0000
0000
0010
0100
0000
0010
0000
0001
0000
1000
0000
,  // measure 36
0010
0000
1000
0000
0000
0000
1000
0000
0100
0000
1000
0000
0100
0000
0000
0010
,  // measure 37
0100
00M0
0000
0100
0001
0000
0000
0001
1000
0000
0100
0000
0010
0000
0000
0010
,  // measure 38
0000
0000
0010
0000
0100
0000
1000
0000
0001
0000
1000
0000
0001
0000
0000
0001
,  // measure 39
0100
000M
0000
0100
1000
0000
0000
1000
0010
0000
1000
0000
0001
0000
0010
0000
,  // measure 40
0001
0000
1000
0000
0100
0000
0010
0000
0100
0000
0100
1000
0100
0000
0100
0000
,  // measure 41
1000
1000
0001
0001
0010
0010
0001
0001
,  // measure 42
1000
0000
0001
0000
0000
0001
0100
0000
0010
0000
0010
0000
1000
0000
1000
0000
,  // measure 43
0100
0100
1000
1000
0001
0001
0100
0100
,  // measure 44
0010
0000
0010
0000
0000
1000
0001
0000
1000
0000
1000
0000
0100
0000
0100
0000
,  // measure 45
1000
1000
0001
0001
0010
0010
0001
0001
,  // measure 46
0100
0000
0100
0000
0000
0001
1000
0000
0001
0000
0001
0000
0010
0000
0010
0000
,  // measure 47
0001
0001
1000
1000
0100
0100
0010
0010
,  // measure 48
0001
0000
0001
0000
0000
1000
0001
0000
1000
0000
1000
0000
1001
0000
0000
0000
;

//---------------dance-single - ----------------
#NOTES:
     dance-single:
     X-Scale 8:
     Medium:
     6:
     0.355444,0.383846,0.115482,0.167974,0.036744,237.000000,226.000000,11.000000,16.000000,0.000000,0.000000,0.355444,0.383846,0.115482,0.167974,0.036744,237.000000,226.000000,11.000000,16.000000,0.000000,0.000000:
0000
0000
0000
0000
,
0000
0000
0000
0000
,
0000
0000
0000
0000
,
0000
0000
0000
0000
,
0000
0000
0000
0201
,
0010
1000
0010
0001
,
0020
0030
0000
0302
,
0100
0010
1000
0020
,
0000
0000
0030
0023
,
0001
0000
0000
0000
1000
0000
0000
0000
0001
0000
0000
0000
0100
0000
0000
0001
,
0000
0200
0000
0000
0300
0000
0230
0000
,
0010
0000
0001
0000
0010
0000
1000
2000
,
0000
0000
0000
0000
3000
0000
1300
0100
,
0000
0000
1000
0000
0010
0000
1000
0000
0000
0000
0001
0000
0100
0000
0000
0001
,
0000
0010
0000
1000
0010
0001
0010
0100
,
0000
0000
1000
0000
0001
0000
1000
0000
0000
0000
0001
0000
0100
0000
0000
0010
,
0000
0100
0000
0001
1000
0001
0010
0100
,
0000
0000
0001
0000
0100
0000
1000
0000
0000
0000
0010
0000
1000
0000
0000
0100
,
0000
1000
0000
0001
0100
0001
0010
0100
,
0000
0000
0010
0000
0001
0000
1000
0000
0000
0000
0001
0000
1000
0000
0000
0010
,
0000
0200
0000
0000
0000
0000
0310
0100
,
0000
0010
0100
0001
0000
0010
0200
0000
,
1000
0000
0301
0100
1000
0100
1000
0001
,
0000
1000
0001
1000
0000
0001
0200
0000
,
1000
0000
0301
0100
0010
1000
1010
0000
,
0001
1000
0010
1000
0001
0010
0200
0000
,
1000
0000
0310
0100
1000
0010
1000
0000
,
0001
0010
0001
1000
0010
0100
0002
0000
,
1000
0000
0103
0001
1000
0001
0100
0000
,
1000
0100
0001
0010
0100
0010
0002
0000
,
1000
0000
0013
0001
1000
0001
0010
0000
,
0100
1000
0010
1000
0100
0010
0001
0000
,
1000
0000
0001
0000
1000
0001
1000
0000
,
1100
0000
0000
0000
0001
0000
0000
0000
0011
0000
0000
0000
0100
0000
0000
0001
,
0000
0100
0000
0001
0100
0001
0010
0000
,
0011
0000
0001
0000
1001
0000
1000
0200
,
0010
0000
1300
0100
0010
0100
0010
0000
,
0110
0000
0000
0000
0100
0000
0000
0000
0101
0000
0000
0000
0001
0000
0000
1000
,
0000
0001
0000
1000
0010
1000
0010
0000
,
1010
0000
1000
0000
1100
0000
0100
0020
,
1000
0000
0001
0000
0130
0010
0110
0000
,
0010
0001
1000
0100
,
1000
0001
0000
0001
0100
0010
0100
0000
,
0001
1000
0100
0010
,
0100
0010
0000
0010
1000
0100
1000
0000
,
0001
0100
0010
0001
,
0010
0100
0000
0100
0001
1000
0010
0000
,
1000
0100
1000
0010
,
1000
0100
0000
0100
0001
0010
0100
0000
;

//---------------dance-single - ----------------
#NOTES:
     dance-single:
     X-Scale 5:
     Easy:
     3:
     0.202468,0.281487,0.031495,0.073489,0.000000,135.000000,132.000000,3.000000,7.000000,0.000000,0.000000,0.202468,0.281487,0.031495,0.073489,0.000000,135.000000,132.000000,3.000000,7.000000,0.000000,0.000000:
0000
0000
0000
0000
,
0000
0000
0000
0000
,
0000
0000
0000
0000
,
0000
0000
0000
0000
,
0000
0000
0000
0011
,
0000
1000
0000
0001
,
0002
0000
0000
0003
0000
0000
0010
0000
,
0000
0100
0000
2000
,
0000
0000
3000
0001
,
0000
1000
0000
0100
,
0000
0200
0000
0000
0300
0000
0010
0000
,
0000
0000
0100
0000
0000
0000
0000
2000
,
0000
0000
3000
1000
,
0000
0001
0000
0100
,
0000
0000
0000
0001
1000
0001
1000
0000
,
0000
0100
0000
0010
,
0000
0000
0000
0001
1000
0001
1000
0000
,
0000
0100
0000
1000
,
0000
0000
0000
0001
0100
0001
0100
0000
,
0000
0010
0000
2000
,
0000
0000
0000
3100
,
0000
1000
0000
0002
,
0000
0000
0000
0103
0001
0100
0001
0000
,
0000
0010
0000
0200
,
0000
0000
0000
0310
0100
0010
0110
0000
,
0001
1000
0001
0100
,
0010
1000
0100
1000
,
0001
0100
0001
0010
,
0100
1000
0001
0100
,
0010
1000
0001
0100
,
0010
1000
0100
0010
,
0100
1000
0001
0010
,
0001
1000
0100
0010
,
0000
0001
0000
0100
,
0000
0001
0100
0001
,
0000
1000
0000
0100
,
0000
1000
0010
1000
,
0000
0001
0000
0100
,
0000
0010
0100
0010
,
0000
1000
0000
0100
,
0000
0010
0001
0011
,
0001
1000
0001
0100
,
0010
1000
0100
1000
,
0001
0010
0100
0010
,
0100
1000
0010
1000
,
0100
1000
0001
0100
,
0010
1000
0001
0100
,
0010
1000
0100
1000
,
0001
0010
0001
0010
;

//---------------dance-single - ----------------
#NOTES:
     dance-single:
     X-Scale 2:
     Beginner:
     1:
     0.122981,0.179128,0.010498,0.094485,0.000000,82.000000,81.000000,1.000000,9.000000,0.000000,0.000000,0.122981,0.179128,0.010498,0.094485,0.000000,82.000000,81.000000,1.000000,9.000000,0.000000,0.000000:
0000
0000
0000
0000
,
0000
0000
0000
0000
,
0000
0000
0000
0000
,
0000
0000
0000
0000
,
0000
0000
0000
1000
,
0000
0000
0000
0000
,
0000
0000
0000
0001
,
0000
0000
0000
0000
,
0000
0000
0000
1000
,
0000
0100
0000
1000
,
0000
0000
0000
0001
,
0000
0010
0000
0001
,
0000
0000
0000
2000
,
0000
0000
0000
3200
,
0000
0000
0000
0320
,
0000
0000
0000
0032
,
0000
0000
0000
1003
,
0000
0001
0000
1000
,
0000
0000
0000
0010
,
0000
0100
0000
0020
,
0000
0000
0000
0130
,
0000
0001
0000
1000
,
0000
0100
0000
1000
,
0000
0001
0000
0010
,
0000
0001
0000
0011
,
0000
0001
0000
1000
,
0000
0100
1000
0100
,
0000
1000
0000
0010
,
0000
0100
0001
0100
,
0000
0001
0000
0010
,
0000
0100
1000
0100
,
0000
1000
0000
0001
,
0000
0010
0100
0020
,
0000
0000
0000
0032
,
0000
0000
0000
2003
,
0000
0000
0000
3200
,
0000
0000
0000
1300
,
0000
0100
0000
0010
,
0000
0001
0010
0001
,
0000
1000
0000
0100
,
0000
1000
0100
1000
,
0000
0010
0000
1000
,
0000
0001
0100
0001
,
0000
0010
0000
0100
,
0000
1000
0100
1000
,
0000
0010
0000
0100
,
0000
0001
0100
0001
,
0000
0010
0000
0100
,
0000
1000
0100
1000
;
