#VERSION:0.83;
#TITLE:I Can Fly;
#SUBTITLE:;
#ARTIST:坂崎ユカ;
#TITLETRANSLIT:;
#SUBTITLETRANSLIT:;
#ARTISTTRANSLIT:Yuka Sakazaki;
#GENRE:Magical Happy Hardcore;
#ORIGIN:;
#CREDIT:;
#BANNER:I Can Fly-bn.png;
#BACKGROUND:I Can Fly-bg.png;
#PREVIEWVID:;
#JACKET:I Can Fly-jacket.png;
#CDIMAGE:;
#DISCIMAGE:;
#LYRICSPATH:;
#CDTITLE:cdtitle.png;
#MUSIC:I Can Fly.ogg;
#OFFSET:-0.003000;
#SAMPLESTART:49.090000;
#SAMPLELENGTH:10.909000;
#SELECTABLE:YES;
#BPMS:0.000=176.000;
#STOPS:;
#DELAYS:;
#WARPS:;
#TIMESIGNATURES:0.000=4=4;
#TICKCOUNTS:0.000=4;
#COMBOS:0.000=1;
#SPEEDS:0.000=1.000=0.000=0;
#SCROLLS:0.000=1.000;
#FAKES:;
#LABELS:0.000=Song Start;
#BGCHANGES:0.000=I Can Fly.avi=1.000=1=0=0=StretchNoLoop==CrossFade==,
99999=-nosongbg-=1.000=0=0=0 // don't automatically add -songbackground-
;
#KEYSOUNDS:;
#ATTACKS:
;

//---------------dance-single - feeling mafical yet?----------------
#NOTEDATA:;
#CHARTNAME:X-Scale 10;
#STEPSTYPE:dance-single;
#DESCRIPTION:feeling mafical yet?;
#CHARTSTYLE:;
#DIFFICULTY:Easy;
#METER:7;
#RADARVALUES:0.423099,0.499880,0.120272,0.390883,0.000000,394.000000,378.000000,16.000000,52.000000,0.000000,0.000000,0.000000,0.000000,0.000000,0.423099,0.499880,0.120272,0.390883,0.000000,394.000000,378.000000,16.000000,52.000000,0.000000,0.000000,0.000000,0.000000,0.000000;
#CREDIT:Magical k3n;
#NOTES:
0000
0000
0000
0000
,
0000
0000
0000
0000
,
0000
0000
0000
0000
,
0000
0000
0000
0000
,
1000
0100
0010
0001
,
0100
0010
1000
0001
,
0010
0100
0010
0100
1000
0100
1000
0100
,
0020
0001
0100
0001
,
0032
0010
0100
1000
,
1003
0000
0001
0000
1000
0100
0010
0000
,
0011
0001
1000
0010
,
1000
0001
0010
0100
,
1000
0001
0100
0010
,
1000
0100
1000
0000
0001
0000
0100
0000
,
0001
0010
0100
0010
,
0001
1000
0010
1000
,
0001
0010
0100
1000
,
0001
1000
0001
0000
1000
0010
1000
0000
,
0100
0010
0001
1000
,
0001
0100
0010
0100
,
0001
1000
0010
0100
,
0001
0000
0010
0000
0100
0010
0001
0000
,
1000
0001
0100
0001
,
1000
0010
1000
0100
,
0010
0100
1000
0001
,
0010
0100
0010
0000
0001
1000
0001
0000
,
1001
0000
1000
0000
0100
0010
0001
0000
,
1000
0000
0001
0000
0100
0001
1000
0000
,
0010
0000
0100
0000
0001
0010
0100
0000
,
0010
0000
0001
0000
0010
0001
0100
0000
,
0010
0000
1000
0000
0100
0010
0001
0000
,
1000
0000
0001
0000
0100
0001
0010
0000
,
0100
0000
1000
0000
0001
1000
0010
0000
,
0100
0000
0001
0000
1000
0100
0010
0000
,
0001
0000
1000
0000
0001
0100
0001
0100
,
0002
0100
0000
1003
,
1001
1000
0010
1000
,
0001
0010
0100
0010
,
0001
1000
0010
1000
,
0001
0010
0100
1000
,
0001
1000
0010
1000
,
0001
0010
0100
1000
,
0002
0203
2300
3200
,
0302
0000
1003
0200
0010
0000
1300
0000
,
1100
0000
0100
2000
0000
3002
0000
0103
,
0001
0000
0010
0200
0000
2300
0000
3000
,
0001
0000
1000
0200
0000
2300
0000
3001
,
0010
0002
0000
0203
0000
0320
0000
0030
,
1000
0000
0001
0100
0000
0010
1000
0001
,
0000
0100
0000
0001
0000
1000
0100
1000
,
0100
0000
0010
0000
0001
0000
1000
0001
,
1000
0000
0001
0000
,
1002
0000
0100
0000
2003
0000
0000
3200
,
0000
0000
0310
0100
0000
0100
1000
0001
,
0200
0000
0310
0100
0002
0000
0000
2003
,
0000
0000
3000
0100
0000
0100
0010
0001
,
2000
0000
0001
0000
3200
0000
0000
0310
,
0000
0010
0100
1000
0000
0000
0001
1000
,
0001
0000
0100
0000
,
1001
0000
0110
0000
,
1001
0000
1000
0000
,
0001
0000
0100
0000
,
0001
0000
0010
0000
,
0100
0000
1000
0000
,
0100
0000
0010
0000
,
0001
0000
1000
0000
,
0010
0000
1000
0000
,
0001
0000
0010
0100
,
1200
0010
1000
0010
,
2300
0000
0000
0000
3001
1000
0010
0000
,
0200
0000
0000
0301
,
1001
1000
0100
1000
,
0001
0100
0010
0100
,
0001
1000
0010
1000
,
0001
0010
0100
1000
,
0010
1000
0001
0100
,
0001
0010
0100
1000
,
0100
0010
0001
1000
,
0001
0000
0010
0200
1000
0000
0010
0000
,
1300
0000
0100
0020
0000
0032
0000
0013
,
0100
0000
1000
0020
0000
2030
0000
3000
,
0001
0000
0100
0002
0000
2003
3000
2000
,
0010
3020
0000
0230
0000
0302
0000
0003
,
0010
0000
0010
0200
0000
1300
0010
2000
,
0000
3001
0010
0002
0100
0000
1003
0000
,
0001
0100
0001
1000
,
1100
0000
0100
0010
,
0021
0000
0000
0000
0032
0000
0000
2003
,
0000
0000
3000
0200
0000
0310
0100
2000
,
0000
0000
3010
1000
0002
0000
0000
0203
,
0000
0302
0000
2003
0000
3100
0010
0001
,
1000
0000
0010
0100
0000
0001
1000
0010
,
0000
0100
0001
0010
0000
0100
1000
0001
,
1001
0000
1000
0000
0000
1000
0000
0000
,
1001
0000
0110
0000
,
1001
0000
0000
0000
;

//---------------dance-single - not so AYAYAYAYAYAYAYA----------------
#NOTEDATA:;
#CHARTNAME:X-Scale 14;
#STEPSTYPE:dance-single;
#DESCRIPTION:not so AYAYAYAYAYAYAYA;
#CHARTSTYLE:;
#DIFFICULTY:Medium;
#METER:9;
#RADARVALUES:0.627132,0.685549,0.398400,0.563774,0.033826,584.000000,531.000000,53.000000,75.000000,0.000000,0.000000,0.000000,0.000000,0.000000,0.627132,0.685549,0.398400,0.563774,0.033826,584.000000,531.000000,53.000000,75.000000,0.000000,0.000000,0.000000,0.000000,0.000000;
#CREDIT:Magical k3n;
#NOTES:
0000
0000
0000
0000
,
0000
0000
0000
0000
,
0000
0000
0000
0000
,
0000
0000
0000
0000
,
1000
0000
0001
0020
0000
0130
0010
0002
,
0000
1003
0001
0200
0000
1300
0100
0002
,
0000
0103
0001
2000
0000
3010
1000
0100
,
0010
0200
1000
0000
0001
0000
1000
0000
,
0310
0200
1000
0000
0001
0000
1000
0000
,
0310
0000
0010
0002
1003
0001
1000
0000
,
1000
0010
1000
0010
0001
0010
0001
0010
,
0100
0010
0100
0010
1000
0010
1000
0010
,
0001
0010
0001
0010
1000
0010
1000
0001
,
1000
0100
1100
0000
0001
0000
0101
0000
,
1000
0001
1000
0001
0100
0001
0100
0001
,
0010
0001
0010
0001
0100
0001
0100
0001
,
1000
0001
1000
0001
0100
0001
0100
0001
,
1000
0001
1001
0000
0100
0000
1100
0000
,
1000
0100
1000
0100
0001
0100
0001
0100
,
0010
0100
0010
0001
0010
0001
0010
0100
,
0010
0100
0010
0001
0010
0001
0010
0100
,
1000
0000
1100
0000
1000
0001
0021
0000
,
0130
0010
0100
0010
0001
0010
0001
0010
,
0100
0010
0100
1000
0100
1000
0100
0001
,
0100
0001
0100
0010
0100
0010
0100
1000
,
0001
0000
0100
0000
0101
0000
0000
0000
0001
0000
1000
0000
0100
0000
1000
0010
,
1000
0000
1000
0000
0001
0100
0001
0000
,
1000
0000
0100
0000
0010
0100
0010
0000
,
0001
0000
0100
0000
0001
1000
0001
0000
,
0010
0000
0100
0000
1000
0100
1000
0000
,
0001
0000
1000
0000
0010
0100
0001
0020
,
0100
0000
0031
0000
1000
0001
0100
0020
,
0001
0000
1030
0000
0100
0010
0001
0000
,
1000
0000
0010
0000
0100
0001
1000
0000
,
1001
0000
0110
0000
1000
0010
0100
0001
,
1000
0000
0000
0000
1001
0000
0000
1001
0000
0000
0100
1000
0002
0000
0003
0000
,
1001
0000
1100
0000
0101
0000
1000
0100
,
0001
0100
0010
0001
1000
0000
0010
0000
,
0200
0000
0310
0200
0001
0320
0000
1030
,
0010
0100
0010
0002
0100
0203
0000
0320
,
0000
1030
0100
0001
0000
0001
0100
1000
,
0000
0001
0010
0100
0000
0100
0010
0001
,
0101
0110
1001
1100
,
0101
0000
1000
0002
0100
0000
1000
0000
,
0103
0001
1000
0100
0000
1100
0000
1000
,
0100
0000
0100
0010
0000
0101
0000
0000
,
1000
0001
0100
0101
0000
0110
0000
0010
,
1000
0000
1010
0000
0000
0000
0110
0000
0000
0000
0101
0000
0000
0000
0001
0100
,
0001
0100
0010
2000
0000
3100
0010
0002
,
1000
2003
0100
3200
0010
0000
1300
0100
,
0001
0100
0010
0001
1000
0010
1000
0001
,
0101
0100
0001
0001
,
2001
0000
0000
3020
0000
0000
0030
0200
,
0000
0000
0300
0002
0000
0013
0100
2000
,
0000
0000
3010
0001
0010
2000
0000
3200
,
0000
0302
0000
0023
0000
1030
0100
0010
,
0001
0000
0011
0000
1000
0002
0000
0203
,
0000
0320
0000
2030
0000
3100
0010
0001
,
0011
0000
0001
0100
0000
0100
1000
0000
,
1100
0000
1001
0000
,
1100
0000
2000
0000
3200
0000
0310
0002
,
0000
0103
1000
0200
0000
0320
0000
2030
,
0000
3001
0010
0001
2000
0000
3010
0200
,
0000
1300
0100
0001
1000
0010
2000
0000
,
3000
0000
0001
0100
0001
0020
0030
0020
,
0000
0000
0130
2000
0000
3002
0000
2003
,
0000
3000
0000
0000
0200
0000
0000
0000
,
0310
0001
1000
0001
,
1001
0100
1100
0001
,
2001
0000
0000
0000
0000
0000
3001
0000
1000
0000
0100
1000
0100
0000
0000
0000
,
1000
0000
0000
0000
1010
0000
0000
1010
0000
0000
1000
0001
1000
0000
0000
0000
,
1001
1000
0001
0100
0010
0001
0010
0200
,
0301
0200
1300
0200
0010
0000
1300
0100
,
0010
0000
0100
0002
1003
0200
0301
0100
,
1000
0000
0010
0000
0001
0000
0020
0000
1030
0000
0200
0000
0301
0000
0100
0010
,
0001
1000
0001
0100
0000
0100
0001
1000
,
0000
1000
0100
0010
0000
0001
1000
0010
,
1010
0110
0011
1001
,
1100
0000
0100
0020
0001
0000
0100
0000
,
0031
0010
0100
1000
0000
1001
0000
1000
,
0010
0100
0010
1000
0000
1001
0000
0001
,
0100
1000
0100
0001
0000
0011
0000
0010
,
0100
0000
1000
0000
0000
0000
1100
0000
0000
0000
1001
0000
0000
0000
0001
0100
,
0001
1000
0100
2000
0000
3001
0010
0002
,
0000
1003
0100
0020
0001
0000
0130
0010
,
0001
1000
0010
0001
0010
0100
0010
1000
,
0001
0001
1000
1000
,
2100
0000
0001
0000
3100
0010
0001
0200
,
1000
0000
0301
1000
0000
1000
0100
0010
,
0001
0000
1000
0010
1000
0002
0000
0023
,
0030
2000
0000
3200
0000
0301
1000
0001
,
0010
0000
0010
0100
0000
0100
1000
0001
,
0000
0001
0100
0010
0000
1000
0100
0010
,
0001
0000
0001
0100
0000
0100
1000
0000
,
2200
0000
0000
3300
0202
0000
0000
0303
,
2002
0000
0000
0000
,
3003
0000
0000
0000
;

//---------------dance-single - crossovers, jacks, step-jumps & doublesteps galore! oh my!----------------
#NOTEDATA:;
#CHARTNAME:X-Scale 16;
#STEPSTYPE:dance-single;
#DESCRIPTION:crossovers, jacks, step-jumps & doublesteps galore! oh my!;
#CHARTSTYLE:;
#DIFFICULTY:Hard;
#METER:11;
#RADARVALUES:0.735591,0.838520,0.375849,0.653978,0.195442,685.000000,635.000000,50.000000,87.000000,0.000000,0.000000,1.000000,0.000000,0.000000,0.735591,0.838520,0.375849,0.653978,0.195442,685.000000,635.000000,50.000000,87.000000,0.000000,0.000000,1.000000,0.000000,0.000000;
#CREDIT:Magical k3n;
#NOTES:
// measure 0
0000
0000
0000
0000
,  // measure 1
0000
0000
0000
0000
,  // measure 2
0000
0000
0000
0000
,  // measure 3
0000
0000
0000
0000
,  // measure 4
0001
0000
1000
0020
0000
0031
0010
2000
,  // measure 5
0000
3001
0010
0200
0000
0301
0100
1000
,  // measure 6
0010
0000
0010
0000
0100
0000
0100
0000
0001
0010
0100
0010
0001
0010
0100
0010
,  // measure 7
0001
0100
1000
0100
,  // measure 8
0001
0000
0000
1000
0100
0000
0100
0000
0010
0000
0001
0000
0010
0100
1000
0001
,  // measure 9
1000
0000
0100
1000
0100
0000
4000
0000
3001
0100
0010
1000
0001
0000
0000
0000
,  // measure 10
1001
0000
1000
0000
1000
0000
1000
0000
0001
0100
0001
0000
1000
0010
1000
0000
,  // measure 11
0001
0000
0001
0000
0001
0000
0001
0000
0100
0010
0100
0000
0001
0100
0001
0000
,  // measure 12
0010
0000
0010
0000
0010
0000
0010
0000
0100
0010
0100
0000
1000
0100
1000
0000
,  // measure 13
0001
0000
0100
0000
1001
0000
0000
0000
2000
0000
3000
0200
0000
0000
0000
0000
,  // measure 14
0310
0000
0010
0000
0010
0000
0010
0000
0001
0010
0001
0000
1000
0001
1000
0000
,  // measure 15
0010
0000
0010
0000
0010
0000
0010
0000
1000
0100
1000
0000
0001
1000
0001
0000
,  // measure 16
0100
0000
0100
0000
0100
0000
0100
0000
0010
1000
0010
0000
0100
0001
0100
0000
,  // measure 17
0001
0000
0100
0010
1000
0000
0000
0000
1100
0000
0001
0000
1001
0000
1000
0000
,  // measure 18
0010
0000
0010
0000
0010
0000
0010
0000
1000
0100
0010
0000
0001
0010
0100
0000
,  // measure 19
1000
0000
1000
0000
1000
0000
1000
0000
0010
1000
0001
0000
1000
0001
0010
0000
,  // measure 20
0001
0000
0001
0000
0001
0000
0001
0000
1000
0100
0010
0000
0010
0100
1000
0000
,  // measure 21
0001
0000
0000
0100
0020
0000
0000
0000
0031
0000
0010
0000
2000
0000
0000
0000
,  // measure 22
3010
0000
0010
0000
0010
0000
0010
0000
1000
0100
0010
0000
0001
1000
0010
0000
,  // measure 23
0100
0000
0100
0000
0100
0000
0100
0000
0001
1000
0100
0000
0010
0100
1000
0000
,  // measure 24
0001
0000
0001
0000
0001
0000
0001
0000
1000
0001
0100
0000
0010
0100
0001
0000
,  // measure 25
1000
0000
0100
0000
1001
0000
0000
0000
0001
0000
0010
0001
1000
0010
0000
0000
,  // measure 26
0101
0000
0001
0200
1000
0000
0310
0100
,  // measure 27
0001
0010
0200
0000
1300
0001
0010
0100
,  // measure 28
1000
0010
0001
0020
1000
0000
0130
0010
,  // measure 29
1000
0000
0100
0020
0001
0000
0130
0010
,  // measure 30
0001
1000
0001
0020
0000
0230
0000
2300
,  // measure 31
0010
0000
3100
0020
0000
0032
0000
0203
,  // measure 32
1000
0000
0301
2000
0010
0000
3002
0000
,  // measure 33
0203
0000
1300
0100
0002
0100
2000
3003
,  // measure 34
1001
0000
0001
0010
1000
0001
0100
1000
,  // measure 35
0001
0000
0100
0001
0000
1000
0100
1000
0001
0100
0010
1000
0002
0000
0000
0003
,  // measure 36
0101
0001
1001
1000
1100
1000
0010
1000
,  // measure 37
0100
0001
1000
0010
0100
1000
0100
0010
,  // measure 38
0001
1000
0010
0001
0010
0100
0010
0001
,  // measure 39
0010
0000
1000
0000
0100
0000
0001
0000
1000
0000
0010
0000
0001
0000
0010
0100
,  // measure 40
1000
0001
0100
2000
0000
3001
0010
2000
,  // measure 41
0000
3100
0010
0002
1000
0103
0100
0001
,  // measure 42
0101
1001
1010
1100
,  // measure 43
2001
0000
3010
1000
0100
0001
0100
1000
,  // measure 44
1001
0001
0100
0020
1000
2030
0000
3010
,  // measure 45
1000
0001
1000
0200
0010
0320
0000
0030
,  // measure 46
0010
0100
1000
0002
0100
0203
0000
0310
,  // measure 47
0100
0000
0110
0000
0000
0000
0011
0000
0000
0000
1010
0000
0000
0000
1000
0010
,  // measure 48
1000
0001
0100
2000
0000
3001
0010
2000
,  // measure 49
0000
3002
0000
2003
0000
3100
0010
0001
,  // measure 50
1000
0010
1000
0001
0100
0010
0100
0001
,  // measure 51
1001
1100
0110
0101
,  // measure 52
1001
0000
1000
0000
0001
1000
0001
0020
,  // measure 53
0030
0020
0030
0200
1300
0010
1000
0100
,  // measure 54
0010
0000
0001
0100
0001
2000
0100
3002
,  // measure 55
0000
2003
0000
3020
0100
1030
0001
1000
,  // measure 56
0001
0000
0100
0002
0000
0013
0100
2000
,  // measure 57
0000
3010
1000
0200
0000
0301
0100
1000
,  // measure 58
1001
0000
0000
0000
1000
0000
0100
0000
1000
0001
1000
0000
0100
0000
0010
0000
,  // measure 59
0002
0000
0000
0000
2000
0000
0000
3003
,  // measure 60
1001
0000
2000
0000
3002
0000
0013
0200
,  // measure 61
0000
1300
0010
0200
0000
0302
0000
0023
,  // measure 62
0000
0130
0010
0001
2000
0000
3001
0200
,  // measure 63
0000
1300
0100
0001
0010
0100
2000
0000
,  // measure 64
3001
0000
0100
0001
1000
0200
0300
0200
,  // measure 65
0000
0000
0310
0002
0000
2003
0000
3002
,  // measure 66
0000
0003
1000
0010
0100
0001
0010
0100
,  // measure 67
2000
0000
0000
0000
3200
0000
0300
1000
0002
0000
0000
0003
0020
0000
0001
0000
,  // measure 68
0230
0000
0001
0000
0010
1000
0010
1000
,  // measure 69
0320
0000
0000
0000
0000
0000
0000
0000
0130
0000
0010
0100
1000
0000
0000
0000
,  // measure 70
0002
0000
0100
0000
1000
0000
0000
1000
0000
0000
0010
0000
0103
0000
0000
0000
,  // measure 71
1010
1000
1001
0001
0011
1000
0001
0010
,  // measure 72
1000
0010
0001
1000
0010
0100
0001
1000
,  // measure 73
0100
0010
0001
0011
0000
1010
0010
1000
,  // measure 74
0100
0000
1000
0000
0001
0000
1001
0000
0000
0000
1010
0000
0010
0000
1000
0010
,  // measure 75
1000
0001
0010
2000
0000
3001
0100
2000
,  // measure 76
0000
3010
1000
0002
0000
1003
0100
0010
,  // measure 77
0011
0101
1100
1010
,  // measure 78
1100
0000
0100
1000
0010
0001
0010
1000
,  // measure 79
1010
0001
1000
0100
0010
0100
1000
0001
,  // measure 80
0100
1000
0100
0010
0100
0001
1000
0010
,  // measure 81
0100
0010
1000
0100
0010
0100
1000
0001
,  // measure 82
0010
0000
0011
0000
0000
0000
1001
0000
0000
0000
1100
0000
0100
0000
1000
0100
,  // measure 83
1000
0001
0100
2000
0000
3001
0010
2000
,  // measure 84
0000
3100
0010
0002
0000
1003
0100
0010
,  // measure 85
0001
0100
0010
0100
1000
0100
0001
1000
,  // measure 86
1100
1001
0101
0110
,  // measure 87
1001
0000
0010
0000
1000
0100
0010
0001
,  // measure 88
0000
1000
0100
0001
0000
0001
0100
1000
,  // measure 89
0001
0000
0100
0010
1000
0001
0010
0002
,  // measure 90
0000
0203
0000
1300
0100
0001
0100
0010
,  // measure 91
1000
0000
0001
0020
0000
1030
0010
0002
,  // measure 92
0000
1003
0100
0020
0000
1030
0010
0001
,  // measure 93
1001
0000
1000
0100
0001
0100
1000
0200
,  // measure 94
0020
0000
0000
0330
2002
0000
0000
3003
,  // measure 95
0202
0000
0000
0000
,  // measure 96
0300
0000
0000
0000
,  // measure 97
0003
0000
0000
0000
;

//---------------dance-single - beginning of the magic----------------
#NOTEDATA:;
#CHARTNAME:X-Scale 5;
#STEPSTYPE:dance-single;
#DESCRIPTION:beginning of the magic;
#CHARTSTYLE:;
#DIFFICULTY:Beginner;
#METER:3;
#RADARVALUES:0.180408,0.249940,0.067653,0.000000,0.000000,168.000000,159.000000,9.000000,0.000000,0.000000,0.000000,0.000000,0.000000,0.000000,0.180408,0.249940,0.067653,0.000000,0.000000,168.000000,159.000000,9.000000,0.000000,0.000000,0.000000,0.000000,0.000000,0.000000;
#CREDIT:Magical k3n;
#NOTES:
0000
0000
0000
0000
,
0000
0000
0000
0000
,
0000
0000
0000
0000
,
0000
0000
0000
0000
,
0001
0000
0000
0000
,
1000
0000
0000
0000
,
0100
0000
0000
0000
,
1000
0000
0000
0000
,
0001
0000
0000
0000
,
0000
0000
0000
0000
,
1000
0000
0010
0000
,
0100
0000
0001
0000
,
0100
0000
0010
0000
,
1000
0000
0100
0000
,
0010
0000
0100
0000
,
1000
0000
0001
0000
,
0100
0000
0001
0000
,
1000
0000
0001
0000
,
0010
0000
0001
0000
,
1000
0000
0010
0000
,
0100
0000
0010
0000
,
1000
0000
0001
0000
,
0010
0000
0100
0000
,
1000
0000
0001
0000
,
1000
0000
0100
0000
,
0010
0000
0001
0000
,
1000
0000
0000
0000
,
0001
0000
0000
0000
,
0100
0000
0000
0000
,
0001
0000
0000
0000
,
1000
0000
0000
0000
,
0001
0000
0000
0000
,
0010
0000
0000
0000
,
0001
0000
0000
0000
,
1000
0000
0000
0000
,
0001
0000
0000
0000
,
1001
0000
1000
0000
,
0001
0000
0100
0000
,
0001
0000
0010
0000
,
0100
0000
1000
0000
,
0010
0000
1000
0000
,
0100
0000
1000
0000
,
0001
0001
1000
1000
,
0001
0000
0100
0000
,
0001
0000
0010
0000
,
0100
0000
1000
0000
,
0001
0000
1000
0000
,
0100
0000
0000
1000
0000
1000
0000
0000
,
0001
0000
0000
0000
1000
0000
0000
0100
,
0000
0010
0000
0001
0000
0000
0000
0000
,
1000
0000
0001
0000
,
1001
0000
0000
0000
,
0110
0000
0000
0000
0100
0000
0000
0001
,
0000
0000
0000
1000
0000
0000
0000
0000
,
0010
0000
0000
0000
1000
0000
0000
0001
,
0000
0000
0000
0010
0000
0000
0000
0000
,
0001
0000
0000
0000
0010
0000
0000
0100
,
0000
0000
0000
1000
0000
0000
0000
0000
,
0001
0000
0000
0000
,
1000
0000
0000
0000
,
0001
0000
0000
0000
,
0010
0000
0000
0000
,
0100
0000
0000
0000
,
1000
0000
0000
0000
,
0010
0000
0000
0000
,
0100
0000
0000
0000
,
0001
0000
0000
0000
,
1000
0000
0000
0000
,
0001
0000
0000
0000
,
1000
0000
0000
0000
,
0001
0000
0000
0000
,
1001
0000
1000
0000
,
0010
0000
1000
0000
,
0001
0000
0010
0000
,
0100
0000
1000
0000
,
0001
0000
1000
0000
,
0010
0000
0100
0000
,
0001
0001
1000
1000
,
0100
0000
0010
0000
,
0001
0000
0000
0100
0000
0001
0000
0000
,
0010
0000
0000
0100
0000
1000
0000
0000
,
0001
0000
0000
1000
0000
0100
0000
0000
,
0010
0000
0000
0001
0000
0010
0000
0000
,
0100
0000
1000
0000
,
0001
0000
1000
0000
,
0010
0000
1000
0000
,
1001
0000
0000
0000
,
0110
0000
0000
0000
0100
0000
0000
0001
,
0000
0000
0000
1000
0000
0000
0000
0000
,
0100
0000
0000
0000
1000
0000
0000
0001
,
0000
0000
0000
0010
0000
0000
0000
0000
,
0100
0000
0000
0000
1000
0000
0000
0001
,
0000
0000
0000
1000
0000
0000
0000
0000
,
1001
0000
0000
0000
,
0110
0000
0000
0000
,
1001
0000
0000
0000
;
