#TITLE:I Believe;
#SUBTITLE:;
#ARTIST:Jan Level;
#TITLETRANSLIT:;
#SUBTITLETRANSLIT:;
#ARTISTTRANSLIT:;
#GENRE:Gabber;
#CREDIT:;
#BANNER:i believe-bn.png;
#BACKGROUND:i believe-bg.png;
#LYRICSPATH:;
#CDTITLE:cdtitle.png;
#MUSIC:i believe.ogg;
#OFFSET:0.000000;
#SAMPLESTART:48.000000;
#SAMPLELENGTH:12.000000;
#SELECTABLE:YES;
#BPMS:0.000000=160.000000
;
#STOPS:
;
#BGCHANGES:;
#KEYSOUNDS:;
#ATTACKS:;

//---------------dance-single - ----------------
#NOTES:
     dance-single:
     :
     Hard:
     8:
     0.456926,0.594298,0.247624,0.000000,0.000000,310.000000,286.000000,24.000000,0.000000,0.000000,0.000000,0.456926,0.594298,0.247624,0.000000,0.000000,310.000000,286.000000,24.000000,0.000000,0.000000,0.000000:
// measure 0
0000
0000
0000
0000
,  // measure 1
0000
0000
0000
0000
,  // measure 2
0000
0000
0000
0000
,  // measure 3
0000
0000
0000
0000
,  // measure 4
0101
0100
0010
1000
,  // measure 5
1000
0010
1000
0100
0010
0001
0000
0000
,  // measure 6
1000
0100
0000
0000
0100
0010
0000
0000
,  // measure 7
0010
0001
0000
0000
0001
0100
0000
0000
,  // measure 8
0101
0001
0010
0001
,  // measure 9
0100
0000
0010
0000
0100
0000
0001
0001
,  // measure 10
0001
0100
1000
0100
,  // measure 11
0010
0000
1000
0000
0010
0000
1000
1000
,  // measure 12
1000
0001
0100
0001
,  // measure 13
0010
0000
0100
0000
1000
0000
1000
0001
,  // measure 14
1000
1000
0010
0100
,  // measure 15
0001
0000
1000
0000
0100
0000
0100
0010
,  // measure 16
0110
0010
0000
0000
0001
0100
0000
0000
,  // measure 17
0001
0010
0000
0000
0100
1000
0000
0000
,  // measure 18
1100
0010
0100
0001
,  // measure 19
1000
0000
0001
0000
0100
0001
0000
0000
,  // measure 20
0010
0100
1000
0100
,  // measure 21
0010
0000
0001
0000
1000
0100
0000
0000
,  // measure 22
1000
0010
0100
0001
,  // measure 23
0010
0000
0100
0000
0010
0010
0000
0000
,  // measure 24
0110
0100
1000
0010
,  // measure 25
0001
0000
0010
0000
1000
0100
0000
0000
,  // measure 26
1100
1000
0100
1000
,  // measure 27
0010
0000
0100
0000
0001
0010
0000
0000
,  // measure 28
0011
0001
1000
0001
,  // measure 29
1001
0000
1000
0000
0001
1000
0000
0000
,  // measure 30
1010
1000
0000
0000
1001
0001
0000
0000
,  // measure 31
0101
0001
0000
0000
0010
0000
0100
0000
,  // measure 32
0110
0100
1000
0001
,  // measure 33
1000
0001
1000
0001
0100
0010
0100
0100
,  // measure 34
0010
0100
0001
1000
,  // measure 35
0100
0010
0001
0010
0100
0010
0001
0001
,  // measure 36
0001
1000
0010
0100
,  // measure 37
0001
0010
1000
0010
0001
0010
0100
0100
,  // measure 38
0100
0010
0000
0000
0010
0100
0000
0000
,  // measure 39
1000
0001
0000
0000
0001
1000
0001
0010
,  // measure 40
0100
1000
0001
0010
,  // measure 41
0100
0010
0100
1000
0100
0010
0100
0100
,  // measure 42
0100
0010
0100
1000
,  // measure 43
0001
0010
0100
0010
0001
0010
0100
0100
,  // measure 44
0100
1000
0001
0100
,  // measure 45
0010
1000
0100
1000
0010
1000
0001
0001
,  // measure 46
1001
1000
0000
0000
1001
0001
0000
0000
,  // measure 47
0110
0100
0010
0000
0110
0010
0100
0000
,  // measure 48
1010
1000
0001
1001
,  // measure 49
1000
0000
0001
0000
0010
0000
1000
0100
,  // measure 50
1000
0001
0100
0010
,  // measure 51
1000
0000
0001
0000
0100
0000
0010
0100
,  // measure 52
0100
0001
1000
0100
,  // measure 53
0001
0000
0010
0000
1000
0000
0001
1000
,  // measure 54
0001
0100
0010
1000
,  // measure 55
0001
0000
0010
0000
0001
0000
1000
0100
,  // measure 56
1100
0010
0100
0001
,  // measure 57
0010
0000
0100
0000
0010
0000
0001
1000
,  // measure 58
0010
0100
0001
0010
,  // measure 59
0100
0000
1000
0000
0100
0000
0010
0100
,  // measure 60
1000
0001
1000
0100
,  // measure 61
0010
0000
0001
0000
0100
0000
0010
0010
,  // measure 62
0110
0001
1100
0010
,  // measure 63
0101
0100
0001
0001
1001
1000
0010
0010
,  // measure 64
1010
0000
0000
0000
;

//---------------dance-single - ----------------
#NOTES:
     dance-single:
     :
     Medium:
     5:
     0.421551,0.462232,0.206354,0.000000,0.000000,286.000000,266.000000,20.000000,0.000000,0.000000,0.000000,0.421551,0.462232,0.206354,0.000000,0.000000,286.000000,266.000000,20.000000,0.000000,0.000000,0.000000:
// measure 0
0000
0000
0000
0000
,  // measure 1
0000
0000
0000
0000
,  // measure 2
0000
0000
0000
0000
,  // measure 3
0000
0000
0000
0000
,  // measure 4
0001
0001
1000
1000
,  // measure 5
1000
0100
1000
0100
0010
0001
0000
0000
,  // measure 6
1000
0001
0000
0000
0001
1000
0000
0000
,  // measure 7
0100
0010
0000
0000
0010
0100
0000
0000
,  // measure 8
1000
0100
0010
0001
,  // measure 9
0001
0000
0010
0000
0100
0000
1000
0100
,  // measure 10
1000
0100
1000
0100
,  // measure 11
0010
0000
0001
0000
0010
0000
0001
0010
,  // measure 12
0100
0100
0010
0010
,  // measure 13
0001
0000
0001
0000
1000
0000
1000
0001
,  // measure 14
1000
1000
0010
0100
,  // measure 15
0001
0000
1000
0000
0100
0000
0010
0001
,  // measure 16
0010
0001
1000
0010
,  // measure 17
0100
0000
0010
0000
0100
0001
0000
0000
,  // measure 18
0100
0010
0100
0001
,  // measure 19
1000
0000
0001
0000
0100
0001
0000
0000
,  // measure 20
0010
1000
0010
0001
,  // measure 21
0010
0000
0100
0000
1000
0100
0000
0000
,  // measure 22
0010
1000
0001
0010
,  // measure 23
0100
0000
0010
0000
0001
0010
0000
0000
,  // measure 24
0011
0100
0001
0010
,  // measure 25
0100
0000
1000
0000
0100
0010
0000
0000
,  // measure 26
0110
0010
0100
0010
,  // measure 27
0001
0000
0010
0000
0100
0010
0000
0000
,  // measure 28
0110
1000
0010
0100
,  // measure 29
0011
0000
0100
0000
0010
0001
0000
0000
,  // measure 30
1010
1000
0000
0000
0011
0001
0000
0000
,  // measure 31
0101
0100
0000
0000
0010
0000
0100
0000
,  // measure 32
0110
0100
0001
0010
,  // measure 33
0100
0010
0100
1000
0100
0010
0000
0000
,  // measure 34
0010
0100
1000
0010
,  // measure 35
0100
0010
0001
0010
0100
0010
0000
0000
,  // measure 36
1000
0100
0010
0001
,  // measure 37
1000
0010
0001
0010
1000
0010
0000
0000
,  // measure 38
0100
0010
0000
0000
0010
0100
0000
0000
,  // measure 39
0001
1000
0000
0000
1000
0001
0000
0000
,  // measure 40
0100
0001
0100
0010
,  // measure 41
1000
0100
1000
0010
1000
0001
0000
0000
,  // measure 42
0100
0010
0100
0001
,  // measure 43
0001
0010
0001
0100
0001
1000
0000
0000
,  // measure 44
1000
1000
0001
0001
,  // measure 45
0100
0001
1000
0010
0100
0001
0000
0000
,  // measure 46
0110
0100
0000
0000
0110
0010
0000
0000
,  // measure 47
1001
1000
0000
0000
1001
0001
0000
0000
,  // measure 48
1010
0010
0100
0110
,  // measure 49
0100
0000
0001
0000
0010
0000
0001
0100
,  // measure 50
0001
1000
0100
0010
,  // measure 51
0100
0000
1000
0000
0100
0000
0010
0100
,  // measure 52
0010
0001
1000
0001
,  // measure 53
0010
0000
0100
0000
1000
0000
0001
1000
,  // measure 54
0001
0100
0010
1000
,  // measure 55
0001
0000
0010
0000
0001
0000
1000
0100
,  // measure 56
1100
0010
1000
0001
,  // measure 57
1000
0000
0010
0000
0100
0000
0001
1000
,  // measure 58
0010
0100
0001
0010
,  // measure 59
1000
0000
0010
0000
0001
0000
0010
0100
,  // measure 60
0010
0001
1000
0100
,  // measure 61
0010
0000
0100
0000
1000
0000
0010
0010
,  // measure 62
0110
0001
0101
0100
,  // measure 63
0110
0010
1010
0100
,  // measure 64
0110
0000
0000
0000
;

//---------------dance-single - ----------------
#NOTES:
     dance-single:
     :
     Easy:
     3:
     0.299213,0.462232,0.226989,0.123812,0.000000,203.000000,181.000000,22.000000,12.000000,0.000000,0.000000,0.299213,0.462232,0.226989,0.123812,0.000000,203.000000,181.000000,22.000000,12.000000,0.000000,0.000000:
// measure 0
0000
0000
0000
0000
,  // measure 1
0000
0000
0000
0000
,  // measure 2
0000
0000
0000
0000
,  // measure 3
0000
0000
0000
0000
,  // measure 4
0010
0000
0100
0000
,  // measure 5
1000
1000
1000
0000
,  // measure 6
0001
0001
0010
0010
,  // measure 7
0100
0100
1000
1000
,  // measure 8
1001
0000
0010
0000
,  // measure 9
0001
0000
0100
0010
,  // measure 10
0100
0000
0001
0000
,  // measure 11
1000
0000
0001
0100
,  // measure 12
0001
0000
0010
0000
,  // measure 13
1000
0000
0100
0010
,  // measure 14
0100
0000
0001
0000
,  // measure 15
1000
0000
0010
0000
,  // measure 16
0110
0000
0010
0000
,  // measure 17
0100
0000
0001
0000
,  // measure 18
0001
0000
0100
0000
,  // measure 19
0010
0000
1000
0000
,  // measure 20
0010
0000
0100
0000
,  // measure 21
0001
0000
1000
0000
,  // measure 22
0010
0000
1000
0000
,  // measure 23
0100
0000
1000
0000
,  // measure 24
1100
0000
0001
0000
,  // measure 25
1000
0000
0100
0000
,  // measure 26
0110
0000
0100
0000
,  // measure 27
0010
0000
0001
0000
,  // measure 28
0011
0000
0010
0000
,  // measure 29
0110
0000
0010
0000
,  // measure 30
1010
0000
0010
0000
,  // measure 31
0110
0000
0100
0100
,  // measure 32
0101
0100
0001
0010
,  // measure 33
0001
0010
0100
0000
,  // measure 34
0010
0100
1000
0010
,  // measure 35
0100
0010
0100
0000
,  // measure 36
1000
0100
0010
0001
,  // measure 37
1000
0001
0100
0000
,  // measure 38
0200
0000
0000
0300
0020
0000
0000
0030
,  // measure 39
2000
0000
0000
3000
0002
0000
0010
0013
,  // measure 40
0011
0001
1000
0001
,  // measure 41
1000
0100
0010
0000
,  // measure 42
0100
0010
0100
0010
,  // measure 43
0001
0010
0100
0000
,  // measure 44
1000
0010
0100
0001
,  // measure 45
0010
0100
1000
0000
,  // measure 46
0220
0000
0000
0330
2002
0000
0000
3003
,  // measure 47
0202
0000
0000
0303
2020
0000
0000
3030
,  // measure 48
1010
0000
0001
0101
,  // measure 49
0100
0001
0010
1000
,  // measure 50
0001
0001
0100
0010
,  // measure 51
1000
0001
0100
0010
,  // measure 52
0100
0001
1000
0100
,  // measure 53
0001
0010
1000
0001
,  // measure 54
1000
0100
0010
1000
,  // measure 55
0001
0010
0001
1000
,  // measure 56
0110
0010
0100
0001
,  // measure 57
1000
0010
0100
0001
,  // measure 58
0010
0100
0001
0010
,  // measure 59
1000
0001
0100
0010
,  // measure 60
0001
1000
0010
0100
,  // measure 61
0001
0010
1000
0010
,  // measure 62
0110
0001
1100
0010
,  // measure 63
0101
0001
1010
0010
,  // measure 64
0110
0000
0000
0000
;

//---------------dance-single - ----------------
#NOTES:
     dance-single:
     :
     Challenge:
     9:
     0.598426,0.726365,0.330166,0.092859,0.036112,406.000000,374.000000,32.000000,9.000000,0.000000,0.000000,0.598426,0.726365,0.330166,0.092859,0.036112,406.000000,374.000000,32.000000,9.000000,0.000000,0.000000:
// measure 0
0000
0000
0000
0000
,  // measure 1
0000
0000
0000
0000
,  // measure 2
0000
0000
0000
0000
,  // measure 3
0000
0000
0000
0000
,  // measure 4
1010
1000
0100
0010
,  // measure 5
0001
0100
0010
1000
0100
0010
0000
0000
,  // measure 6
0010
0100
0010
0000
1000
0001
1000
0000
,  // measure 7
0001
0010
0100
0000
0010
0100
1000
0000
,  // measure 8
1100
0100
0010
0001
,  // measure 9
0001
0010
0001
0100
0010
1000
0100
1000
,  // measure 10
1100
0001
1000
0001
,  // measure 11
0100
0010
0001
0010
0100
1000
0100
0010
,  // measure 12
0110
0100
0010
0100
,  // measure 13
0001
1000
0001
1000
0100
0010
0001
0010
,  // measure 14
0011
0001
1000
0000
0010
0100
1000
0000
,  // measure 15
1000
0100
0010
0000
0100
0010
0001
0010
,  // measure 16
0110
0000
0100
0000
0001
0100
0001
0000
,  // measure 17
1000
0000
0001
0000
0100
0010
0100
0000
,  // measure 18
0001
0000
0010
0000
0100
0010
0100
0000
,  // measure 19
1000
0000
0001
0000
0100
0001
0100
0000
,  // measure 20
0010
0000
1000
0000
0100
1000
0001
0000
,  // measure 21
0010
0000
0001
0000
1000
0100
1000
0000
,  // measure 22
0001
0000
1000
0000
0001
0010
0001
0000
,  // measure 23
0100
0000
0001
0000
0010
0100
0010
0000
,  // measure 24
0110
0010
0100
0010
0100
1000
0100
1000
,  // measure 25
0100
0010
0001
0010
0001
0010
0100
0010
,  // measure 26
0110
0010
0100
1000
0100
0010
0100
1000
,  // measure 27
0100
0010
0001
0010
0100
1000
0100
0010
,  // measure 28
0110
1000
0010
0100
,  // measure 29
0011
0000
0100
0000
0010
0001
0000
0000
,  // measure 30
0011
0001
1000
0001
1001
1000
0010
0100
,  // measure 31
0001
1000
0001
1000
0001
1000
0001
1000
0001
0000
0000
0000
1000
0000
0000
0000
,  // measure 32
1001
0100
0001
0010
,  // measure 33
0001
1000
0001
1000
0001
0100
0001
0001
,  // measure 34
0011
0100
0001
0010
,  // measure 35
0100
0000
0010
0000
0100
0000
0010
0000
0100
0000
0010
0100
1000
0000
1000
0000
,  // measure 36
1100
1000
0010
0100
,  // measure 37
0001
0010
1000
0010
0001
0010
0100
0100
,  // measure 38
0110
0010
0100
0000
0010
0100
0010
0000
,  // measure 39
0001
0000
1000
0000
0001
0000
0000
0000
0001
0000
0100
0010
0100
0000
0100
0000
,  // measure 40
0110
1000
0001
0010
,  // measure 41
0001
0100
1000
0100
0001
0100
0010
0010
,  // measure 42
0110
0010
0100
0001
,  // measure 43
1000
0000
0010
0000
0001
0000
0010
0000
1000
0000
0010
0100
0001
0000
0001
0000
,  // measure 44
0101
1000
0001
0010
,  // measure 45
0100
0010
0100
1000
0100
0010
0100
0100
,  // measure 46
0110
1000
0001
0000
1001
0010
0100
0000
,  // measure 47
0110
0100
0010
0001
0010
0100
1000
0100
,  // measure 48
0110
0100
0002
1003
,  // measure 49
0001
0000
0010
0000
0100
0000
1000
1000
,  // measure 50
1100
0001
0100
0010
,  // measure 51
2000
0001
3002
0100
0203
0010
0320
0100
,  // measure 52
0130
0001
1000
0100
,  // measure 53
2000
0010
3020
1000
2030
0001
3002
1000
,  // measure 54
1003
0100
0010
1000
,  // measure 55
0001
0000
0010
0000
0001
0000
1000
0100
,  // measure 56
1100
1000
0010
0100
0001
0010
0100
1000
,  // measure 57
0100
0010
0001
0010
0100
0010
0001
0010
,  // measure 58
0011
0001
0100
0010
1000
0100
0010
0001
,  // measure 59
0010
0100
1000
0100
0010
0100
1000
0100
,  // measure 60
1100
0100
1000
0001
0100
0001
0010
0100
,  // measure 61
0010
0001
0010
0100
1000
0100
0010
0100
,  // measure 62
0110
0001
1100
0010
,  // measure 63
0101
0100
0001
1000
1001
0100
0010
0100
,  // measure 64
0110
0000
0000
0000
;

//---------------dance-single - ----------------
#NOTES:
     dance-single:
     :
     Beginner:
     1:
     0.176875,0.330166,0.144448,0.350801,0.000000,120.000000,106.000000,14.000000,34.000000,0.000000,0.000000,0.176875,0.330166,0.144448,0.350801,0.000000,120.000000,106.000000,14.000000,34.000000,0.000000,0.000000:
// measure 0
0000
0000
0000
0000
,  // measure 1
0000
0000
0000
0000
,  // measure 2
0000
0000
0000
0000
,  // measure 3
0000
0000
0000
0000
,  // measure 4
0001
0000
0000
0000
,  // measure 5
0001
0000
0010
0000
,  // measure 6
0100
0000
0010
0000
,  // measure 7
0100
0000
1000
0000
,  // measure 8
1100
0000
0000
0000
,  // measure 9
0000
0000
0010
0100
,  // measure 10
0010
0000
0000
0000
,  // measure 11
0000
0000
0100
0010
,  // measure 12
1000
0000
0000
0000
,  // measure 13
0000
0000
0001
0010
,  // measure 14
0100
0000
0010
0000
,  // measure 15
0100
0000
0010
0002
,  // measure 16
0000
0000
0000
0000
,  // measure 17
0000
0000
0000
0000
0000
0000
0000
0003
,  // measure 18
0020
0000
0000
0000
,  // measure 19
0000
0000
0000
0000
0000
0000
0000
0030
,  // measure 20
0200
0000
0000
0000
,  // measure 21
0000
0000
0000
0000
0000
0000
0000
0300
,  // measure 22
0020
0000
0000
0000
0000
0000
0000
0030
,  // measure 23
0200
0000
0000
0300
2000
0000
0000
3000
,  // measure 24
1100
0000
0000
0000
,  // measure 25
0000
0000
0000
0000
,  // measure 26
0110
0000
0000
0000
,  // measure 27
0000
0000
0000
0000
,  // measure 28
0011
0000
0000
0000
,  // measure 29
0101
0000
0000
0000
,  // measure 30
1010
0000
0110
0000
,  // measure 31
0101
0000
0100
0100
,  // measure 32
0110
0000
0000
0000
,  // measure 33
1000
0100
0010
0000
,  // measure 34
0010
0000
0000
0000
,  // measure 35
0100
0010
0001
0000
,  // measure 36
0001
0000
0000
0000
,  // measure 37
0001
0010
0100
0000
,  // measure 38
0200
0000
0000
0300
0020
0000
0000
0030
,  // measure 39
0200
0000
0000
0300
0002
0000
0000
0003
,  // measure 40
0101
0000
0000
0000
,  // measure 41
0001
0100
0001
0000
,  // measure 42
0100
0000
0000
0000
,  // measure 43
1000
0010
1000
0000
,  // measure 44
0010
0000
0000
0000
,  // measure 45
0100
0010
0100
0000
,  // measure 46
0020
0000
0000
0030
2000
0000
0000
3000
,  // measure 47
0020
0000
0000
0030
0200
0000
0000
0300
,  // measure 48
0020
0000
0000
0030
0200
0000
0301
0000
,  // measure 49
0002
0000
0000
0000
0000
0003
1000
0000
,  // measure 50
0002
0000
0103
0000
,  // measure 51
2000
3200
0320
0032
,  // measure 52
0013
0000
0000
0000
,  // measure 53
0002
0023
0230
2300
,  // measure 54
3100
0000
1000
0000
,  // measure 55
0001
0000
1000
0000
,  // measure 56
1001
0000
0100
0000
,  // measure 57
0010
0000
0000
0001
,  // measure 58
0010
0000
0000
0000
,  // measure 59
2000
3200
0320
0032
,  // measure 60
0103
0000
0000
0000
,  // measure 61
0002
0023
0230
2300
,  // measure 62
3010
0000
0100
0000
,  // measure 63
0110
0000
1001
0000
,  // measure 64
0110
0000
0000
0000
;
