#VERSION:0.83;
#TITLE:I Believe in Joe Hendry;
#SUBTITLE:;
#ARTIST:Joe Hendry;
#TITLETRANSLIT:;
#SUBTITLETRANSLIT:;
#ARTISTTRANSLIT:;
#GENRE:Pop Rock;
#ORIGIN:;
#CREDIT:;
#BANNER:I Believe in Joe Hendry-bn.png;
#BACKGROUND:I Believe in Joe Hendry-bg.png;
#PREVIEWVID:;
#JACKET:I Believe in Joe Hendry-jacket.png;
#CDIMAGE:;
#DISCIMAGE:;
#LYRICSPATH:;
#CDTITLE:cdtitle.png;
#MUSIC:I Believe in Joe Hendry.ogg;
#OFFSET:0.124000;
#SAMPLESTART:11.626000;
#SAMPLELENGTH:15.500000;
#SELECTABLE:YES;
#DISPLAYBPM:75.000000:120.000000;
#BPMS:0.000=120.000,
49.000=150.000,
53.000=75.000;
#STOPS:49.000=3.600;
#DELAYS:;
#WARPS:;
#TIMESIGNATURES:0.000=4=4;
#TICKCOUNTS:0.000=4;
#COMBOS:0.000=1;
#SPEEDS:0.000=1.000=0.000=0;
#SCROLLS:0.000=1.000;
#FAKES:;
#LABELS:0.000=Song Start;
#BGCHANGES:0.000=I Believe in Joe Hendry.avi=1.000=0=0=0=StretchNoLoop====,
99999=-nosongbg-=1.000=0=0=0 // don't automatically add -songbackground-
;
#KEYSOUNDS:;
#ATTACKS:
;

//---------------dance-single - ----------------
#NOTEDATA:;
#CHARTNAME:X-Scale 4;
#STEPSTYPE:dance-single;
#DESCRIPTION:;
#CHARTSTYLE:;
#DIFFICULTY:Easy;
#METER:2;
#RADARVALUES:0.197202,0.270475,0.082825,0.207062,0.000000,100.000000,94.000000,6.000000,15.000000,0.000000,0.000000,0.000000,0.000000,0.000000,0.197202,0.270475,0.082825,0.207062,0.000000,100.000000,94.000000,6.000000,15.000000,0.000000,0.000000,0.000000,0.000000,0.000000;
#CREDIT:I believe in the k3n;
#DISPLAYBPM:75.000000:120.000000;
#NOTES:
// measure 0
0000
0000
0000
0000
,  // measure 1
0000
0000
0000
0000
,  // measure 2
0000
0001
0000
0000
,  // measure 3
0000
0000
0000
1000
,  // measure 4
0001
1000
0000
0000
,  // measure 5
0000
0000
0000
0000
,  // measure 6
0000
1001
1000
0001
,  // measure 7
1000
0100
0010
0100
,  // measure 8
1000
0001
0100
0001
,  // measure 9
1000
0100
0010
0100
,  // measure 10
1000
0000
0002
0000
0013
0200
0000
0310
,  // measure 11
0001
2000
0000
3002
0103
0000
0001
0000
,  // measure 12
0010
0110
0000
0000
,  // measure 13
0000
1001
1000
0010
,  // measure 14
1000
0100
0010
0100
1000
0010
0100
0010
,  // measure 15
1000
0001
0010
0000
0100
0000
1000
0000
,  // measure 16
0001
0010
0001
0000
1001
0000
0000
0000
,  // measure 17
1000
0001
2000
0000
3200
0000
0320
0000
,  // measure 18
0032
0003
1000
0000
1001
0000
0001
0100
,  // measure 19
0001
0000
0010
0000
0100
0000
1000
0010
,  // measure 20
1000
0000
0001
0000
1000
0010
1000
0000
,  // measure 21
0001
0010
0200
0000
2300
0000
3002
0000
,  // measure 22
0203
0300
0001
0000
0101
0000
0100
0000
,  // measure 23
0010
0000
1000
0000
0100
0000
0010
0001
,  // measure 24
0010
0000
0100
0000
0010
0001
0010
0000
,  // measure 25
0100
0000
2000
0000
0002
3000
0200
0000
,  // measure 26
0300
0003
0000
0000
0000
0000
0000
0000
;

//---------------dance-single - ----------------
#NOTEDATA:;
#CHARTNAME:X-Scale 8;
#STEPSTYPE:dance-single;
#DESCRIPTION:;
#CHARTSTYLE:;
#DIFFICULTY:Medium;
#METER:6;
#RADARVALUES:0.356936,0.394799,0.179454,0.345104,0.289887,181.000000,168.000000,13.000000,25.000000,0.000000,0.000000,0.000000,0.000000,0.000000,0.356936,0.394799,0.179454,0.345104,0.289887,181.000000,168.000000,13.000000,25.000000,0.000000,0.000000,0.000000,0.000000,0.000000;
#CREDIT:I believe in the k3n;
#DISPLAYBPM:75.000000:120.000000;
#NOTES:
// measure 0
0000
0000
0000
0000
,  // measure 1
0000
0000
0000
0000
,  // measure 2
0000
0000
0011
0000
0000
1000
0000
0000
,  // measure 3
0001
0020
0000
0002
0033
0000
0011
0000
,  // measure 4
0110
0000
1010
0000
0000
1000
0000
0000
,  // measure 5
0010
2000
0000
0002
3003
0000
0000
0000
,  // measure 6
0000
0000
0000
0000
1000
0000
0000
0100
0000
0000
1000
0000
0001
0000
0000
0100
,  // measure 7
0000
0000
0001
0000
0010
0000
0000
0100
0000
0000
1000
0000
0010
0000
0100
0000
,  // measure 8
0001
0100
0001
0000
1000
0000
0000
0010
0000
0000
0001
0000
0010
0000
0100
0010
,  // measure 9
0000
0000
1000
0000
0001
0000
0000
0100
0000
0000
1000
0000
0100
0000
0010
0000
,  // measure 10
0100
0001
2000
0000
3100
0020
0000
1030
,  // measure 11
0010
0022
0033
2020
3030
0001
0000
1000
,  // measure 12
0000
0001
2002
0000
0000
0000
0000
0000
,  // measure 13
0000
0000
3003
0000
1001
0000
0000
0000
1000
0000
0001
0010
0100
0000
1000
0000
,  // measure 14
0001
1000
0100
0001
1000
0010
0100
1000
,  // measure 15
0001
0000
0100
0010
0100
0000
0000
0000
0001
0000
0010
0100
0010
0000
0001
0000
,  // measure 16
1000
0000
0001
0000
0000
1000
0100
0000
0001
0100
0000
1001
0000
0001
0100
0000
,  // measure 17
1000
0100
0010
0100
0001
0000
0000
0000
0101
0000
0000
1000
0000
1000
0100
0000
,  // measure 18
1100
0000
0000
0100
1000
0000
0010
0000
0100
0000
0001
0010
0000
1000
0010
0000
,  // measure 19
0001
0000
1000
0000
0010
0000
0001
0010
1000
0001
2000
0000
3020
0000
0230
0000
,  // measure 20
0001
0000
0300
0001
0001
0000
2000
0000
3200
0000
0302
0000
0003
1000
0100
0010
,  // measure 21
1000
0000
0010
0000
1001
0000
0000
0000
0001
0000
0000
0100
0000
0100
0001
0000
,  // measure 22
0101
0000
0000
0001
0010
0000
0100
0000
1000
0000
0001
0010
0000
1000
0010
0000
,  // measure 23
0001
0000
0000
1000
0100
0000
1000
0001
0100
0010
0002
0000
0023
0000
0230
0000
,  // measure 24
0001
0000
0300
0001
0001
0000
2000
0000
3200
0000
0302
0000
0003
0100
0010
0001
,  // measure 25
1000
0000
0001
0000
1000
0001
0100
0010
1000
0100
0010
0001
0200
0000
0000
0010
,  // measure 26
0310
0000
0000
0000
;

//---------------dance-single - ----------------
#NOTEDATA:;
#CHARTNAME:X-Scale 11;
#STEPSTYPE:dance-single;
#DESCRIPTION:;
#CHARTSTYLE:;
#DIFFICULTY:Hard;
#METER:8;
#RADARVALUES:0.443705,0.504887,0.193258,0.386516,0.476243,225.000000,211.000000,14.000000,28.000000,0.000000,0.000000,0.000000,0.000000,0.000000,0.443705,0.504887,0.193258,0.386516,0.476243,225.000000,211.000000,14.000000,28.000000,0.000000,0.000000,0.000000,0.000000,0.000000;
#CREDIT:I believe in the k3n;
#DISPLAYBPM:75.000000:120.000000;
#NOTES:
// measure 0
0000
0000
0000
0000
,  // measure 1
0000
0000
0000
0000
,  // measure 2
0000
0000
1100
0000
0001
1000
0000
0100
,  // measure 3
0010
0002
0000
2000
3003
0000
1001
0000
,  // measure 4
0110
0000
1100
0000
0100
1000
0000
0100
,  // measure 5
0010
0002
0000
0020
0033
0000
0000
0000
,  // measure 6
0000
0000
0000
0000
1001
0000
0000
0010
1000
0000
0001
0000
0010
0000
0000
0100
,  // measure 7
0010
0000
0001
0000
1000
0000
0100
0000
0001
0000
0100
0000
1000
0100
1000
0000
,  // measure 8
0001
0100
0001
0000
1000
0000
0000
0010
0100
0000
0001
0000
1000
0000
0001
0100
,  // measure 9
0010
0000
0100
0000
1000
0000
0100
0000
0001
0000
1000
0000
0100
0010
0100
0000
,  // measure 10
1000
0100
1000
0000
0001
0000
0100
0000
0010
0000
1000
0000
0001
0100
0001
0000
,  // measure 11
0100
0010
0100
0000
0001
0000
0010
0000
0100
0000
0010
0000
0001
0100
0001
0000
,  // measure 12
1000
0100
1000
0000
2200
0000
0000
0000
0000
0000
0000
0000
0000
0000
0000
0000
,  // measure 13
0000
0000
0000
0000
3300
0000
0000
0000
1002
0000
0000
0000
0000
0000
0000
0000
0013
0000
0000
0000
0100
0000
0010
0000
0002
0000
1000
0000
1003
0000
0001
0100
,  // measure 14
0001
0010
1000
0001
0100
0010
0001
1000
,  // measure 15
0001
0000
0100
0000
0010
0000
1000
0000
0002
0000
0000
0000
0000
0000
0000
0000
0013
0000
1000
0000
0010
0000
0100
0000
2000
0000
0001
0000
3001
0000
1000
0001
,  // measure 16
1000
0000
0100
1000
0001
1000
1000
0000
0001
0001
0000
0110
0000
1000
1000
0000
,  // measure 17
0001
0010
0100
0010
0001
0000
0000
0000
1001
0000
0000
0100
0000
0100
1000
0000
,  // measure 18
1100
0000
0000
1000
0010
0000
0001
0010
0000
1000
0001
0010
0000
0100
0100
0000
,  // measure 19
1001
0000
0000
0100
0001
0000
1000
0100
0001
0100
2000
0000
3002
0000
0203
0000
,  // measure 20
0010
0000
0300
0001
0100
0001
2000
0000
3002
0000
0203
0000
0300
0001
0100
0001
,  // measure 21
0020
0000
0230
1000
1300
0000
0000
0000
1001
0000
0000
0100
0000
0100
0001
0000
,  // measure 22
0101
0000
0000
0001
0100
0000
1000
0100
0000
0001
0010
0100
0000
0100
0100
0000
,  // measure 23
0110
0000
0000
0100
1000
0000
0001
0010
1000
0010
0002
0000
2003
0000
3020
0000
,  // measure 24
0100
0000
0030
1000
0010
1000
0002
0000
2003
0000
3020
0100
0030
0100
0010
1000
,  // measure 25
0200
0000
0000
0000
0320
0000
0000
0000
0031
0000
0010
0000
0100
0000
1000
0000
0100
0000
0010
0100
1000
0001
0100
0010
2000
0000
0000
0000
3000
0000
0001
0100
,  // measure 26
0020
0030
0000
0000
0000
0000
0000
0000
;

//---------------dance-single - ----------------
#NOTEDATA:;
#CHARTNAME:X-Scale 1;
#STEPSTYPE:dance-single;
#DESCRIPTION:;
#CHARTSTYLE:;
#DIFFICULTY:Beginner;
#METER:1;
#RADARVALUES:0.092685,0.124410,0.000000,0.000000,0.000000,47.000000,47.000000,0.000000,0.000000,0.000000,0.000000,0.000000,0.000000,0.000000,0.092685,0.124410,0.000000,0.000000,0.000000,47.000000,47.000000,0.000000,0.000000,0.000000,0.000000,0.000000,0.000000,0.000000;
#CREDIT:I believe in the k3n;
#DISPLAYBPM:75.000000:120.000000;
#NOTES:
// measure 0
0000
0000
0000
0000
,  // measure 1
0000
0000
0000
0000
,  // measure 2
0000
1000
0000
0000
,  // measure 3
0000
0000
0000
0000
,  // measure 4
0000
0001
0000
0000
,  // measure 5
0000
0000
0000
0000
,  // measure 6
0000
1000
0000
0001
,  // measure 7
0000
0100
0000
0001
,  // measure 8
0000
1000
0000
0001
,  // measure 9
0000
0010
0000
0100
,  // measure 10
0000
0010
0000
0001
,  // measure 11
0000
1000
0000
0100
,  // measure 12
0000
1000
0000
0000
,  // measure 13
0000
0001
0000
0010
,  // measure 14
0100
1000
0000
0100
,  // measure 15
0010
0001
0000
1000
,  // measure 16
0001
0000
0100
0000
,  // measure 17
0010
0000
0100
0001
,  // measure 18
0100
0000
0010
0000
,  // measure 19
1000
0000
0001
0000
,  // measure 20
1000
0000
0100
0000
,  // measure 21
1000
0000
0001
0100
,  // measure 22
0001
0000
0010
0000
,  // measure 23
0100
0000
0010
0000
,  // measure 24
0001
0000
1000
0000
,  // measure 25
0001
0010
0100
1000
;
