#TITLE:Hyperballad;
#SUBTITLE:;
#ARTIST:Björk;
#TITLETRANSLIT:;
#SUBTITLETRANSLIT:;
#ARTISTTRANSLIT:;
#GENRE:Techno Pop;
#CREDIT:;
#BANNER:Hyperballad-bn.png;
#BACKGROUND:Hyperballad-bg.png;
#LYRICSPATH:;
#CDTITLE:cdtitle.png;
#MUSIC:Hyperballad.ogg;
#OFFSET:-0.005000;
#SAMPLESTART:59.561001;
#SAMPLELENGTH:14.222000;
#SELECTABLE:YES;
#BPMS:0.000000=135.000000
;
#STOPS:
;
#BGCHANGES:0.000=Hyperballad.avi=1.000=1=0=0=StretchNoLoop==CrossFade==,
99999=-nosongbg-=1.000=0=0=0 // don't automatically add -songbackground-
;
#KEYSOUNDS:;
#ATTACKS:;

//---------------dance-single - ----------------
#NOTES:
     dance-single:
     X-Scale 1:
     Beginner:
     1:
     0.100763,0.136518,0.007584,0.000000,0.000000,93.000000,92.000000,1.000000,0.000000,0.000000,0.000000,0.100763,0.136518,0.007584,0.000000,0.000000,93.000000,92.000000,1.000000,0.000000,0.000000,0.000000:
0000
0000
0000
0000
,
0000
0000
0000
0000
,
0000
0000
0000
0000
,
0000
0000
0000
0000
,
0000
0000
0000
0000
,
0000
0000
0000
0000
,
0001
0000
0000
0000
,
1000
0000
0000
0000
,
0001
0000
0000
0000
,
1000
0000
0000
0000
,
0100
0000
0000
0000
,
0010
0000
0000
0000
,
0100
0000
0000
0000
,
0010
0000
0000
0000
,
0001
0000
0000
0000
,
0100
0000
0000
0000
,
0001
0000
0000
0000
,
0100
0000
0000
0000
,
0001
0000
0000
0000
,
1000
0000
0000
0000
,
0001
0000
0000
0000
,
1000
0000
0000
0000
,
0100
0000
0000
0000
,
1000
0000
0000
0000
,
0100
0000
0000
0000
,
0010
0000
0000
0000
,
0001
0000
0000
0000
,
0010
0000
0000
0000
,
0100
0000
0000
0000
,
0010
0000
0000
0000
,
0001
0000
0000
0000
,
1000
0000
0000
0000
,
0001
0000
0000
0000
,
0100
0000
0001
0000
,
1001
0000
0000
0000
,
0010
0000
0000
0000
,
1000
0000
0000
0000
,
0001
0000
0000
0000
,
1000
0000
0000
0000
,
0100
0000
0000
0000
,
0010
0000
0000
0000
,
0001
0000
0000
0000
,
1000
0000
0001
0000
,
0100
0000
0001
0000
,
1000
0000
0001
0000
,
0100
0000
0001
0000
,
1000
0000
0100
0000
,
0010
0000
0001
0000
,
1000
0000
0001
0000
,
0010
0000
0100
0000
,
1000
0000
0001
0000
,
0100
0000
0010
0000
,
1000
0000
0001
0000
,
0010
0000
0100
0000
,
0010
0000
0001
0000
,
0010
0000
0100
0000
,
1000
0000
0001
0000
,
0010
0000
0001
0000
,
1000
0000
0010
0000
,
1000
0000
0001
0000
,
0100
0000
0001
0000
,
1000
0000
0100
0000
,
0010
0000
0001
0000
,
1000
0000
0001
0000
,
0010
0000
0100
0000
,
1000
0000
0001
0000
,
1000
0000
0000
0000
,
0100
0000
0000
0000
,
0010
0000
0000
0000
,
0001
0000
0000
0000
,
0100
0000
0000
0000
,
0010
0000
0000
0000
,
1000
0000
0000
0000
;

//---------------dance-single - ----------------
#NOTES:
     dance-single:
     X-Scale 5:
     Easy:
     3:
     0.229697,0.364806,0.007584,0.439891,0.000000,212.000000,211.000000,1.000000,58.000000,0.000000,0.000000,0.229697,0.364806,0.007584,0.439891,0.000000,212.000000,211.000000,1.000000,58.000000,0.000000,0.000000:
0000
0000
0000
0000
,
0000
0000
0000
0000
,
0000
0000
0000
0000
,
0000
0000
0000
0000
,
0000
0000
0000
0000
,
0000
0000
0000
0000
,
1000
0000
0000
0000
,
0100
0000
0000
0000
,
0010
0000
0000
0000
,
0001
0000
0000
0000
,
0100
0000
0000
0000
,
0010
0000
0000
0000
,
1000
0000
0000
0000
,
0001
0000
0000
0000
,
0010
0000
0000
0000
,
0100
0000
0000
0000
,
0010
0000
0000
0000
,
0001
0000
0000
0000
,
1000
0000
0010
0000
,
0100
0000
0010
0000
,
1000
0000
0001
0000
,
0100
0000
0010
0000
,
1000
0000
0100
0000
,
0010
0000
0001
0000
,
1000
0000
0001
0000
,
0100
0000
0001
0000
,
1000
0000
0100
0000
,
0010
0000
0001
0000
,
0010
0000
0100
0000
,
1000
0000
0001
0000
,
0100
0000
0000
0000
,
0010
0000
0000
0000
,
1000
0000
0000
0000
,
0001
0000
0000
0000
2001
0000
0000
0020
,
3000
2030
0000
3002
0000
0023
0000
0030
,
0100
0000
0100
2000
0000
3020
0000
0000
,
0130
0001
0020
0000
0001
0000
0100
0130
,
0100
1000
0001
0100
,
0001
0000
0010
0100
1000
0000
0001
0000
,
0100
0001
0000
1000
0200
0000
0010
0000
,
2300
0000
0000
3001
0020
0000
0100
0100
,
0230
0000
2300
0000
3020
0000
0000
0230
,
0000
0302
0000
2003
0000
3200
0000
1300
,
0100
0010
0000
0001
0100
0002
0000
0000
,
1003
0100
0020
0000
0100
0000
0032
0000
,
0103
0001
0000
0001
1000
0000
0100
0000
,
1000
0000
0000
0010
1000
0001
0000
0001
,
0010
0000
0000
0100
2000
0001
0000
0001
,
3002
0000
0000
0103
0020
1000
0000
1000
,
2030
3200
0320
0032
,
0103
0001
1000
0000
0010
1000
0001
0000
,
0100
0001
0010
0000
0100
1000
0000
1000
,
0001
0000
0100
0001
1000
0100
0000
0100
,
0010
0000
0001
0100
0010
1000
0000
1000
,
0001
0000
0100
0001
0010
0001
0000
0001
,
0100
0000
0010
1000
0002
0100
0000
0100
,
0203
0000
0000
0310
2000
0100
0000
0100
,
3200
0000
0000
0320
0000
0001
0000
0031
,
0020
0000
0000
0230
0000
0000
2300
0000
,
0002
3000
0000
0203
0000
0000
0320
0000
,
2000
0030
0000
3200
0000
0000
0320
0000
,
0002
0030
0000
0203
0000
0000
0302
0000
,
2000
0003
0000
3020
0000
0000
0230
0000
,
0002
0300
0000
0023
0000
0000
0230
0000
,
2000
0300
0000
3002
0000
0000
0203
0000
,
0002
0300
0000
0023
0000
0000
0230
0000
,
1000
0300
0000
0100
0010
0001
0000
0001
,
0000
0000
0000
1000
0001
0100
0000
0100
,
0000
0000
0000
0001
0010
0100
0000
0100
,
0000
0000
0000
1000
0001
0100
0000
0100
,
0000
0000
0000
0001
0010
0100
0000
0100
,
0000
0000
0000
1000
0001
0100
0000
0100
,
0002
0000
0000
0000
,
0000
0000
0000
0000
,
0003
0000
0000
0000
;

//---------------dance-single - ----------------
#NOTES:
     dance-single:
     X-Scale 8:
     Medium:
     6:
     0.340211,0.420930,0.022753,0.348879,0.026545,314.000000,311.000000,3.000000,46.000000,0.000000,0.000000,0.340211,0.420930,0.022753,0.348879,0.026545,314.000000,311.000000,3.000000,46.000000,0.000000,0.000000:
0000
0000
0000
0000
,
0000
0000
0000
0000
,
0000
0000
0000
0000
,
0000
0000
0000
0000
,
0000
0000
0000
0000
,
0000
0000
0000
0000
,
0001
0000
1000
0000
,
0001
0002
0000
0003
0100
0000
0000
0000
,
0001
2000
0100
0000
,
3010
0000
0000
0000
0100
0000
0000
0002
,
0100
0000
0000
0000
0000
0000
0000
0000
1003
0000
0100
0000
0000
1000
0000
0000
,
0020
0000
0000
0000
0000
0000
0000
0000
0031
0000
0000
0010
0000
0000
1000
0000
,
0002
0000
0100
0000
1003
0200
0000
0000
,
0320
0000
0000
0100
0000
0000
0000
0130
,
1000
0000
0000
0000
0000
0000
0000
0000
0001
0000
0100
0000
0000
0010
0000
0000
,
0200
0000
0010
0010
0300
0100
0000
0001
,
2000
0000
0000
3200
0000
0000
0000
0310
,
0100
0000
1000
0000
0001
0000
0100
0000
0010
0000
0000
0010
0000
0000
0010
0000
,
0100
0000
0001
0010
0000
0001
0000
1000
,
0100
0000
0010
0100
1000
0000
0001
1000
,
0010
0000
0200
0000
0000
0000
0001
0000
0000
0020
0000
0000
0000
0030
0000
0000
,
0301
0000
0010
0100
0000
0010
0000
0001
,
1000
0000
0010
1000
0001
0000
0000
0100
,
0010
0100
0000
0001
0000
0010
0000
0000
,
0001
0000
1000
0010
0000
1000
0000
0100
,
0010
0000
0000
0000
0001
0100
0001
0000
,
1000
0100
1000
0000
0001
0000
0000
0100
,
0001
0000
0010
0100
0000
0010
0000
0001
,
1000
0000
0000
0010
1000
0000
0000
0100
,
0010
0001
0000
1000
0000
0000
0000
0000
,
1001
0000
0000
0000
1000
0000
0000
0100
,
0100
0000
0010
0000
,
0001
0000
0000
0000
1000
0000
0000
0001
,
0001
0000
0100
0000
,
1001
2000
0000
3020
0000
0230
0000
0000
,
0301
0010
0000
0100
0000
2000
0000
0000
,
3001
1000
0200
0000
0010
0000
0310
0100
,
0010
0000
0001
0000
1000
0000
0010
1000
,
0001
0000
0000
0010
0000
0000
0100
0000
2000
0000
0000
0000
0100
0000
0000
0000
,
3001
1000
0010
0100
0002
0000
0100
0000
,
1003
0000
0010
0100
1000
0000
0001
0010
,
0100
0000
0001
0000
1000
0000
0100
0010
,
0001
2000
0000
3020
0000
2030
0000
0001
,
3001
1000
0100
0020
0000
0230
0000
1000
,
1300
0100
0020
0000
0100
0000
0032
0000
,
1003
0000
0001
0100
0020
1000
0000
1030
,
0001
0000
0000
0100
0000
0000
0010
0000
0200
0000
1000
0000
0000
0000
1300
0000
,
0100
0001
0000
1000
0200
0010
0000
0010
,
0320
0000
0000
0031
0200
0010
0000
0310
,
2000
0000
3002
0000
0103
0001
0000
0001
,
1000
0000
0010
1000
0001
0100
0010
0100
,
0001
0000
0010
0100
1000
0001
0100
0001
,
1000
0000
0010
0100
1000
0100
0010
0100
,
0001
0000
1000
0001
0100
0001
0010
0100
,
1000
0000
0001
0100
0010
0100
0001
0010
,
0100
0000
1000
0001
0200
1000
0000
0310
,
0200
0000
0301
0010
0200
0001
0000
1300
,
0100
0000
0010
0001
0100
0001
0010
0001
,
1000
0000
0010
0000
1000
0001
0100
0000
,
0001
0000
0010
0000
0100
0010
0001
0000
,
1000
0000
0010
0000
0001
0010
1000
0000
,
0100
0000
0010
0000
0001
1000
0010
0000
,
0100
0000
0001
0000
1000
0100
0010
0000
,
0001
0000
0100
0000
0001
0010
0100
0000
,
0010
0000
0001
0000
1000
0001
0100
0000
,
0010
0000
1000
0000
0001
0010
0100
0000
,
2100
0000
0000
3200
0000
0000
0320
0000
,
0032
0000
0000
0203
0000
0000
0320
0000
,
2030
0000
0000
0001
0000
0010
0000
0010
,
0000
0000
0000
0100
0000
0010
0000
0010
,
3020
0000
0000
0001
0000
0100
0000
0100
,
0000
0000
0000
1000
2030
0001
0000
0001
,
0002
0000
0000
0000
,
0000
0000
0000
0000
,
3003
0000
0000
0000
;

//---------------dance-single - ----------------
#NOTES:
     dance-single:
     X-Scale 11:
     Hard:
     8:
     0.444224,0.561240,0.037922,0.538487,0.178231,410.000000,405.000000,5.000000,71.000000,0.000000,0.000000,0.444224,0.561240,0.037922,0.538487,0.178231,410.000000,405.000000,5.000000,71.000000,0.000000,0.000000:
// measure 0
0000
0000
0000
0000
,  // measure 1
0000
0000
0000
0000
,  // measure 2
0000
0000
0000
0000
,  // measure 3
0000
0000
0000
0000
,  // measure 4
0000
0000
0000
0000
,  // measure 5
0000
0000
0000
0000
,  // measure 6
2000
0000
0000
0000
0000
0002
3000
0000
,  // measure 7
0103
0000
0020
0000
0000
0000
0030
0000
0000
0000
1000
0000
0002
0000
0000
2003
,  // measure 8
0000
0000
0000
0000
3020
0000
0000
0000
0100
0000
0000
1000
0000
0000
0100
0000
,  // measure 9
0230
0000
0000
0000
0000
0000
0000
0000
1000
0000
0000
0010
0000
0000
0301
0000
,  // measure 10
0002
0000
0000
0000
0000
0000
0000
0000
1003
0000
0200
0000
0000
2300
0000
0000
,  // measure 11
3002
0000
0000
0000
0000
0000
0000
0000
0103
0000
0000
0100
0000
0000
0100
0000
,  // measure 12
0010
0000
1000
0002
0000
0020
0000
0033
,  // measure 13
0011
0000
0000
0000
0000
0000
1000
0000
0001
0000
0000
0100
0000
0000
0001
0000
,  // measure 14
0020
0000
0000
0000
0000
0000
0000
0000
0100
0000
0000
1000
0000
0000
0100
0000
,  // measure 15
0130
0000
1000
0002
0000
0200
0000
0303
,  // measure 16
0101
0000
0000
0000
0000
0000
0001
0000
1000
0000
0000
0010
0000
0000
1000
0000
,  // measure 17
0100
0000
0001
0000
0100
0000
1000
0000
0001
0000
0000
0001
0000
0000
0001
0000
,  // measure 18
0010
0200
0000
2300
0000
0002
0000
3003
,  // measure 19
1001
0000
0000
0000
1000
0000
0000
0000
0100
0000
0000
0100
0000
0000
0100
0000
,  // measure 20
0010
0000
0001
0000
0000
0000
1000
0000
0001
0000
0000
0001
0000
0000
0001
0000
,  // measure 21
1000
0000
0010
0200
0000
0020
0000
0330
,  // measure 22
1001
0000
0000
0000
1000
0000
0000
0000
0001
0000
0000
0100
0000
0000
0001
0000
,  // measure 23
0010
0100
0010
0002
0000
2003
0000
3002
,  // measure 24
1000
0000
0013
2000
0000
3200
0000
0320
,  // measure 25
0100
0000
0000
0000
0000
0000
0032
0000
1000
0000
0000
0100
0000
0000
1003
0000
,  // measure 26
0001
0000
0100
0000
0001
0000
0000
0000
0001
0000
0000
0100
0000
0000
0001
0000
,  // measure 27
0010
0000
0100
2000
0000
3200
0000
0302
,  // measure 28
0000
0023
0000
2030
0000
3001
0100
0010
,  // measure 29
0001
0010
1000
0001
0100
0010
1000
0100
,  // measure 30
0010
0000
0000
0001
0000
0000
2000
0000
0020
0000
0000
0000
3030
0000
0001
0000
,  // measure 31
0002
0000
0000
1003
2000
0000
3000
0010
,  // measure 32
0100
0000
0000
0000
0000
0002
0000
2000
0000
0000
0000
0000
0003
0000
0100
0000
,  // measure 33
3100
0000
1000
0000
,  // measure 34
1001
0000
0001
0200
1000
0000
0320
0000
,  // measure 35
1030
0200
0010
0000
0302
0000
0203
0000
,  // measure 36
2300
0000
3001
0200
1000
0000
0301
0001
,  // measure 37
0010
0200
1000
0000
0302
0000
0203
0000
,  // measure 38
0310
0000
0001
2000
0010
0000
3002
0100
,  // measure 39
0103
0020
1000
0000
0230
0000
1000
0000
,  // measure 40
0320
0000
1030
2000
0100
0000
3001
0001
,  // measure 41
0200
0000
0320
0000
0031
0010
1000
0000
,  // measure 42
1000
0000
0001
0000
0010
0000
0000
0000
0010
0000
0100
0010
0000
0010
0001
0000
,  // measure 43
1000
0002
0000
1003
0020
0000
0230
0000
,  // measure 44
0301
0000
1000
0000
0010
0000
0000
0000
0100
0000
0001
0100
0000
0100
1000
0000
,  // measure 45
0100
0002
0000
0013
2000
0000
3002
0000
,  // measure 46
0103
0000
0001
0000
1000
0000
0000
0000
0001
0000
1000
0100
0000
0100
0001
0000
,  // measure 47
0100
2000
0000
3001
0200
0000
0302
0000
,  // measure 48
1003
0000
0100
0000
0010
0000
0000
0000
0001
0000
0100
0001
0000
0001
1000
0000
,  // measure 49
0020
0000
0000
0000
2030
0000
0000
0000
3002
0000
0000
0000
1003
0001
1000
0001
,  // measure 50
1000
0000
0100
0000
1000
0000
0001
0000
0010
0000
0100
0000
1000
0000
0001
1000
,  // measure 51
0001
0000
1000
0000
0010
0000
0100
0000
1000
0000
0100
0000
0001
0000
0100
0001
,  // measure 52
1000
0000
0010
0000
1000
0000
0001
0000
0010
0000
0100
0000
1000
0000
0010
1000
,  // measure 53
0001
0000
1000
0000
0100
0000
0001
0000
0100
0000
1000
0000
0001
0000
1000
0010
,  // measure 54
0100
0000
0001
0000
1000
0000
0010
0000
0100
0000
1000
0000
0100
0000
0001
1000
,  // measure 55
0010
0000
1000
0000
0001
0000
0010
0000
1000
0000
0010
0000
0100
0000
1000
0100
,  // measure 56
0010
0000
0001
0000
1000
0000
0001
0000
0100
0000
0010
0000
0100
0000
0001
1000
,  // measure 57
0010
1000
0001
0100
1000
0001
0100
0010
,  // measure 58
0001
0000
0000
0000
0010
0000
0100
0010
0001
0000
1000
0000
0000
0000
1000
0000
,  // measure 59
0010
0000
0000
0000
0100
0000
0010
0100
0001
0000
1000
0000
0000
0000
1000
0000
,  // measure 60
0010
0000
0000
0000
1000
0000
0100
1000
0001
0000
0010
0000
0000
0000
0010
0000
,  // measure 61
0100
0000
0000
0000
1000
0000
0001
1000
0010
0000
0100
0000
0000
0000
0100
0000
,  // measure 62
0001
0000
0000
0000
1000
0000
0100
0010
0001
0000
0100
0000
0000
0000
0100
0000
,  // measure 63
0001
0000
0000
0000
1000
0000
0100
1000
0001
0000
0010
0000
0000
0000
0010
0000
,  // measure 64
0100
0000
0000
0000
0010
0000
0001
1000
0010
0000
0100
0000
0000
0000
0100
0000
,  // measure 65
0001
0000
1000
0001
0100
1000
0100
0001
,  // measure 66
1000
0000
0000
0000
0010
0000
1000
0000
0001
0000
0100
0010
1000
0000
0100
0000
,  // measure 67
0001
0000
0000
0000
1000
0000
0010
0000
0001
0000
1000
0001
1000
0000
0010
0000
,  // measure 68
0100
0000
0000
0000
0100
0000
0001
0000
1000
0000
0100
1000
0001
0000
1000
0000
,  // measure 69
0010
0000
0000
0000
0100
0000
0001
0000
1000
0000
0001
1000
0010
0000
1000
0000
,  // measure 70
0001
0000
0000
0000
1000
0000
0100
0000
0010
0000
0001
0010
0001
0000
1000
0000
,  // measure 71
0001
0000
0000
0000
0100
0000
0001
0000
1000
0000
0010
0100
0001
0000
1000
0000
,  // measure 72
0002
0000
0000
0000
,  // measure 73
0020
0000
0000
0000
,  // measure 74
0033
0000
0000
0000
;
