#VERSION:0.83;
#TITLE:Hurt ft. Frida Sundemo;
#SUBTITLE:;
#ARTIST:NERVO;
#TITLETRANSLIT:;
#SUBTITLETRANSLIT:;
#ARTISTTRANSLIT:;
#GENRE:Commercial House;
#ORIGIN:;
#CREDIT:;
#BANNER:Hurt ft. Frida Sundemo-bn.png;
#BACKGROUND:Hurt ft. Frida Sundemo-bg.png;
#PREVIEWVID:;
#JACKET:Hurt ft. Frida Sundemo-jacket.png;
#CDIMAGE:;
#DISCIMAGE:;
#LYRICSPATH:;
#CDTITLE:cdtitle.png;
#MUSIC:Hurt ft. Frida Sundemo.ogg;
#OFFSET:-0.005000;
#SAMPLESTART:67.504997;
#SAMPLELENGTH:15.000000;
#SELECTABLE:YES;
#BPMS:0.000=128.000;
#STOPS:;
#DELAYS:;
#WARPS:;
#TIMESIGNATURES:0.000=4=4;
#TICKCOUNTS:0.000=4;
#COMBOS:0.000=1;
#SPEEDS:0.000=1.000=0.000=0;
#SCROLLS:0.000=1.000;
#FAKES:;
#LABELS:0.000=Song Start;
#BGCHANGES:;
#KEYSOUNDS:;
#ATTACKS:
;

//---------------dance-single - ----------------
#NOTEDATA:;
#CHARTNAME:X-Scale 11;
#STEPSTYPE:dance-single;
#DESCRIPTION:;
#CHARTSTYLE:;
#DIFFICULTY:Hard;
#METER:8;
#RADARVALUES:0.393538,0.487762,0.128358,0.325833,0.049369,279.000000,266.000000,13.000000,33.000000,0.000000,0.000000,0.000000,0.000000,0.000000,0.393538,0.487762,0.128358,0.325833,0.049369,279.000000,266.000000,13.000000,33.000000,0.000000,0.000000,0.000000,0.000000,0.000000;
#CREDIT:;
#NOTES:
// measure 0
0000
0000
0000
0000
,  // measure 1
0000
0000
0000
0000
,  // measure 2
0000
0000
0000
0000
,  // measure 3
0000
0000
0000
0000
,  // measure 4
1001
0000
0000
0100
0001
0010
0200
0000
,  // measure 5
0000
0000
0300
1000
0020
0000
2030
0000
,  // measure 6
0000
0000
3000
0000
,  // measure 7
0001
0000
0000
0000
0010
0100
0010
0000
,  // measure 8
0001
0000
0000
1000
0010
1000
0002
0000
,  // measure 9
0000
0000
0003
0010
0200
0000
2300
0000
,  // measure 10
3020
0000
0000
0230
0000
0000
0000
0000
,  // measure 11
0301
0000
0000
0000
1000
0001
1000
0000
,  // measure 12
0100
0000
0000
1000
0100
0010
0002
0000
,  // measure 13
1000
0000
0003
0010
0001
1000
0020
0000
,  // measure 14
0100
0000
0030
0100
0001
0010
0200
0000
,  // measure 15
0001
0000
0300
1000
0100
0010
0002
0000
,  // measure 16
1000
0000
0003
1000
0001
0010
0200
0000
,  // measure 17
1000
0000
0300
1000
0002
0000
0023
0000
,  // measure 18
1000
0100
0031
0010
,  // measure 19
0001
0010
1000
0010
0100
1000
0001
0000
,  // measure 20
1001
0000
1000
0000
0001
0100
0001
0000
,  // measure 21
1000
0000
0000
0000
0100
0000
0000
0000
0010
0000
0001
0000
0010
0000
0100
0010
,  // measure 22
0100
0000
1000
0000
0001
0100
0001
0000
,  // measure 23
1000
0000
0010
0000
0100
0010
0200
0000
,  // measure 24
1000
0000
0010
0300
0100
0010
0100
0000
,  // measure 25
0001
0000
0000
0000
1000
0000
0000
0000
0010
0000
1000
0000
0010
0000
0100
0010
,  // measure 26
0100
0000
0001
0000
1000
0010
1000
0000
,  // measure 27
0001
0000
0010
0000
0100
0010
0200
0000
,  // measure 28
1000
0000
0010
0010
0310
0000
0100
1000
,  // measure 29
0100
0000
1000
0001
1000
0000
0010
0100
,  // measure 30
0010
0000
1000
0100
1000
0000
0001
0010
,  // measure 31
1000
0010
0100
1000
0001
1000
0010
0000
,  // measure 32
1000
0100
0001
0100
0010
0001
1000
0001
,  // measure 33
0010
1000
0010
0100
1000
0001
0100
0010
,  // measure 34
0001
0010
0200
0000
0001
0000
0320
0000
,  // measure 35
1030
0010
0001
0010
0100
0010
1000
0000
,  // measure 36
1001
0000
1000
0100
1000
0000
0001
0100
,  // measure 37
0001
0000
0000
0010
0100
0000
0010
0000
0001
0000
0000
0000
1000
0000
0001
0000
,  // measure 38
1000
0000
0000
0010
0100
0000
0010
0000
0001
0000
0000
0000
0001
0000
0010
0000
,  // measure 39
1000
0100
0010
0100
0001
0100
2000
0000
,  // measure 40
0000
3000
1100
1000
0001
1000
0100
1000
,  // measure 41
0001
0000
0000
0010
0100
0000
0010
0000
0001
0000
0000
0000
1000
0000
0001
0000
,  // measure 42
1000
0000
0000
0010
0100
0000
0010
0000
0001
0000
0000
0000
0001
0000
0010
0000
,  // measure 43
1000
0100
0001
0100
1000
0100
0020
0000
,  // measure 44
0001
0030
0101
0001
1000
0000
0100
1000
,  // measure 45
0001
0000
0000
0010
0001
0000
1000
0000
0001
0000
0000
0000
0010
0000
0100
0000
,  // measure 46
1000
0000
0000
0010
1000
0000
0001
0000
0010
0000
0000
0000
0100
0000
0010
0000
,  // measure 47
0001
0000
1000
0000
0100
0000
0001
0000
0100
0000
0010
0000
0001
0010
0000
0000
,  // measure 48
0011
0000
1001
1000
0001
0100
0010
0100
,  // measure 49
0001
0000
0000
1000
0001
0000
1000
0000
0010
0000
0100
0000
0010
0000
1000
0000
,  // measure 50
2002
0000
3003
0220
0000
0330
2020
3030
,  // measure 51
0022
0000
0033
0202
0000
0303
0220
0000
,  // measure 52
0330
0000
0000
0000
;

//---------------dance-single - ----------------
#NOTEDATA:;
#CHARTNAME:X-Scale 7;
#STEPSTYPE:dance-single;
#DESCRIPTION:;
#CHARTSTYLE:;
#DIFFICULTY:Medium;
#METER:5;
#RADARVALUES:0.332885,0.459868,0.128358,0.217222,0.009874,236.000000,223.000000,13.000000,22.000000,0.000000,0.000000,0.000000,0.000000,0.000000,0.332885,0.459868,0.128358,0.217222,0.009874,236.000000,223.000000,13.000000,22.000000,0.000000,0.000000,0.000000,0.000000,0.000000;
#CREDIT:;
#NOTES:
// measure 0
0000
0000
0000
0000
,  // measure 1
0000
0000
0000
0000
,  // measure 2
0000
0000
0000
0000
,  // measure 3
0000
0000
0000
0000
,  // measure 4
1100
0000
0000
1000
0000
0000
0000
0000
,  // measure 5
0001
0000
0000
0010
0200
0000
0320
0000
,  // measure 6
0001
0030
0000
0000
,  // measure 7
1000
0000
0000
0000
0010
1000
0010
0000
,  // measure 8
1000
0000
0000
0001
0000
0000
0000
0000
,  // measure 9
0010
0000
0000
0100
0020
0000
0230
0000
,  // measure 10
2300
0000
0000
3002
0000
0000
0000
0000
,  // measure 11
0013
0000
0000
0000
0001
1000
0001
0000
,  // measure 12
0100
0000
0000
0010
0100
0001
0010
0000
,  // measure 13
0000
0000
0000
0100
0010
0001
1000
0000
,  // measure 14
0000
0000
0000
0010
1000
0001
0010
0000
,  // measure 15
0000
0000
0000
0100
0010
0001
1000
0000
,  // measure 16
0000
0000
0000
0010
0100
0001
0010
0000
,  // measure 17
0000
0000
0000
0100
2000
0000
3002
0000
,  // measure 18
0100
0003
0001
0000
,  // measure 19
1000
0000
0000
0000
,  // measure 20
1001
0000
1000
0010
0000
0000
1000
0001
,  // measure 21
0010
0000
0100
0010
0000
0010
0100
1000
,  // measure 22
0001
0000
0010
0001
0000
0000
0001
0010
,  // measure 23
1000
0010
0100
1000
0001
0010
0002
0000
,  // measure 24
0000
0000
1003
0000
1000
0100
2000
0000
,  // measure 25
0001
3000
1000
0100
,  // measure 26
0010
0100
2000
0000
0010
0000
3002
0000
,  // measure 27
0003
0010
0100
1000
0010
0100
0001
0000
,  // measure 28
0011
0001
1000
0010
,  // measure 29
1000
0100
0010
0100
,  // measure 30
1000
0001
0100
0001
,  // measure 31
1000
0001
0100
0001
,  // measure 32
0010
0000
0100
1000
0001
1000
0200
0000
,  // measure 33
0010
0000
1300
0100
0010
0000
0001
0000
,  // measure 34
1000
0001
0020
0000
0000
0000
0230
0000
,  // measure 35
2300
0000
0001
3000
1000
0001
0010
0000
,  // measure 36
0011
0000
1001
1000
0100
0000
0010
0100
,  // measure 37
1000
0000
0001
0100
0010
0000
1000
0001
,  // measure 38
0100
0000
0010
0100
0001
0000
1000
0100
,  // measure 39
0001
0100
0010
0001
1000
0010
2000
0000
,  // measure 40
0000
0000
3001
1000
0100
1000
0002
0000
,  // measure 41
0010
0000
1003
0001
0100
0000
0010
0100
,  // measure 42
0001
0010
0200
0000
0001
0000
2300
0000
,  // measure 43
3001
0010
1000
0010
0001
0010
0200
0000
,  // measure 44
1000
0300
1100
0100
0010
0000
0100
0010
,  // measure 45
0001
0000
0000
1000
0100
0000
1000
0000
0001
0000
0010
0000
0001
0000
1000
0000
,  // measure 46
0010
0000
0100
0001
0010
0000
0100
1000
,  // measure 47
0010
0001
0010
1000
0100
0010
0002
0000
,  // measure 48
1000
0003
1001
0001
0010
1000
0010
0100
,  // measure 49
1000
0000
0000
0100
0010
0000
0100
0000
1000
0000
0001
0000
0100
0000
0001
0000
,  // measure 50
0101
0000
0000
1100
0000
0000
1001
0000
,  // measure 51
0101
0000
0000
0110
0000
0000
1001
0000
;

//---------------dance-single - ----------------
#NOTEDATA:;
#CHARTNAME:X-Scale 5;
#STEPSTYPE:dance-single;
#DESCRIPTION:;
#CHARTSTYLE:;
#DIFFICULTY:Easy;
#METER:3;
#RADARVALUES:0.235559,0.308060,0.049369,0.108611,0.000000,167.000000,162.000000,5.000000,11.000000,0.000000,0.000000,0.000000,0.000000,0.000000,0.235559,0.308060,0.049369,0.108611,0.000000,167.000000,162.000000,5.000000,11.000000,0.000000,0.000000,0.000000,0.000000,0.000000;
#CREDIT:;
#NOTES:
0000
0000
0000
0000
,
0000
0000
0000
0000
,
0000
0000
0000
0000
,
0000
0000
0000
0000
,
0001
0000
0000
0000
,
0100
0000
0000
0000
,
0010
0000
0000
0000
,
1000
0000
0001
0000
,
1000
0000
0000
0000
,
0100
0000
0000
0000
,
0010
0000
0000
0000
,
0001
0000
1000
0000
,
0001
0000
0000
0100
0000
0000
0000
0000
,
0010
0000
0000
1000
0000
0000
0000
0000
,
0001
0000
0000
0010
0000
0000
0000
0000
,
0100
0000
1000
0100
,
1000
0000
0000
0100
0000
0000
0000
0000
,
0010
0000
0002
2003
,
0000
3000
0000
0000
,
0010
0000
0000
0000
,
1001
0000
1000
0100
0000
0000
0010
0001
,
0000
0000
1000
0010
0000
0000
0100
0001
,
1000
0000
0010
1000
0000
0000
0100
0010
,
0001
0000
1000
0000
0001
0010
0001
0000
,
0010
0000
0100
1000
0000
0000
0001
0100
,
0000
0000
0010
1000
0000
0000
0100
0010
,
0001
0000
1000
0100
0000
0000
0010
0100
,
1000
0000
0000
0001
0000
0000
0010
0000
,
0011
0001
1000
0010
,
1000
0001
0010
0100
,
0010
0001
1000
0100
,
1000
0001
0010
0100
,
1000
0001
1000
0100
,
0010
0100
1000
0001
,
0010
0100
2000
0000
0000
0000
3002
0000
,
0013
0000
0000
0001
0000
0000
1000
0000
,
1001
0010
0001
1000
,
0010
1000
0001
0010
,
0100
0010
0001
0010
,
0100
0000
1000
0000
0001
0100
0001
0000
,
0010
0000
0100
0000
1000
0100
1000
0000
,
0001
0100
0010
0100
,
0001
0010
0002
0000
0100
0000
2003
0000
,
3100
0000
0010
0000
0100
1000
0100
0000
,
1100
1001
0001
0010
,
0001
1000
0010
1000
,
0001
0100
0010
0100
,
0001
0000
0010
0000
0100
1000
0100
0000
,
0010
0000
0001
0000
1000
0001
2000
0000
,
0100
0000
3001
0000
0010
0000
0100
1000
,
0001
1000
0020
0000
0000
0000
0230
0000
,
0302
0000
0000
0010
0000
0000
2000
0000
,
3003
0000
0000
0000
;

//---------------dance-single - ----------------
#NOTEDATA:;
#CHARTNAME:X-Scale 1;
#STEPSTYPE:dance-single;
#DESCRIPTION:;
#CHARTSTYLE:;
#DIFFICULTY:Beginner;
#METER:1;
#RADARVALUES:0.108611,0.153289,0.019747,0.000000,0.000000,77.000000,75.000000,2.000000,0.000000,0.000000,0.000000,0.000000,0.000000,0.000000,0.108611,0.153289,0.019747,0.000000,0.000000,77.000000,75.000000,2.000000,0.000000,0.000000,0.000000,0.000000,0.000000,0.000000;
#CREDIT:;
#NOTES:
0000
0000
0000
0000
,
0000
0000
0000
0000
,
0000
0000
0000
0000
,
0000
0000
0000
0000
,
1000
0000
0000
0000
,
0100
0000
0000
0000
,
0010
0000
0000
0000
,
0001
0000
0000
0000
,
1000
0000
0000
0000
,
0100
0000
0000
0000
,
0010
0000
0000
0000
,
0001
0000
0000
0000
,
1000
0000
0000
0000
,
0010
0000
0000
0000
,
0100
0000
0000
0000
,
0001
0000
0000
0000
,
1000
0000
0000
0000
,
0010
0000
0000
0000
,
0100
0000
0000
0000
,
0001
0000
0000
0000
,
0000
1000
0000
0100
,
0000
1000
0000
0100
,
0000
0010
0000
0001
,
0000
0010
0000
0001
,
0000
0100
0000
0010
,
0000
0100
0000
0010
,
0000
1000
0000
0001
,
0000
1000
0000
0001
,
1001
0000
0000
0000
,
0100
0000
0000
0000
,
1000
0000
0001
0000
,
0100
0000
0001
0000
,
1000
0000
0100
0000
,
0010
0000
0001
0000
,
1000
0000
0000
0000
,
0001
0000
0000
0000
,
1001
0000
1000
0000
,
0100
0000
1000
0000
,
0001
0000
0100
0000
,
0001
0000
0010
0000
,
0100
0000
0010
0000
,
0001
0000
1000
0000
,
0010
0000
1000
0000
,
0001
0000
0010
0000
,
0100
0000
0010
0000
,
0001
0000
1000
0000
,
0010
0000
1000
0000
,
0001
0000
0100
0000
,
0010
0000
0100
0000
,
0001
0000
0010
0000
,
0001
0000
0000
0000
,
1000
0000
0000
0001
;
