#TITLE:Hurricane Venus;
#SUBTITLE:;
#ARTIST:BoA;
#TITLETRANSLIT:;
#SUBTITLETRANSLIT:;
#ARTISTTRANSLIT:;
#GENRE:K-Electropop;
#CREDIT:;
#BANNER:Hurricane Venus-bn.png;
#BACKGROUND:Hurricane Venus-bg.png;
#LYRICSPATH:;
#CDTITLE:cdtitle.png;
#MUSIC:Hurricane Venus.ogg;
#OFFSET:-0.005000;
#SAMPLESTART:47.147999;
#SAMPLELENGTH:19.250000;
#SELECTABLE:YES;
#BPMS:0.000000=112.000000
;
#STOPS:
;
#BGCHANGES:
;
#KEYSOUNDS:;
#ATTACKS:;

//---------------dance-single - ----------------
#NOTES:
     dance-single:
     X-Scale 11:
     Hard:
     8:
     0.531634,0.651252,0.277218,0.798051,0.411626,443.000000,410.000000,33.000000,95.000000,20.000000,0.000000,0.531634,0.651252,0.277218,0.798051,0.411626,443.000000,410.000000,33.000000,95.000000,20.000000,0.000000:
// measure 0
0000
0000
0000
0000
,  // measure 1
0000
0000
0000
0000
,  // measure 2
1100
0000
0000
0011
0000
0000
1010
0000
0000
0011
0000
0000
1000
0000
0100
0000
,  // measure 3
1100
0000
0000
0101
0000
0000
0110
0000
2000
0000
0000
3000
0200
0000
0000
0300
,  // measure 4
1100
0000
0000
0101
0000
0000
0011
0000
0000
1001
0000
0000
0100
0000
0010
0000
,  // measure 5
0110
0000
0000
0000
0000
0000
0000
0000
0000
1001
0000
0000
0000
0000
0000
0000
0000
0000
1100
0000
0000
0000
0000
0000
0100
0000
0000
0000
0000
0000
1000
0000
0100
0000
1000
0000
0100
0000
0000
0000
0000
0000
0000
0000
0000
0000
0000
0000
,  // measure 6
1001
1000
0010
1000
0100
0010
0001
0100
,  // measure 7
0001
1000
0100
0001
0100
0010
0001
0100
,  // measure 8
0001
0010
0100
0010
0001
1000
0100
1000
,  // measure 9
0010
1000
0100
0010
0001
0100
1000
0100
,  // measure 10
0002
0000
0000
0000
0023
0000
0000
0000
0130
0000
0010
0000
0100
0000
1000
0100
,  // measure 11
1000
0000
0010
0000
0001
0000
0010
0000
1000
0010
1000
0000
0100
0000
0010
0000
,  // measure 12
0001
0000
0000
0M00
0000
0000
1000
0000
0000
0M00
0000
0000
0001
0000
0000
1M00
0010
0000
0000
0010
0000
0M00
0000
0000
,  // measure 13
0200
0320
0032
0023
0230
0302
2003
0000
,  // measure 14
3100
0000
1000
0100
0010
0000
0010
0100
1000
0000
0001
0000
0010
0000
0001
0000
,  // measure 15
0100
0010
0100
1000
0100
0002
1003
0002
,  // measure 16
0013
0000
0100
0100
0100
0000
0100
0000
1000
0000
0100
0000
1000
0000
0001
0000
,  // measure 17
0010
1000
0001
0100
1000
0010
0100
0001
,  // measure 18
1000
0000
0001
0010
1000
0000
0001
0100
1000
0000
0010
0000
0100
0000
0001
0000
,  // measure 19
1000
0000
0100
0000
0020
0000
0000
0000
103M
0000
0100
0000
0020
0001
0001
0001
,  // measure 20
0031
00M0
1000
00M0
0100
00M0
1000
00M0
,  // measure 21
0001
0020
0230
2300
3002
0203
0320
0000
,  // measure 22
2030
3000
0000
2000
3010
0000
2000
3000
0001
2000
3000
0000
0100
0000
0010
0000
,  // measure 23
0002
0003
0000
0002
0103
0000
0002
0003
0020
0000
0000
0000
0230
0000
0000
0000
,  // measure 24
2300
3000
0000
2000
3100
0000
2000
3000
0001
2000
3000
0000
0010
0000
0100
0000
,  // measure 25
0002
0003
0000
0002
0013
0000
0002
0003
0020
0000
0000
0000
0230
0000
0000
0000
,  // measure 26
1300
0100
0010
0000
0100
0010
0001
0000
1000
0000
0010
0000
0200
0000
0000
0000
,  // measure 27
0301
0010
0100
0000
0010
0100
1000
0000
0001
0000
0100
0000
0020
0000
0100
0000
,  // measure 28
0230
0000
0301
0100
0200
0000
0320
0000
,  // measure 29
1030
0000
0000
0010
0100
0000
000M
0100
1000
0000
0000
0001
1000
0000
0000
0000
,  // measure 30
0020
0000
0000
0M30
0000
0000
0020
0000
0000
0M30
0000
0000
0010
0000
0010
0000
0010
0000
0400
0000
0000
0000
0000
0000
,  // measure 31
0301
0000
0000
1001
0000
1000
1100
0000
1001
0000
0000
0101
0000
0100
0110
0000
,  // measure 32
1001
0000
0000
0000
0000
0000
0000
0000
0000
0101
0000
0000
0000
0000
0000
0001
0000
0000
0011
0000
0000
0000
0000
0000
1000
0000
0000
0000
0100
0000
0000
0000
0010
0000
0000
0000
0001
0000
0000
0000
0100
0000
0000
0000
0010
0000
0000
0000
,  // measure 33
1000
0000
0000
1010
0000
0001
0011
0000
0110
0000
0000
1001
0000
1000
1100
0000
,  // measure 34
1001
0000
0000
0000
0000
0000
0000
0000
0000
0101
0000
0000
0000
0000
0000
0100
0000
0000
0110
0000
0000
0000
0000
0000
1000
0000
0000
0000
0100
0000
0000
0000
0010
0000
0000
0000
0001
0000
0000
0000
0100
0000
0000
0000
0010
0000
0000
0000
,  // measure 35
1000
0000
0010
1000
0010
0000
0100
0000
0001
0000
0100
0010
0000
0000
1000
0000
,  // measure 36
0001
0000
0000
0100
0000
0000
0001
0000
0000
0010
0000
0000
0001
0000
0000
0100
0000
0000
0001
0000
0000
0000
0000
0000
1000
0000
0000
0000
0100
0000
0000
0000
1000
0000
0000
0000
0010
0000
0000
0000
0010
0000
0000
0000
0010
0000
0000
0000
,  // measure 37
1000
0000
1000
0001
1000
0000
0100
0000
1000
0000
0010
0100
0000
0000
0010
0000
,  // measure 38
1000
0000
0000
0100
0000
0000
1000
0000
0000
0001
0000
0000
1000
0000
0000
0100
0000
0000
1000
0000
0000
0000
0000
0000
0001
0000
0000
0000
0010
0000
0000
0000
0001
0000
0000
0000
1000
0000
0000
0000
1000
0000
0000
0000
1000
0000
0000
0000
,  // measure 39
2000
0M00
00M0
000M
0M00
00M0
000M
0M00
,  // measure 40
30M0
0002
0023
2030
3002
0203
2300
0000
,  // measure 41
3020
0000
0000
0001
0000
0000
0100
0000
0000
1000
0000
0000
0000
0000
0000
0000
,  // measure 42
0001
0000
0000
0001
0000
0000
0100
0000
0000
1000
0000
0000
0030
0000
0000
0000
,  // measure 43
2001
0000
3000
2000
0100
3000
2000
0000
3010
2000
0000
3100
0010
0000
0001
0000
,  // measure 44
0200
0000
0300
0200
1000
0300
0200
0000
0302
0000
0100
0000
2003
0000
0010
0000
,  // measure 45
3002
0000
0003
0002
1000
0003
0002
0000
0013
0002
0000
0003
0100
0000
0010
0000
,  // measure 46
2000
0000
3000
2000
0100
3000
2000
0000
3002
0000
0010
0000
2003
0000
0100
0000
,  // measure 47
3020
0000
0030
0020
0001
0030
0020
0000
0130
0020
0000
0030
1000
0000
0010
0000
,  // measure 48
0200
0000
0300
0200
0010
0300
0200
0000
0302
0000
0010
0000
2003
0000
0100
0000
,  // measure 49
3002
0000
0003
0002
0100
0003
0002
0000
1003
0002
0000
0103
0001
0000
1000
0000
,  // measure 50
0200
0000
0300
0200
0010
0300
0200
0000
2300
0000
0010
0000
3002
0000
0100
0000
,  // measure 51
1003
0100
0010
0000
0100
0010
0001
0000
1000
0000
0010
0000
0200
0000
0300
0000
,  // measure 52
0001
0010
0100
0000
0010
0100
1000
0000
0100
0000
0010
0000
0001
0000
1000
0000
,  // measure 53
0010
0000
0000
0000
0101
0000
0001
0000
0010
0000
0000
0000
0100
0010
0100
0000
,  // measure 54
2000
0000
0000
3100
2000
0000
0000
3001
0020
0000
0000
0030
0100
0020
0000
0000
,  // measure 55
0000
0000
0000
0030
0000
0000
0000
0000
;

//---------------dance-single - ----------------
#NOTES:
     dance-single:
     X-Scale 10:
     Medium:
     7:
     0.501632,0.604734,0.571237,0.310820,0.294019,418.000000,350.000000,68.000000,37.000000,0.000000,0.000000,0.501632,0.604734,0.571237,0.310820,0.294019,418.000000,350.000000,68.000000,37.000000,0.000000,0.000000:
// measure 0
0000
0000
0000
0000
,  // measure 1
0000
0000
0000
0000
,  // measure 2
1010
0000
0000
1010
0000
0000
1010
0000
0000
1010
0000
0000
0001
0000
0010
0000
,  // measure 3
0011
0000
0000
0011
0000
0000
0011
0000
0002
0000
0000
0003
2000
0000
0000
3000
,  // measure 4
1001
0000
0000
1001
0000
0000
1001
0000
0000
1001
0000
0000
0001
0000
0100
0000
,  // measure 5
0110
0000
0000
0110
0000
0000
0110
0000
0002
0000
0000
0003
2000
0000
0000
3000
,  // measure 6
1200
0000
0001
0000
1300
0100
0010
0100
,  // measure 7
0010
0001
1000
0001
1000
0010
0200
0000
,  // measure 8
0302
0000
1000
0000
0013
0001
1000
0010
,  // measure 9
1000
0010
0100
0001
0010
0100
2000
3001
,  // measure 10
1000
0000
0100
0000
1000
0100
0010
0000
,  // measure 11
0100
0010
0001
1000
0001
0100
0010
1000
,  // measure 12
0001
0100
0001
0100
0010
1000
0010
1000
,  // measure 13
0100
0010
0100
0010
0001
1000
0200
0000
,  // measure 14
1300
0100
0001
0100
1000
0100
0010
0001
,  // measure 15
1000
0010
0100
0010
1000
0100
0000
0010
,  // measure 16
0001
0000
1000
0001
1000
0000
1000
0000
0010
0000
0100
0000
1000
0000
0100
0000
,  // measure 17
0010
1000
0001
1000
0100
0001
0100
1000
,  // measure 18
0002
0100
1000
0013
,  // measure 19
0001
0010
1000
0000
0001
0100
1000
0000
,  // measure 20
0001
0010
0001
0010
0100
1000
0100
1000
,  // measure 21
1100
0000
1001
0000
,  // measure 22
0101
0000
0000
0110
0000
0000
1010
0000
0000
1100
0000
0000
1000
0000
0100
0000
,  // measure 23
1010
0000
0000
1010
0000
0000
1010
0000
0002
0000
0000
0003
0020
0000
0000
0030
,  // measure 24
0011
0000
0000
1001
0000
0000
1010
0000
0000
0110
0000
0000
1000
0000
0100
0000
,  // measure 25
1010
0000
0000
1010
0000
0000
1010
0000
0002
0000
0000
0003
0020
0000
0000
0030
,  // measure 26
0001
0010
0001
0000
0010
0001
0010
0000
0001
0000
1000
0000
0100
0000
0000
0000
,  // measure 27
1000
0010
1000
0000
0010
1000
0010
0000
0100
0000
0010
0000
1000
0000
0100
0000
,  // measure 28
0010
0000
0100
0010
0001
0000
2000
0000
,  // measure 29
3001
0000
0000
0010
0001
0000
0000
0010
0001
0000
0000
0010
0001
0000
0000
0000
,  // measure 30
1000
0000
0000
0000
0000
0000
0000
0000
0000
0000
0000
0000
1000
0000
0000
0000
0000
0000
0000
0000
0000
0000
0000
0000
1000
0000
0000
0000
0010
0000
0000
0000
1000
0000
0000
0000
0020
0000
0000
0000
0000
0000
0000
0000
0000
0030
0000
0000
,  // measure 31
0110
0000
0000
1001
0000
0000
0101
0000
0101
0000
0000
0110
0000
0000
1010
0000
,  // measure 32
1010
0000
0000
0000
0000
0000
0000
0000
0000
1100
0000
0000
0000
0000
0000
0000
0000
0000
1001
0000
0000
0000
0000
0000
0001
0000
0000
0000
0100
0000
0000
0000
0001
0000
0000
0000
1000
0000
0000
0000
0001
0000
0000
0000
0100
0000
0000
0000
,  // measure 33
0101
0000
0000
1001
0000
0000
1100
0000
1100
0000
0000
0110
0000
0000
0101
0000
,  // measure 34
0101
0000
0000
0000
0000
0000
0000
0000
0000
0110
0000
0000
0000
0000
0000
0000
0000
0000
1001
0000
0000
0000
0000
0000
1000
0000
0000
0000
0100
0000
0000
0000
1000
0000
0000
0000
0001
0000
0000
0000
1000
0000
0000
0000
0100
0000
0000
0000
,  // measure 35
2000
0000
3000
0000
0200
0000
0300
0000
1000
0000
0001
0200
0000
0300
0010
0000
,  // measure 36
0110
0000
0000
0000
0000
0000
0000
0000
0000
1001
0000
0000
0000
0000
0000
0000
0000
0000
1100
0000
0000
0000
0000
0000
0100
0000
0000
0000
0010
0000
0000
0000
0001
0000
0000
0000
1000
0000
0000
0000
0001
0000
0000
0000
0010
0000
0000
0000
,  // measure 37
0200
0000
0300
0000
2000
0000
3000
0000
0001
0000
0100
0020
0000
0030
1000
0000
,  // measure 38
1010
0000
0000
0000
0000
0000
0000
0000
0000
0110
0000
0000
0000
0000
0000
0000
0000
0000
0101
0000
0000
0000
0000
0000
0001
0000
0000
0000
0100
0000
0000
0000
0010
0000
0000
0000
0100
0000
0000
0000
0001
0000
0000
0000
1000
0000
0000
0000
,  // measure 39
0001
1000
0001
1000
0100
0010
0100
0010
,  // measure 40
0001
0100
0001
0100
0010
1000
0200
0000
,  // measure 41
0320
0000
0000
0100
0000
0000
0100
0000
0000
0100
0000
0000
0000
0000
0000
0000
,  // measure 42
0001
0000
0000
0001
0000
0000
0001
0000
0000
0001
0000
0000
0030
0000
0000
0000
,  // measure 43
1001
0000
0000
1000
0100
0000
1000
0000
0002
0000
0000
0003
1000
0000
0100
0000
,  // measure 44
1010
0000
0000
1010
0000
0000
1010
0000
0002
0000
0000
0003
0020
0000
0000
0030
,  // measure 45
0100
0000
0000
0010
0100
0000
1000
0000
0000
0001
0000
0000
1000
0000
0100
0000
,  // measure 46
1010
0000
0000
1010
0000
0000
1010
0000
0002
0000
0000
0003
0020
0000
0000
0030
,  // measure 47
0100
0000
0000
1000
0100
0000
1000
0000
0000
0001
0000
0000
0010
0000
0100
0000
,  // measure 48
1010
0000
0000
1010
0000
0000
1010
0000
0002
0000
0000
0003
0020
0000
0000
0030
,  // measure 49
0001
0000
0000
1000
0010
0000
1000
0000
0000
0100
0000
0000
0010
0000
0100
0000
,  // measure 50
1010
0000
0000
1010
0000
0000
1010
0000
0002
0000
0000
0003
0020
0000
0000
0030
,  // measure 51
0001
0010
0001
0000
0010
0001
0010
0000
0001
0000
1000
0000
0100
0000
0000
0000
,  // measure 52
1000
0010
1000
0000
0010
1000
0010
0000
0100
0000
0010
0000
1000
0000
0001
0000
,  // measure 53
0020
0000
0130
1000
0002
0000
2003
0000
,  // measure 54
3010
0000
0000
0100
0010
0000
0000
0100
0010
0000
0000
0000
1000
0002
0000
0000
,  // measure 55
0000
0000
0000
0003
0000
0000
0000
0000
;

//---------------dance-single - ----------------
#NOTES:
     dance-single:
     X-Scale 5:
     Easy:
     3:
     0.282018,0.362903,0.109207,0.226815,0.000000,235.000000,222.000000,13.000000,27.000000,0.000000,0.000000,0.282018,0.362903,0.109207,0.226815,0.000000,235.000000,222.000000,13.000000,27.000000,0.000000,0.000000:
0000
0000
0000
0000
,
0000
0000
0000
0000
,
1100
0000
0000
1001
0000
0000
0001
0000
,
0101
0000
0010
0100
,
0110
0000
0000
1001
0000
0000
1000
0000
,
1010
0000
0001
0010
,
0011
0001
1000
0001
,
1000
0000
0100
0000
0010
0100
0010
0000
,
0001
0100
0001
0100
,
0010
0000
1000
0000
0010
1000
0010
0000
,
0200
0000
0302
0000
1003
0100
0020
0000
,
0031
0000
1000
0000
0010
1000
0010
1000
,
0001
0010
0001
0010
,
0001
0010
0001
0000
,
1001
1000
0001
1000
,
0001
0000
0010
0000
0001
0010
0000
0001
,
1000
0000
0010
0000
1000
0000
0010
0100
,
0010
0000
1000
0000
0100
1000
0001
1000
,
0200
0000
0320
0000
0032
0000
1003
0001
,
0000
1000
0200
0000
0300
1000
0200
0000
,
0310
0100
0010
0100
,
1100
0000
1001
0000
,
0101
0000
0100
0000
0001
0000
0100
0010
,
1000
0001
2000
3200
,
0310
0000
0100
0000
0010
0000
0001
0010
,
0100
0010
0200
2300
,
3001
1000
0001
1000
0001
0010
0200
0000
,
0310
0100
0010
0100
1000
0010
0100
0001
,
1000
0000
0001
1000
0001
0000
0010
0000
,
0001
0001
0001
2000
,
3100
0100
0100
0020
,
0031
0000
0000
1000
0001
0000
0000
1000
,
0001
0000
0000
1000
0001
0000
0010
0000
,
0100
0000
0000
0010
0100
0000
0000
0010
,
0100
0000
0000
0010
0100
0000
1000
0000
,
0001
0000
1000
0000
0001
0000
0000
0010
,
0100
0010
0001
1000
,
0001
0000
0100
0000
0010
0000
0000
0100
,
0010
1000
0001
1000
,
1001
0000
0000
0000
,
0000
0000
0000
0000
,
0200
0000
0000
0000
,
0002
0000
0000
0303
,
0101
0000
1000
0100
0010
0000
0100
0000
,
1000
0000
0001
0010
0200
0000
0320
0000
,
0130
0000
1000
0000
0100
0000
1000
0001
,
0200
0000
0320
0000
0031
0010
0200
0000
,
0001
0000
0010
0000
0301
0000
0100
0010
,
1000
0001
2000
3020
,
1030
0000
0001
0000
0100
0000
0010
0100
,
0001
1000
0001
1000
0001
0020
0100
0000
,
0001
0000
0130
0000
0010
0001
2000
0000
,
3010
0000
1000
0000
0001
0010
0100
0010
,
0001
0000
1000
0001
0100
0000
0020
0000
,
1030
0000
0000
0000
;

//---------------dance-single - ----------------
#NOTES:
     dance-single:
     X-Scale 2:
     Beginner:
     2:
     0.147609,0.204133,0.000000,0.000000,0.000000,123.000000,123.000000,0.000000,0.000000,0.000000,0.000000,0.147609,0.204133,0.000000,0.000000,0.000000,123.000000,123.000000,0.000000,0.000000,0.000000,0.000000:
0000
0000
0000
0000
,
0000
0000
0000
0000
,
0001
0000
0000
0000
,
0010
0000
0000
0000
,
0100
0000
0000
0000
,
1000
0000
0000
0000
,
0001
0000
1000
0000
,
0001
0000
1000
0000
,
0100
0000
0010
0000
,
0100
0000
0010
0000
,
0100
0000
1000
0000
,
0100
0000
1000
0000
,
0001
0000
0100
0000
,
0001
0000
0100
0000
,
0010
0000
0100
0000
,
0010
0000
1000
0000
,
0001
0000
1000
0000
,
0001
0000
0100
0000
,
0010
0000
0100
0000
,
0010
0000
1000
0000
,
0010
0000
1000
0000
,
0010
0000
0000
0000
,
0001
0010
0100
1000
,
0001
0010
0100
1000
,
0001
0100
0010
1000
,
0001
0100
0010
1000
,
0001
0001
0010
0100
,
1000
1000
0010
0100
,
0001
0000
0001
0000
,
0001
0000
0000
0000
,
1000
0000
0000
0000
,
1000
0000
1000
0000
,
1000
0000
0000
0000
,
0001
0000
0001
0000
,
0001
0000
0000
0000
,
1000
0000
0100
0000
,
1000
0000
0001
0000
,
0100
0000
0001
0000
,
1000
0000
0010
0000
,
0100
0000
0000
0000
,
0000
0000
0000
0000
,
1000
0000
0000
0000
,
0001
0000
0000
0000
,
1000
0100
0010
0001
,
1000
0100
0010
0001
,
1000
0010
0100
0001
,
1000
0010
0100
0001
,
1000
0100
0010
0001
,
1000
0100
0010
0001
,
1000
0010
0100
0001
,
1000
0010
0100
0001
,
1000
1000
0100
0010
,
0001
0001
0100
0010
,
1000
0000
1000
0000
,
1000
0000
0000
0000
;

//---------------dance-single - ----------------
#NOTES:
     dance-single:
     X-Scale 14:
     Challenge:
     9:
     0.568836,0.604734,0.151210,0.243616,0.487231,474.000000,456.000000,18.000000,29.000000,22.000000,0.000000,0.568836,0.604734,0.151210,0.243616,0.487231,474.000000,456.000000,18.000000,29.000000,22.000000,0.000000:
// measure 0
0000
0000
0000
0000
,  // measure 1
0000
0000
0000
0000
,  // measure 2
0011
0000
0000
1010
0000
0000
1100
0000
0000
0101
0000
0000
0001
0000
0010
0000
,  // measure 3
0101
0000
0000
1100
0000
0000
1010
0000
0001
0000
0000
0000
0010
0000
0000
0000
,  // measure 4
0101
0000
0000
1100
0000
0000
1010
0000
0000
0011
0000
0000
1000
0000
0100
0000
,  // measure 5
1100
0000
0000
0000
0000
0000
0000
0000
0000
0101
0000
0000
0000
0000
0000
0000
0000
0000
0011
0000
0000
0000
0000
0000
1000
0000
0000
0000
0000
0000
0010
0000
0100
0000
0001
0000
1000
0000
0000
0100
0000
0000
0000
0000
0000
0100
0000
0000
,  // measure 6
0001
0010
1000
0010
0001
0010
0100
1000
,  // measure 7
0001
0100
1000
0001
0010
1000
0001
1000
,  // measure 8
0100
0001
0100
1000
0010
0100
0001
1000
,  // measure 9
0001
0100
0010
1000
0100
0001
1000
0010
,  // measure 10
0002
0000
0000
0000
2003
0000
0000
0000
3100
0000
0010
0000
0001
0000
1000
0100
,  // measure 11
0010
0000
0100
0000
1000
0000
0001
0000
0100
0001
1000
0000
0010
0000
0100
0000
,  // measure 12
0001
0000
0000
1000
0000
0000
0010
0000
0000
0100
0000
0000
0001
0000
0000
0010
0100
0000
0000
0100
0000
0000
0100
0000
,  // measure 13
1000
0000
0000
0000
0000
0000
0001
0000
0010
0000
0000
0000
0000
0000
0010
0000
0000
0000
0000
0000
0010
0000
0000
0000
0100
0000
0000
0000
0000
0000
1000
0000
0000
0100
0000
0000
0000
0000
0000
0010
0000
0000
0000
0000
0000
0100
0000
0000
,  // measure 14
1000
0000
0010
0100
0001
0000
1000
0010
0100
0000
0010
0000
0100
0000
0001
0000
,  // measure 15
0010
0001
1000
0100
0001
0100
1000
0001
,  // measure 16
0010
0000
0001
0100
1000
0000
0001
0010
1000
0000
0100
0000
0001
0000
0100
0000
,  // measure 17
1000
0000
0001
0010
0100
0000
0010
0000
0001
0000
1000
0000
0010
0000
0100
0000
,  // measure 18
0001
0000
1000
0010
0100
0000
0010
0100
0001
0000
0010
0000
1000
0000
0010
0000
,  // measure 19
0001
0000
0100
0000
2000
0000
0000
0000
3M01
0000
0100
0000
2000
0001
0001
0000
,  // measure 20
3M10
0100
1000
0001
1000
0010
0100
0001
,  // measure 21
2001
0M00
00M0
000M
3M02
00M0
M000
0000
,  // measure 22
1003
0000
0010
0000
0100
0010
1000
0000
0001
0000
0100
0000
0010
0100
1000
0000
,  // measure 23
0100
0000
0001
0000
1000
0001
0100
0000
0010
0000
0100
0000
0001
0010
0100
0000
,  // measure 24
0010
0000
0001
0000
1000
0100
0010
0000
0100
0000
1000
0000
0001
0010
1000
0000
,  // measure 25
0010
0000
0001
0000
0100
0010
1000
0000
0100
0000
0001
0000
0100
0000
1000
0000
,  // measure 26
0001
0010
0100
0000
M001
0010
0100
0000
1000
0000
0001
0000
0100
0000
0000
0000
,  // measure 27
0001
0010
0100
0000
M001
0010
0100
0000
1000
0000
0001
0000
0010
0000
0100
0000
,  // measure 28
2000
0000
3001
1000
0020
0000
2030
0000
,  // measure 29
3010
0000
0000
1000
0100
0000
0000
0010
0001
0000
0000
1000
0001
0000
0000
0000
,  // measure 30
0010
0000
0000
0M00
0000
0000
0010
0000
0000
0M00
0000
0000
1000
0000
1000
0000
1000
0000
1000
0100
1000
0100
1000
0100
,  // measure 31
1000
0000
0000
0100
00M0
0100
0001
0000
0010
0000
0000
0010
0M00
0010
1000
0000
,  // measure 32
0001
0000
0000
0000
0000
0000
0000
0000
0000
0001
0000
0000
0000
0000
0000
0001
0000
0000
0010
0000
0000
0000
0000
0000
0001
0000
0000
0000
0100
0000
0000
0000
0010
0000
0000
0000
1000
0000
0000
0000
0100
0000
0000
0000
0010
0000
0000
0000
,  // measure 33
0001
0000
0000
0100
00M0
0100
1000
0000
0010
0000
0000
0010
0M00
0010
0001
0000
,  // measure 34
1000
0000
0000
0000
0000
0000
0000
0000
0000
1000
0000
0000
0000
0000
0000
1000
0000
0000
0001
0000
0000
0000
0000
0000
0100
0000
0000
0000
0010
0000
0000
0000
1000
0000
0000
0000
0001
0000
0000
0000
0010
0000
0000
0000
0100
0000
0000
0000
,  // measure 35
1000
0000
0100
0010
0001
1000
0001
0000
0010
0000
0100
0010
0000
0001
0010
0000
,  // measure 36
0100
0000
0000
1000
0000
0000
0001
0000
0000
1000
0000
0000
0100
0000
0000
0010
0000
0000
0001
0000
0000
0000
0000
0000
1000
0000
0000
0000
0100
0000
0000
0000
0010
0000
0000
0000
0001
0000
0000
0000
0001
0000
0000
0000
0001
0000
0000
0000
,  // measure 37
0001
0000
0100
0010
1000
0001
0010
0000
0100
0000
1000
0001
0000
0010
0001
0000
,  // measure 38
1000
0000
0000
0100
0000
0000
0010
0000
0000
0100
0000
0000
1000
0000
0000
0001
0000
0000
0100
0000
0000
0000
0000
0000
0001
0000
0000
0000
0010
0000
0000
0000
0100
0000
0000
0000
1000
0000
0000
0000
1000
0000
0000
0000
1000
0000
0000
0000
,  // measure 39
2100
3200
0302
0203
0320
0032
2003
3200
,  // measure 40
0302
0000
0203
0000
2300
0000
3002
0000
0023
0000
0230
0000
2300
0000
0000
3000
,  // measure 41
0201
0000
0000
1000
0000
0000
0001
0000
0000
1000
0000
0000
0000
0000
0000
0000
,  // measure 42
1000
0000
0000
0001
0000
0000
1000
0000
0000
0001
0000
0300
MMMM
0000
0000
0000
,  // measure 43
0011
0000
0001
0000
0100
0001
1000
0000
0100
0000
0010
0000
0100
1000
0001
0000
,  // measure 44
0010
0000
0100
0000
1000
0001
0100
0000
0010
0000
0100
0000
0001
0010
0100
0000
,  // measure 45
1000
0000
0001
0000
1000
0100
0010
0000
0100
0000
1000
0000
0001
1000
0010
0000
,  // measure 46
0100
0000
0010
0000
0100
0001
0010
0000
0100
0000
1000
0000
0001
1000
0010
0000
,  // measure 47
0100
0000
0001
0000
0010
0100
1000
0000
0001
0000
0100
0000
0010
0100
1000
0000
,  // measure 48
0100
0000
0010
0000
0100
0010
1000
0000
0100
0000
0010
0000
0001
1000
0010
0000
,  // measure 49
0100
0000
0010
0000
0001
0010
0100
0000
0010
0000
1000
0000
0001
0010
0100
0000
,  // measure 50
1000
0010
0100
0001
1000
0100
0010
0001
,  // measure 51
1000
0100
0010
0000
100M
0100
0010
0000
0001
0000
0100
0000
0010
0000
0000
0000
,  // measure 52
1000
0100
0010
0000
100M
0100
0010
0000
0001
0000
0100
0000
0010
0000
1000
0000
,  // measure 53
0002
0000
0013
0100
2000
0000
3200
0000
,  // measure 54
0310
0000
0000
0001
0010
0000
0000
0100
1000
0000
0000
0000
0100
0020
0000
0000
,  // measure 55
0000
0000
0000
0030
0000
0000
0000
0000
;
