#VERSION:0.83;
#TITLE:Human Experience;
#SUBTITLE:;
#ARTIST:Oolacile;
#TITLETRANSLIT:;
#SUBTITLETRANSLIT:;
#ARTISTTRANSLIT:;
#GENRE:Riddim;
#ORIGIN:;
#CREDIT:;
#BANNER:human experience-bn.png;
#BACKGROUND:human experience-bg.png;
#PREVIEWVID:;
#JACKET:human experience-jacket.png;
#CDIMAGE:;
#DISCIMAGE:;
#LYRICSPATH:;
#CDTITLE:cdtitle.png;
#MUSIC:human experience.ogg;
#OFFSET:-0.004000;
#SAMPLESTART:37.752998;
#SAMPLELENGTH:17.200001;
#SELECTABLE:YES;
#BPMS:0.000=140.000,
32.000=70.000,
40.000=140.000,
83.000=70.000,
84.000=140.000;
#STOPS:76.000=1.320,
116.000=0.880;
#DELAYS:;
#WARPS:;
#TIMESIGNATURES:0.000=4=4;
#TICKCOUNTS:0.000=4;
#COMBOS:0.000=1;
#SPEEDS:0.000=1.000=0.000=0;
#SCROLLS:0.000=1.000,
116.000=0.500,
117.000=1.000,
130.000=2.000,
130.125=1.000,
130.250=0.750,
130.375=0.500,
131.000=2.000,
131.125=1.000,
131.250=0.750,
131.375=0.500,
132.000=2.000,
132.125=1.000,
132.250=0.750,
132.375=0.500,
133.000=1.000,
142.000=2.000,
142.125=1.000,
142.250=0.750,
142.375=0.500,
143.000=2.000,
143.125=1.000,
143.250=0.750,
143.375=0.500,
144.000=2.000,
144.125=1.000,
144.250=0.750,
144.375=0.500,
145.000=1.000,
146.000=2.000,
146.125=1.000,
146.250=0.750,
146.375=0.500,
147.000=2.000,
147.125=1.000,
147.250=0.750,
147.375=0.500,
148.000=2.000,
148.125=1.000,
148.250=0.750,
148.375=0.500,
149.000=2.000,
149.125=1.000,
149.250=0.750,
149.375=0.500,
149.500=2.000,
149.625=1.000,
149.750=0.750,
149.875=0.500,
150.000=1.000,
180.000=2.000,
180.125=1.500,
180.250=0.750,
180.375=0.500,
181.000=1.000,
184.000=2.000,
184.125=1.000,
184.250=0.750,
184.375=0.500,
185.000=1.000;
#FAKES:;
#LABELS:0.000=Song Start;
#BGCHANGES:;
#KEYSOUNDS:;
#ATTACKS:
;

//---------------dance-single - ----------------
#NOTEDATA:;
#CHARTNAME:X-Scale 11;
#STEPSTYPE:dance-single;
#DESCRIPTION:;
#CHARTSTYLE:;
#DIFFICULTY:Hard;
#METER:8;
#RADARVALUES:0.537797,0.588105,0.203252,0.185578,0.225345,426.000000,403.000000,23.000000,21.000000,0.000000,0.000000,5.000000,0.000000,0.000000,0.537797,0.588105,0.203252,0.185578,0.225345,426.000000,403.000000,23.000000,21.000000,0.000000,0.000000,5.000000,0.000000,0.000000;
#CREDIT:;
#NOTES:
// measure 0
0000
0000
0000
0000
,  // measure 1
0000
0000
0000
0000
,  // measure 2
0000
0000
0000
0000
,  // measure 3
0000
0000
0000
0000
,  // measure 4
1010
0000
0010
0100
0010
0001
0010
0100
,  // measure 5
0010
0000
1000
0001
1000
0100
0010
0100
,  // measure 6
1000
0000
0001
1000
0001
0010
0100
1000
,  // measure 7
0100
0000
0000
0000
0000
0000
1000
0000
0000
1000
0000
0000
0001
0000
0000
0001
0000
0000
1000
0000
0001
0000
1000
0000
,  // measure 8
1001
0000
0001
0000
1000
0000
0100
0010
,  // measure 9
0110
0000
0001
0000
0010
0000
0100
1000
,  // measure 10
1100
0000
0101
0000
,  // measure 11
1010
0001
0110
1000
,  // measure 12
1001
0001
1100
1000
,  // measure 13
0011
0000
0000
0001
0000
0000
1000
0100
0010
0001
0100
0010
,  // measure 14
1000
0000
0001
1000
0001
0000
0100
0010
,  // measure 15
0100
0000
0001
0010
0100
0000
0010
0100
,  // measure 16
1000
0010
0001
0010
1000
0010
0001
0010
,  // measure 17
1000
0100
0010
0100
1000
0100
0010
0100
,  // measure 18
1000
0100
1000
0100
0010
0100
0010
0001
0010
0001
0010
0100
,  // measure 19
0110
0000
1000
0001
1000
0001
0100
1000
,  // measure 20
0100
0010
0100
0001
0010
0100
1000
0000
,  // measure 21
0101
0001
0001
1000
0100
1000
0010
1000
,  // measure 22
0100
0000
0100
0000
0100
0000
1000
0000
0001
0000
0100
0000
0001
0100
0000
0100
,  // measure 23
0010
0000
0000
0000
1000
0000
1000
0000
0001
1000
0000
0000
0010
0000
0010
0000
,  // measure 24
0100
0000
0000
0010
0000
0000
0000
0000
0000
0000
0000
0000
0100
0000
0000
0010
0000
0000
0000
0000
0000
0000
0000
0000
0100
0000
0000
0000
0010
0000
0000
0000
0100
0000
0000
0000
0010
0000
0000
0000
0100
0000
0000
0000
0000
0000
0000
0000
,  // measure 25
0110
0100
0100
0001
1000
0010
1000
0001
,  // measure 26
1000
0000
1000
0000
1000
0000
0001
0000
0100
0000
0001
0000
1000
0001
0000
0001
,  // measure 27
0100
0000
0000
0000
0001
0000
0001
0000
1000
0001
0000
0000
0010
0000
0010
0000
,  // measure 28
0100
0000
0000
0010
0000
0000
0000
0000
0000
0000
0000
0000
0100
0000
0000
0010
0000
0000
0000
0000
0000
0000
0000
0000
0001
0000
0000
0000
1000
0000
0000
0000
0001
0000
0000
0000
1000
0000
0000
0000
0001
0000
0000
0000
0000
0000
0000
0000
,  // measure 29
1001
0000
0000
0000
0000
0000
1000
0000
0100
0000
0010
0000
0001
0000
0000
1000
0000
0000
0002
0000
0000
0000
0000
0000
,  // measure 30
1003
0001
1000
1000
1010
0010
0200
0000
,  // measure 31
0310
0100
0001
0001
1001
1000
0020
0000
,  // measure 32
1030
0001
0020
0000
0130
0000
0100
0000
,  // measure 33
0100
0000
0000
0000
0000
0000
1000
0000
0010
0000
1000
0000
1010
0000
0000
0010
0000
0000
2000
0000
0000
3000
0000
0000
,  // measure 34
2000
3001
2000
3000
0001
1000
0002
0003
,  // measure 35
0002
0000
0000
1003
0000
0000
0001
0000
0010
0000
0100
0000
1100
0000
0000
0000
0000
0000
0101
0000
0000
0000
0000
0000
,  // measure 36
1100
0400
2300
0001
,  // measure 37
3001
0000
0000
0000
4000
3000
0004
0003
1000
0000
0100
0000
2000
0000
0000
0000
,  // measure 38
3001
1000
0001
0100
0001
0010
0200
0000
,  // measure 39
0310
0001
1000
0001
0100
0010
0001
0010
,  // measure 40
1000
0010
0001
0010
0100
0001
1000
0100
,  // measure 41
0001
0000
0100
0000
1000
0000
0001
0000
1000
0000
0010
1000
0020
0000
0000
0000
,  // measure 42
0001
0000
0000
0000
0130
0010
1000
0010
,  // measure 43
1000
0001
0100
0001
0100
0010
0100
1000
,  // measure 44
0100
0010
0100
0100
0002
0000
2003
0000
,  // measure 45
3004
0003
1000
0100
2000
0000
3002
0000
,  // measure 46
4003
0000
3000
0000
0002
0000
0000
0000
0013
0000
0001
0000
0010
0000
0000
0010
,  // measure 47
0100
0000
0010
0000
0001
0000
1000
0000
0001
0000
0001
0000
0100
0000
0000
0001
,  // measure 48
0100
0000
0000
0001
0000
0000
1000
0000
0000
0100
0000
0000
0010
0000
0000
0000
0000
0000
0100
0000
1000
0000
0100
0000
,  // measure 49
1000
0000
0000
0001
0000
0000
1000
0000
0000
0010
0000
0000
2000
0000
0000
0000
0000
0000
3001
0000
0100
0000
0001
0000
,  // measure 50
0100
0001
0010
1000
0010
0001
0100
0001
,  // measure 51
1000
0000
0000
0010
0000
0000
0001
0000
0000
0010
0000
0000
0100
0000
0000
0000
0000
0000
0001
0000
1000
0000
0001
0000
,  // measure 52
1000
0000
0001
0000
1000
0000
0001
0000
0000
0100
0000
0000
0101
0000
0000
0000
0000
0000
0001
0000
0000
0010
0000
0000
,  // measure 53
0100
0000
0000
1000
0000
0000
0100
0000
0000
0010
0000
0000
0001
0000
0000
0001
0000
0000
1000
0000
0010
0000
1000
0000
,  // measure 54
0010
1000
0001
1000
0010
0010
0100
0100
,  // measure 55
0001
0001
1000
1000
0001
0001
1000
1000
,  // measure 56
0100
0100
0010
0010
0110
0000
0200
0000
,  // measure 57
0301
0000
0000
0100
0000
0000
1000
0000
0000
0100
0000
0000
0010
0000
0000
0010
0000
0000
0001
0000
0010
0000
0001
0000
,  // measure 58
0010
0100
0010
0001
1000
1000
0010
0010
,  // measure 59
0100
0100
0001
0001
2001
0010
0001
0100
,  // measure 60
0001
0010
0001
0100
3001
0000
0000
0000
;

//---------------dance-single - ----------------
#NOTEDATA:;
#CHARTNAME:X-Scale 8;
#STEPSTYPE:dance-single;
#DESCRIPTION:;
#CHARTSTYLE:;
#DIFFICULTY:Medium;
#METER:6;
#RADARVALUES:0.446902,0.507909,0.318134,0.194415,0.132556,354.000000,318.000000,36.000000,22.000000,0.000000,0.000000,0.000000,0.000000,0.000000,0.446902,0.507909,0.318134,0.194415,0.132556,354.000000,318.000000,36.000000,22.000000,0.000000,0.000000,0.000000,0.000000,0.000000;
#CREDIT:;
#NOTES:
0000
0000
0000
0000
,
0000
0000
0000
0000
,
0000
0000
0000
0000
,
0000
0000
0000
0000
,
1001
0000
0010
0000
1000
0100
0010
0001
,
1000
0000
0001
0000
0100
0010
0001
0010
,
1000
0000
0001
0000
1000
0100
0010
0001
,
1000
0000
0000
0000
0000
0000
0001
0000
0000
0000
0000
0000
0100
0000
0000
0010
0000
0000
1000
0000
0001
0000
1000
0000
,
1001
0000
0000
0000
,
1100
0000
0000
0000
0001
1000
0001
1000
,
1001
0000
1100
0000
,
0101
0000
1100
0000
,
1001
0000
0110
0000
,
1001
0000
0110
0000
,
0101
0000
0100
0001
0100
0000
0010
0100
,
0010
0000
1000
0010
1000
0000
0100
0010
,
0100
0000
1000
0100
1000
0000
0001
0100
,
0001
0000
0100
0010
0100
0000
0001
0010
,
0001
0000
1000
0100
0000
0010
0001
0000
1000
0010
0000
0100
,
0001
0000
1000
0000
0010
0000
1000
0100
,
0010
0100
1000
0000
0001
0100
0001
0000
,
1001
0000
1000
0000
0001
0100
1000
0010
,
0001
0000
1000
0000
0001
0100
1000
0010
,
0001
0000
1000
0100
1000
0000
1000
0100
,
1000
0000
0000
1000
0000
0000
0001
0100
0001
0100
0001
0000
,
0101
0000
0100
0000
0001
1000
0001
0010
,
0100
0000
1000
0000
0001
1000
0001
0010
,
0100
0000
1000
0100
1000
0000
1000
0100
,
1000
0000
0000
1000
0000
0000
0001
0100
0001
0100
0001
0000
,
0101
1100
1001
0001
,
0100
0000
0010
0100
0010
0000
1000
0000
,
0001
0000
1000
0010
1010
0000
2000
3000
,
1001
0000
0002
0003
0101
0000
0110
0000
,
1010
0000
0000
0000
0000
0000
1000
0000
0100
0000
0010
0000
0011
0000
0000
0000
0000
0000
2000
0000
0000
3000
0000
0000
,
2000
3100
0020
0030
0011
0000
0002
0003
,
0002
0000
0000
0103
0000
0000
0010
0000
0100
0000
0010
0000
0110
0000
0000
0000
0000
0000
1001
0000
0000
0000
0000
0000
,
0110
0002
2003
0100
,
3100
0000
0100
0010
0011
0000
0002
0000
,
1003
0000
0010
0100
0010
0000
2000
0000
,
3100
0000
0010
0001
1000
0100
0001
0100
,
0010
0001
1000
0001
0100
0000
0010
0100
,
1000
0100
0001
0100
0010
0000
2000
0000
,
0001
0000
0000
3000
1100
0000
0100
0010
,
0001
1000
0001
0100
0101
0000
1100
0000
,
0101
0000
1100
1000
0002
0003
0020
0030
,
0011
0000
0001
1000
2001
3000
0200
0300
,
0020
0000
0030
0000
0002
0000
0000
0000
1003
0000
0001
0000
1000
0000
0000
0010
,
0100
0000
0010
0000
0100
0000
0010
0000
1000
0000
0100
0000
0010
0000
0000
0001
,
0010
0000
0000
0001
0000
0000
0010
0000
0000
0001
0000
0000
2000
0000
0000
0000
0000
0000
3100
0000
1000
0000
0100
0000
,
1000
0000
0000
0000
0000
0000
0001
0000
0000
0100
0000
0000
0002
0000
0000
0000
0000
0000
0103
0000
0001
0000
0100
0000
,
0001
0000
1000
0100
1000
0010
0001
0010
,
0100
0000
0000
0010
0000
0000
1000
0000
0000
0001
0000
0000
0010
0000
0000
0001
0000
0000
1000
0000
0001
0000
1000
0000
,
0001
0000
1000
0000
0001
0000
1000
0000
0000
0000
0000
0000
1001
0000
0000
0000
0000
0000
0001
0000
0000
0100
0000
0000
,
0010
0000
0000
0000
0000
0000
1000
0000
0000
0000
0000
0000
0001
0000
0000
0001
0000
0000
0001
0000
0100
0000
0010
0000
,
0100
0001
1000
0001
0010
0000
0100
0000
,
1000
0100
1000
0000
0001
0000
0100
0010
,
0100
0001
1000
0200
,
1300
0000
0000
0000
0000
0000
0100
0000
0000
0000
0000
0000
0010
0000
0000
0010
0000
0000
0010
0000
0001
0000
1000
0000
,
0001
0010
1000
0010
0001
0000
1000
0010
,
1000
0100
0020
1000
,
0100
0001
0031
0000
;

//---------------dance-single - ----------------
#NOTEDATA:;
#CHARTNAME:X-Scale 6;
#STEPSTYPE:dance-single;
#DESCRIPTION:;
#CHARTSTYLE:;
#DIFFICULTY:Easy;
#METER:4;
#RADARVALUES:0.302984,0.427713,0.318134,0.265111,0.000000,240.000000,204.000000,36.000000,30.000000,0.000000,0.000000,0.000000,0.000000,0.000000,0.302984,0.427713,0.318134,0.265111,0.000000,240.000000,204.000000,36.000000,30.000000,0.000000,0.000000,0.000000,0.000000,0.000000;
#CREDIT:;
#NOTES:
0000
0000
0000
0000
,
0000
0000
0000
0000
,
0000
0000
0000
0000
,
0000
0000
0000
0000
,
1100
0000
0001
0010
,
0100
0000
1000
0100
,
0110
0000
0001
0100
,
0010
0000
1000
0010
,
0110
0000
0000
0000
,
1001
0000
0000
0000
,
0110
0000
0100
0000
,
0100
0000
0100
0000
,
0110
0000
0010
0000
,
0010
0000
0010
0000
,
0101
0001
1000
0001
,
1100
0010
1000
0010
,
1001
1000
1001
0001
,
0110
0100
0110
0010
,
0110
1001
0110
1001
,
0110
1000
0000
0001
,
1000
0001
0000
1000
,
1001
0000
0001
0010
,
0011
0000
1000
0010
,
1010
0000
1001
0000
,
0101
0100
0100
0000
,
0110
0000
0000
0010
1000
0000
0001
0000
,
1001
0000
0000
0100
0001
0000
1000
0000
,
1001
0000
0110
0000
,
1001
0001
0001
0000
,
1100
0000
2002
3003
1000
0100
0020
0000
,
0031
0000
0001
0000
1000
0010
0200
0000
,
0301
0000
1000
0000
0001
0010
0200
0000
,
0310
0100
2000
0000
3001
0000
1000
0000
,
0001
0000
0000
0000
1001
0000
2000
3000
,
0001
0100
0002
0003
0011
0000
0200
0300
,
0010
0100
1000
0000
0001
0000
1000
0000
,
0001
0020
0130
0100
,
0100
2000
3001
0020
,
0130
0000
1000
0100
1000
0000
0002
0000
,
0013
0000
0100
0010
0100
0000
1000
0000
,
1001
0000
0001
0000
0022
0033
0100
0000
,
1010
0001
1001
2000
,
0001
0000
0000
0000
3010
0000
1000
0100
,
0010
0000
0100
0010
0001
0000
1000
0000
,
0001
0000
1000
0010
0100
0000
0002
0000
,
0023
0030
0100
0010
0001
0000
2000
0000
,
3002
0003
0200
0000
0310
0100
0002
0003
,
1000
0000
0100
0000
1000
0000
0002
0003
,
0010
0100
0020
0031
,
2000
3000
0010
1000
0002
0000
0013
0000
,
0200
0300
0020
0000
0031
0000
0000
0000
,
1000
0000
0001
0000
1000
0100
0020
0000
,
0000
0031
0011
0000
,
1000
0000
0001
0000
0010
0010
0000
0000
,
0100
1000
0001
0100
,
0010
0100
0001
0010
,
0100
0010
0001
0000
,
1000
0000
0010
0000
0100
0100
0000
0000
,
0001
0010
0100
1000
,
0001
1000
0200
0000
,
0000
0000
0300
0000
;

//---------------dance-single - ----------------
#NOTEDATA:;
#CHARTNAME:X-Scale 2;
#STEPSTYPE:dance-single;
#DESCRIPTION:;
#CHARTSTYLE:;
#DIFFICULTY:Beginner;
#METER:2;
#RADARVALUES:0.143918,0.213856,0.035348,0.000000,0.000000,114.000000,110.000000,4.000000,0.000000,0.000000,0.000000,0.000000,0.000000,0.000000,0.143918,0.213856,0.035348,0.000000,0.000000,114.000000,110.000000,4.000000,0.000000,0.000000,0.000000,0.000000,0.000000,0.000000;
#CREDIT:;
#NOTES:
0000
0000
0000
0000
,
0000
0000
0000
0000
,
0000
0000
0000
0000
,
0000
0000
0000
0000
,
0001
0000
0000
0000
,
1000
0000
0000
0000
,
0001
0000
0000
0000
,
1000
0000
0000
0000
,
0001
0000
0000
0000
,
1000
0000
0000
0000
,
0001
0000
0001
0000
,
1000
0000
1000
0000
,
0100
0000
0100
0000
,
0010
0000
0010
0000
,
0001
0000
0000
0000
,
1000
0000
0000
0000
,
0001
0000
1000
0000
,
0001
0000
1000
0000
,
0010
0000
0100
0000
,
0010
1000
0000
0000
,
0000
0001
0000
0000
,
1001
0000
1000
0000
,
0001
0000
1000
0000
,
0001
0000
0010
0000
,
0010
0000
0100
0000
,
1000
0000
0001
0000
,
1000
0000
0001
0000
,
0100
0000
0100
0000
,
0100
0000
0010
0000
,
1000
0000
0001
0000
,
0010
0000
0100
0000
,
1000
0000
0001
0000
,
0001
0000
0001
1000
,
0001
0000
1001
0000
,
1000
0000
0001
0000
,
1000
0000
0010
0010
,
0010
0000
0100
0100
,
0100
0000
0110
0000
,
0100
0000
0010
0000
,
1000
0000
0001
0000
,
0100
0000
0001
0000
,
1000
0000
0001
0000
,
0010
0000
0001
0000
,
1000
0000
0001
0100
,
0001
0100
0001
0000
,
1000
0000
0100
0000
,
1000
0000
0100
0000
,
0010
0001
0010
0000
,
0001
1000
0001
0000
,
0010
0000
0001
0000
,
1000
0000
0100
0000
,
0010
0000
0001
0000
,
0000
0000
1001
0000
,
1000
0000
0001
0000
,
1000
0000
0001
0000
,
0100
0000
0010
0000
,
0100
0000
0010
0000
,
1000
0000
0010
0000
,
1000
0000
0010
0000
,
0100
0000
0001
0000
,
0000
0000
1000
0000
;
