#TITLE:How Much is the Fish?;
#SUBTITLE:;
#ARTIST:SCOOTER;
#TITLETRANSLIT:;
#SUBTITLETRANSLIT:;
#ARTISTTRANSLIT:;
#GENRE:Eurodance;
#CREDIT:;
#BANNER:How Much is the Fish-bn.png;
#BACKGROUND:How Much is the Fish-bg.png;
#LYRICSPATH:;
#CDTITLE:cdtitle.png;
#MUSIC:How Much is the Fish.ogg;
#OFFSET:-0.214000;
#SAMPLESTART:67.070999;
#SAMPLELENGTH:12.000000;
#SELECTABLE:YES;
#BPMS:0.000000=140.000000
;
#STOPS:
;
#BGCHANGES:-0.564=How Much is the Fish.avi=1.000=1=0=0=StretchNoLoop==CrossFade==,
99999=-nosongbg-=1.000=0=0=0 // don't automatically add -songbackground-
;
#KEYSOUNDS:;
#ATTACKS:;

//---------------dance-single - ----------------
#NOTES:
     dance-single:
     X-Scale 14:
     Hard:
     9:
     0.587878,0.761634,0.246530,0.265493,0.436168,434.000000,408.000000,26.000000,28.000000,0.000000,0.000000,0.587878,0.761634,0.246530,0.265493,0.436168,434.000000,408.000000,26.000000,28.000000,0.000000,0.000000:
// measure 0
0000
0000
0000
0000
,  // measure 1
0000
0000
0000
0000
,  // measure 2
0000
0000
0000
0000
,  // measure 3
0000
0000
0000
0000
,  // measure 4
0000
0000
0000
0000
0101
0000
0001
0100
,  // measure 5
0001
0000
0000
1000
0000
0000
1000
0000
0010
1000
0000
0001
0010
0000
0100
0000
,  // measure 6
1000
0000
0000
0001
0000
0000
0001
0000
0101
0000
0000
0000
0110
0000
0000
0000
,  // measure 7
1001
0000
1100
0000
0000
0000
0000
0100
,  // measure 8
1000
0000
0100
0000
0000
0000
1000
0000
1001
0000
1000
0000
0001
0000
0000
0100
,  // measure 9
0000
0100
0000
0010
0100
0000
0001
0000
1000
0000
0010
0000
1000
0000
0000
0100
,  // measure 10
0000
0100
0000
1000
0001
0000
0010
0000
0001
0000
0100
0000
0010
0000
0000
0100
,  // measure 11
0000
0100
0000
0001
1000
0000
0001
0000
0010
0000
0100
0000
1000
0000
0000
0100
,  // measure 12
0000
0100
0000
0010
0100
0000
1000
0000
0001
0000
0100
0000
0010
0000
0000
1000
,  // measure 13
0000
1000
0000
0010
0100
0000
1000
0000
0100
0000
0010
0000
0100
0000
0000
0001
,  // measure 14
0000
0001
0000
0100
0010
0000
0100
0000
0001
0000
1000
0000
0100
0000
0000
0010
,  // measure 15
0000
0010
0000
0100
0010
0000
0100
0000
1000
0000
0001
0000
0010
0000
0000
0100
,  // measure 16
0000
0100
0000
1000
0100
0000
1000
0000
1100
0000
1000
0100
0000
0000
1000
0010
,  // measure 17
1000
0010
1000
0010
0000
0000
0100
0001
0100
0000
0010
1000
0010
0000
0100
0001
,  // measure 18
0100
0000
0010
1000
0000
0000
1000
0000
0001
0000
0100
0001
0000
0000
1000
0001
,  // measure 19
1000
0001
1000
0001
0000
0000
0010
0000
0200
0000
0000
0000
1300
0000
0001
0000
,  // measure 20
0100
0000
0001
1000
0000
0000
1000
0000
0100
0000
0010
0001
0000
0000
1000
0001
,  // measure 21
1000
0001
1000
0001
0000
0000
0010
0100
0010
0000
1000
0100
1000
0000
0001
0100
,  // measure 22
0001
0000
1000
0100
0000
0000
1000
0000
1100
0000
0100
1000
0000
0000
0001
0000
,  // measure 23
0100
0001
0100
0001
0000
0010
0100
2000
0001
0000
0000
0000
3100
0000
1000
0000
,  // measure 24
1001
0000
0000
0001
0010
0000
0001
0000
0102
0000
0000
0000
0000
0000
1003
0000
,  // measure 25
0000
0000
0000
1000
0000
0000
0000
0000
0000
0100
0010
0100
0010
0000
0000
0001
0000
0000
0000
0000
0000
0001
0000
0000
,  // measure 26
0000
0000
0001
0000
0001
0000
1000
0001
2000
0000
0000
0000
3020
0000
0000
0130
,  // measure 27
0010
0000
1000
0000
1000
0000
0001
0000
0100
0000
0010
0000
0010
0000
1000
0010
,  // measure 28
2000
0000
3200
0000
0301
0100
2000
0001
,  // measure 29
0000
0000
0010
0000
0000
0000
3001
0000
1000
0000
0000
0100
0000
0000
0010
0000
,  // measure 30
0120
0000
0000
0000
0230
0000
0000
1300
0100
0000
1000
0000
1000
0000
0001
0000
,  // measure 31
0100
0000
0001
0000
0001
0000
0010
0100
0020
0000
0000
0000
0032
0000
0000
0000
,  // measure 32
1003
0000
0000
0000
0010
0000
2000
0000
0000
0001
0000
0000
0000
0000
0000
0100
0000
0000
0000
0000
0000
3001
1000
0001
,  // measure 33
1000
1000
0100
0010
0002
0003
2000
0000
,  // measure 34
3010
1000
0200
0001
0000
0010
0000
1000
,  // measure 35
0000
0000
1300
0000
1000
0000
0001
0000
1001
0000
0000
0000
1000
0000
0010
1000
,  // measure 36
0010
0000
0100
0010
0100
0000
0001
0010
0001
1000
0001
0010
0100
0010
0001
1000
,  // measure 37
0001
0100
0010
0100
0001
0000
0001
0100
0002
0000
1000
0000
0200
0000
0303
0000
,  // measure 38
0101
0011
0101
1100
,  // measure 39
1001
0000
0000
0000
1000
0000
0000
0010
1000
0000
0010
0000
0001
0000
0010
0000
,  // measure 40
1000
0100
0001
0100
1000
0000
0001
0000
,  // measure 41
0100
0000
0001
0000
1000
0000
0010
0000
1000
0001
0100
0001
1000
0000
0010
0000
,  // measure 42
0100
0010
1000
0001
0100
0000
0001
0000
1001
0000
0000
0000
1000
0000
0000
0010
,  // measure 43
1000
0010
0001
0010
1000
0100
0001
0100
,  // measure 44
1000
0000
0100
0010
0001
1000
0001
0100
,  // measure 45
0010
1000
1001
0000
0110
0000
0100
0010
,  // measure 46
0120
0000
2030
0000
3100
0010
0002
0010
,  // measure 47
0000
0000
1000
0000
0000
0000
0103
0000
0001
0000
0000
0010
0000
0000
0100
0000
,  // measure 48
1100
0000
0000
0000
1000
0000
0000
0100
0010
0000
0100
0000
1000
0000
0100
0000
,  // measure 49
0001
0100
1000
0010
0001
0010
0100
0001
,  // measure 50
1000
0000
0010
0000
0100
0000
0001
0000
0100
0001
1000
0001
0100
0000
0010
0000
,  // measure 51
1000
0100
0010
0100
1000
0000
0001
0000
2001
0000
0010
0000
3020
0000
0100
0000
,  // measure 52
0130
0001
0020
1000
0000
0100
0000
0001
,  // measure 53
0000
0000
0031
0000
0010
0000
0100
1000
0100
0000
0000
0000
1000
0000
0000
0001
,  // measure 54
0100
0000
0001
0000
0001
0000
1000
0010
1000
0000
0100
0000
0100
0000
0010
0001
,  // measure 55
0020
0100
0230
1000
1300
0100
0010
0000
,  // measure 56
0001
1000
1001
0000
1010
0000
0010
1000
,  // measure 57
1002
0000
0000
0000
0000
0000
0000
1000
,  // measure 58
0010
1000
0020
0000
0000
0000
0030
0000
,  // measure 59
0000
0000
0003
0000
;

//---------------dance-single - ----------------
#NOTES:
     dance-single:
     X-Scale 10:
     Medium:
     7:
     0.419913,0.451339,0.246530,0.360313,0.047410,310.000000,284.000000,26.000000,38.000000,0.000000,0.000000,0.419913,0.451339,0.246530,0.360313,0.047410,310.000000,284.000000,26.000000,38.000000,0.000000,0.000000:
// measure 0
0000
0000
0000
0000
,  // measure 1
0000
0000
0000
0000
,  // measure 2
0000
0000
0000
0000
,  // measure 3
0000
0000
0000
0000
,  // measure 4
0000
0000
1100
1000
,  // measure 5
0001
0000
0000
0100
0000
0000
0001
0000
0100
0000
0000
0000
0010
0000
0000
0000
,  // measure 6
1000
0000
0000
0010
0000
0000
1000
0000
1010
0000
0000
0000
0110
0000
0000
0000
,  // measure 7
0101
2100
0000
0000
,  // measure 8
0000
3001
1001
1000
,  // measure 9
0010
1000
0001
0000
0010
0000
0100
0010
,  // measure 10
0001
0000
0000
1000
0000
0000
0010
0000
2000
0000
0000
0000
3001
0000
0000
0000
,  // measure 11
0100
0010
1000
0000
0001
0000
0010
0100
,  // measure 12
1000
0000
0000
0001
0000
0000
0100
0000
0002
0000
0000
0000
2003
0000
0000
0000
,  // measure 13
3010
1000
0001
0000
0010
0000
0100
0000
,  // measure 14
0010
0100
1000
0001
0020
0000
0032
0000
,  // measure 15
1003
0000
0010
1000
0001
0020
0000
0032
,  // measure 16
0000
0023
0000
0030
0110
0100
0000
0010
,  // measure 17
0100
1000
0000
0001
0100
0010
0000
1000
,  // measure 18
0100
0010
0000
0100
1000
0001
0000
0100
,  // measure 19
0001
1000
0000
0010
2000
0000
3001
1000
,  // measure 20
0100
0000
0010
0002
0000
0000
0003
0000
0001
0000
0100
0000
0000
0000
0010
0000
,  // measure 21
0100
0001
0000
1000
0100
0010
0000
0100
,  // measure 22
1000
0001
0000
0010
0110
0000
1000
0000
,  // measure 23
1001
0001
0101
0110
,  // measure 24
1010
1100
1001
0000
,  // measure 25
0000
0000
0000
0000
,  // measure 26
0000
0100
0100
0001
1000
0000
0001
0000
,  // measure 27
0010
0100
0100
1000
0100
0001
0100
1000
,  // measure 28
0020
0000
2030
0000
3001
0100
0002
0000
,  // measure 29
0000
0000
0000
0000
0000
0103
0100
0010
,  // measure 30
0110
0000
0100
0000
0001
1000
0010
1000
,  // measure 31
0001
0010
0100
0010
0002
0000
2003
0000
,  // measure 32
3100
0000
1000
0002
0000
0000
0000
0000
0000
0000
0000
0000
,  // measure 33
0000
0013
0100
1000
0001
0010
0100
0000
,  // measure 34
0001
0010
0100
0000
0001
0010
0100
1000
,  // measure 35
0002
0000
0000
0003
1001
0000
1000
0000
,  // measure 36
0010
0100
0010
0001
0010
1000
0100
0010
,  // measure 37
0002
0000
2003
0000
3010
0100
0020
0000
,  // measure 38
0130
0000
0100
0000
0100
0001
1000
0001
,  // measure 39
1002
0000
0023
0000
0130
0010
0001
1000
,  // measure 40
0010
0100
0001
0100
0020
0000
2030
0000
,  // measure 41
3001
0010
0200
1000
0000
0010
0000
1000
,  // measure 42
0000
0000
0310
0000
0001
0000
1000
0000
0001
0000
0000
0000
0001
0000
0000
0010
,  // measure 43
0100
0010
0001
1000
0010
0100
0001
1000
,  // measure 44
0020
0000
2030
0000
3100
1000
0020
0001
,  // measure 45
0000
1030
1010
0000
1010
0000
0001
1000
,  // measure 46
2001
0000
3002
0000
0103
0010
2000
0100
,  // measure 47
0000
0000
0010
0000
0000
0000
3001
0000
1000
0000
0000
0010
0000
0000
0100
0000
,  // measure 48
0110
0000
0000
0000
0100
0000
0000
0001
1000
0000
0010
0000
0001
0000
0010
0000
,  // measure 49
1000
0100
0001
0100
1000
0000
0010
0000
,  // measure 50
1000
0100
0010
0000
0001
0100
0101
0000
,  // measure 51
0101
0000
1000
0010
1010
0000
1000
0000
,  // measure 52
0001
0010
0200
0001
0000
0010
0000
1000
,  // measure 53
0000
0000
0310
0000
0010
0000
0100
0000
1100
0000
0000
0000
1000
0000
0000
0100
,  // measure 54
1000
0001
0010
0001
0200
0000
0300
0001
,  // measure 55
0200
0000
0320
0000
0031
0010
1000
0100
,  // measure 56
0010
0100
1000
0001
0100
0010
0100
0001
,  // measure 57
0202
0000
0000
0000
,  // measure 58
0000
0000
0000
0000
,  // measure 59
0000
0000
0303
0000
;

//---------------dance-single - ----------------
#NOTES:
     dance-single:
     X-Scale 6:
     Easy:
     4:
     0.316967,0.351305,0.056891,0.104301,0.000000,234.000000,228.000000,6.000000,11.000000,0.000000,0.000000,0.316967,0.351305,0.056891,0.104301,0.000000,234.000000,228.000000,6.000000,11.000000,0.000000,0.000000:
// measure 0
0000
0000
0000
0000
,  // measure 1
0000
0000
0000
0000
,  // measure 2
0000
0000
0000
0000
,  // measure 3
0000
0000
0000
0000
,  // measure 4
0000
0000
1000
0010
,  // measure 5
1000
0010
0100
0001
,  // measure 6
0100
0001
1000
1000
,  // measure 7
1000
1000
0000
0000
,  // measure 8
0000
0000
1001
0001
,  // measure 9
0100
0000
0010
1000
0001
0000
1000
0000
,  // measure 10
0100
0000
0010
0100
1000
0000
0001
0000
,  // measure 11
0100
0000
0010
0100
0001
0000
1000
0000
,  // measure 12
0010
0000
0100
0001
0010
0000
0100
0000
,  // measure 13
1000
0000
0010
1000
0001
0000
0100
0000
,  // measure 14
0001
0000
1000
0001
0100
0000
0010
0000
,  // measure 15
0100
0000
0001
0010
0100
1000
0000
0001
,  // measure 16
0000
1000
0000
0000
1001
1000
0000
0100
,  // measure 17
0000
0010
0000
0001
0000
0100
0000
0010
,  // measure 18
0000
1000
0000
0001
0000
0010
0000
0100
,  // measure 19
0000
1000
0000
0010
0000
1000
0000
0001
,  // measure 20
0000
0100
0000
0001
1000
0001
0000
0100
,  // measure 21
0000
0010
0000
0100
0000
0001
0000
0010
,  // measure 22
0000
0100
0000
1000
0010
1000
0000
0100
,  // measure 23
0010
0100
0000
1000
0001
0000
0001
0000
,  // measure 24
1000
1000
1001
0000
,  // measure 25
0000
0000
0000
0000
,  // measure 26
0000
1000
1000
0000
0001
0000
0100
0000
,  // measure 27
0000
0001
0001
0000
0000
1000
1000
0000
,  // measure 28
0100
0000
0010
0000
0001
0010
0200
0000
,  // measure 29
0000
0000
0000
0000
0000
1300
1000
0000
,  // measure 30
1100
0000
0100
0000
0000
1000
1000
0000
,  // measure 31
0000
0001
0001
0000
1000
0000
0010
0000
,  // measure 32
1000
0200
0000
0000
,  // measure 33
0000
0310
0100
0010
0100
0000
0100
0000
,  // measure 34
1000
0100
0020
0000
0000
0000
0000
0000
,  // measure 35
0000
0031
0001
0000
0011
0000
0010
0000
,  // measure 36
0100
1000
0001
0100
,  // measure 37
0001
0000
1000
0000
0010
1000
0001
0000
,  // measure 38
0020
0100
0100
0100
,  // measure 39
0100
0000
0001
0000
0130
1000
0001
0000
,  // measure 40
1000
0001
0100
0000
0001
0000
1000
0000
,  // measure 41
0001
0010
0200
0000
0010
0000
1300
0000
,  // measure 42
1000
0000
0001
0100
0001
0000
0010
0000
,  // measure 43
0100
1000
0001
0000
0100
0001
1000
0000
,  // measure 44
0100
1000
0001
0200
,  // measure 45
0010
0000
0301
0000
0001
1000
0010
1000
,  // measure 46
0001
0000
0001
0000
0010
0100
2000
0000
,  // measure 47
0100
0000
3001
0000
1000
0000
0100
0010
,  // measure 48
0001
0000
0100
0000
0001
1000
0010
0000
,  // measure 49
0100
0001
1000
0000
0100
0000
0010
0000
,  // measure 50
0001
0100
0020
0000
1000
0000
0230
0000
,  // measure 51
0001
0010
0301
0001
,  // measure 52
0010
0100
2000
0000
0010
0000
3001
1000
,  // measure 53
0000
1000
1000
0100
0010
0000
0010
0000
,  // measure 54
0001
0100
0001
0000
1000
0010
1000
0000
,  // measure 55
0100
0000
1000
0000
0001
0010
0200
0000
,  // measure 56
0000
0000
1000
0000
1000
0000
0000
0300
,  // measure 57
1100
0000
0000
0000
;

//---------------dance-single - ----------------
#NOTES:
     dance-single:
     X-Scale 3:
     Beginner:
     2:
     0.140874,0.189164,0.056891,0.000000,0.000000,104.000000,98.000000,6.000000,0.000000,0.000000,0.000000,0.140874,0.189164,0.056891,0.000000,0.000000,104.000000,98.000000,6.000000,0.000000,0.000000,0.000000:
// measure 0
0000
0000
0000
0000
,  // measure 1
0000
0000
0000
0000
,  // measure 2
0000
0000
0000
0000
,  // measure 3
0000
0000
0000
0000
,  // measure 4
0000
0000
0001
0000
,  // measure 5
0000
0000
1000
0000
,  // measure 6
0000
0000
1000
0000
,  // measure 7
0001
0000
0000
0000
,  // measure 8
0000
0000
1001
0000
,  // measure 9
1000
0000
0010
0000
,  // measure 10
1000
0000
0001
0000
,  // measure 11
0100
0000
0001
0000
,  // measure 12
0010
0000
0100
0000
,  // measure 13
0010
0000
0001
0000
,  // measure 14
1000
0000
0010
0000
,  // measure 15
1000
0000
0001
0000
,  // measure 16
0010
0000
0100
0000
,  // measure 17
0010
0000
0001
0000
,  // measure 18
1000
0000
0100
0000
,  // measure 19
1000
0000
0001
0000
,  // measure 20
0100
0000
0010
0000
,  // measure 21
1000
0000
0100
0000
,  // measure 22
1000
0000
0001
0000
,  // measure 23
1000
0000
0001
0000
,  // measure 24
1000
0000
1001
0000
,  // measure 25
0000
0000
0000
0000
,  // measure 26
0000
0000
0100
0000
,  // measure 27
0000
1000
0000
0001
,  // measure 28
0000
1000
0000
0010
,  // measure 29
0000
0000
0000
0000
,  // measure 30
0110
0000
0000
0010
,  // measure 31
0000
0100
0000
0001
,  // measure 32
0000
1000
0000
0000
,  // measure 33
0000
0000
0100
0000
,  // measure 34
0010
0000
0100
0000
,  // measure 35
0010
0000
0110
0000
,  // measure 36
0100
0000
1000
0000
,  // measure 37
0001
0000
0100
0000
,  // measure 38
0001
0000
0000
0000
,  // measure 39
1001
0000
1000
0000
,  // measure 40
0010
0000
1000
0000
,  // measure 41
0001
0000
0100
0001
,  // measure 42
0001
0000
0010
0000
,  // measure 43
0100
0000
0010
0000
,  // measure 44
0001
0000
1000
0000
,  // measure 45
0010
1000
1000
0000
,  // measure 46
0001
0000
0010
0000
,  // measure 47
0100
0000
1000
0000
,  // measure 48
0010
0000
1000
0000
,  // measure 49
0001
0000
0100
0000
,  // measure 50
0001
0000
0010
0100
,  // measure 51
0100
0000
1000
0000
,  // measure 52
0100
0000
0010
0000
,  // measure 53
0001
0000
1000
0000
,  // measure 54
0010
0000
1000
0000
,  // measure 55
0001
0000
0010
0000
,  // measure 56
0100
1000
1000
0000
,  // measure 57
1001
0000
0000
0000
;
