#VERSION:0.83;
#TITLE:Hold On;
#SUBTITLE:;
#ARTIST:NERVO;
#TITLETRANSLIT:;
#SUBTITLETRANSLIT:;
#ARTISTTRANSLIT:;
#GENRE:Commercial House;
#ORIGIN:;
#CREDIT:;
#BANNER:hold on-bn.png;
#BACKGROUND:hold on-bg.png;
#PREVIEWVID:;
#JACKET:hold on-jacket.png;
#CDIMAGE:;
#DISCIMAGE:;
#LYRICSPATH:;
#CDTITLE:cdtitle.png;
#MUSIC:hold on.ogg;
#OFFSET:0.000000;
#SAMPLESTART:46.875000;
#SAMPLELENGTH:15.000000;
#SELECTABLE:YES;
#BPMS:0.000=64.000,
42.000=128.000,
54.000=64.000,
56.000=128.000,
88.000=64.000,
92.000=128.000,
124.000=64.000,
164.000=128.000,
176.000=64.000,
178.000=128.000,
242.000=64.000;
#STOPS:;
#DELAYS:;
#WARPS:;
#TIMESIGNATURES:0.000=4=4;
#TICKCOUNTS:0.000=4;
#COMBOS:0.000=1;
#SPEEDS:0.000=1.000=0.000=0;
#SCROLLS:0.000=1.000;
#FAKES:;
#LABELS:0.000=Song Start;
#BGCHANGES:
;
#KEYSOUNDS:;
#ATTACKS:
;

//---------------dance-single - ----------------
#NOTEDATA:;
#CHARTNAME:X-Scale 11;
#STEPSTYPE:dance-single;
#DESCRIPTION:;
#CHARTSTYLE:;
#DIFFICULTY:Hard;
#METER:8;
#RADARVALUES:0.440897,0.603782,0.090773,0.448191,0.408478,544.000000,528.000000,16.000000,79.000000,0.000000,0.000000,0.000000,0.000000,0.000000,0.440897,0.603782,0.090773,0.448191,0.408478,544.000000,528.000000,16.000000,79.000000,0.000000,0.000000,0.000000,0.000000,0.000000;
#CREDIT:;
#NOTES:
// measure 0
0000
0000
0000
0000
,  // measure 1
0000
0000
0000
0000
,  // measure 2
0000
0000
1002
0023
,  // measure 3
0230
0000
0000
0000
2300
0000
0000
3000
1200
0000
0000
0000
0000
0000
0001
0000
,  // measure 4
0320
0000
0000
0000
0230
0000
0000
0000
2300
0000
0000
3000
0002
0000
0000
0003
,  // measure 5
0100
0000
0010
0000
1000
0000
0001
0100
0002
0000
0000
0000
1000
0000
0000
0000
,  // measure 6
1003
0010
0100
0001
2000
0000
3000
0002
0023
2000
3000
0200
0300
0002
0003
0000
,  // measure 7
0031
0010
0100
1000
0002
0000
0003
2000
3200
0002
0003
0020
0030
2000
3000
0000
,  // measure 8
2300
0000
0000
0000
0000
0000
0000
0000
0002
0000
0000
0000
0000
0000
0000
3003
1001
0000
1000
0000
0100
0000
0001
0000
0100
0000
2000
0000
0010
0000
0000
0000
,  // measure 9
3100
0000
1000
0000
0001
0000
0010
0000
0100
0000
2000
0000
0001
0000
0000
0000
3010
0000
0000
1000
0000
0100
0010
0000
0001
0000
0010
0000
1000
0000
0010
0000
,  // measure 10
0001
0000
0000
1000
0000
0001
0100
0000
0001
0000
0010
0000
0100
0000
0010
0000
0001
0000
0000
0000
1000
0000
0000
0000
0100
0000
0000
0000
1000
0000
0000
0000
,  // measure 11
0010
0200
1000
0000
0301
0010
0001
1000
,  // measure 12
0100
0000
2000
0000
0010
0000
0000
0000
3100
1000
0100
1000
0100
1000
0100
1000
,  // measure 13
0001
0100
0001
0100
0001
0100
0001
0100
0002
0000
0000
0000
2003
0000
0000
3010
,  // measure 14
1010
0001
1000
0001
0010
0200
0001
0000
,  // measure 15
1300
0100
0010
0100
1000
0002
0010
0000
,  // measure 16
0103
1000
0100
0001
0100
0020
0001
0000
,  // measure 17
1030
0000
1000
0001
1000
0000
0020
0000
0100
0000
0000
1000
0030
0000
1000
0000
,  // measure 18
1001
0000
0000
1000
0001
0000
1000
0000
0100
0000
0010
0000
0001
0000
0010
0000
,  // measure 19
0001
0000
0000
1000
0010
0000
1000
0000
0001
0000
0100
0000
0001
0000
0100
0000
,  // measure 20
0010
0000
0000
1000
0100
0000
1000
0000
0010
0000
0100
0000
0010
0000
0100
0000
,  // measure 21
0001
0000
0000
0100
0010
0000
0010
0000
2000
0000
0001
0000
0000
0000
3001
0000
,  // measure 22
1001
0000
0000
0001
1000
0000
0100
0000
0000
0000
0001
0000
0000
0100
0000
0000
1000
0000
0000
0100
1000
0000
0001
0000
0000
0000
1000
0000
0000
0001
0000
0000
,  // measure 23
1001
0000
0000
1000
0001
0000
0001
0000
0010
0000
1000
0000
0010
0000
0001
0000
,  // measure 24
0100
0000
0000
0001
1000
0000
2000
0000
0010
0000
3020
0000
0100
0000
0230
0000
,  // measure 25
0001
0000
0300
0001
1000
0000
0001
0000
1000
0000
0100
0000
1000
0001
1000
0000
,  // measure 26
0010
2000
0001
3002
0010
0023
0100
0230
,  // measure 27
0010
0000
0300
0010
0100
0000
1000
0000
0001
0000
0100
0000
0001
1000
0000
0000
,  // measure 28
1000
0000
0000
0001
0100
0000
0002
0000
0010
0000
0023
0000
0100
0000
0230
0000
,  // measure 29
1000
0000
0000
0010
0000
0000
1300
0000
0100
0000
0010
0000
0100
1000
0000
0000
,  // measure 30
0010
0000
0000
1000
0001
0000
0010
0000
0001
0000
0100
0000
0010
0100
0000
0000
,  // measure 31
0110
0000
0000
0100
0010
0000
1000
0000
0000
0000
0001
0000
0000
1000
0000
0000
0001
0000
0000
0010
0001
0000
1000
0000
0000
0100
0000
0000
0000
0010
0000
0000
,  // measure 32
0001
0000
0000
1000
0010
0000
1000
0000
0000
0001
0000
0000
0000
0010
0000
0000
0001
0000
0000
1000
0100
0000
1000
0000
0000
0000
0001
0000
0000
1000
0000
0000
,  // measure 33
0001
0000
0000
0100
0001
0000
1000
0000
0000
0010
0000
0000
0000
1000
0000
0000
0100
0000
0000
0010
0001
0000
1000
0000
0000
0000
0010
0000
0000
1000
0000
0000
,  // measure 34
0010
0000
0000
0100
0010
0000
1000
0000
0000
0000
1000
0000
0000
0001
0000
0000
0100
0000
0000
0010
0100
0000
0001
0000
0000
0000
0010
0000
0000
0010
0000
0000
,  // measure 35
0011
0000
0000
0000
0001
0000
0000
0000
0010
0000
0000
0000
1000
0000
0000
0000
0010
0000
0001
0000
0010
0000
0100
0000
0010
0000
0000
0100
0000
0000
0100
0000
,  // measure 36
1000
0000
0000
0000
0001
0000
0000
0000
1000
0000
0000
0000
0010
0000
0000
0000
1000
0000
0100
0000
0010
0000
0001
0000
0010
0000
0000
0001
0000
0000
0001
0000
,  // measure 37
0100
0000
0000
0000
0001
0000
0000
0000
0010
0000
0000
0000
0100
0000
0000
0000
1000
0000
0001
0000
0010
0000
0001
0000
0100
0000
0000
0010
0000
0000
0100
0000
,  // measure 38
0001
0000
0000
0000
0001
0000
0000
0000
1000
0000
0000
0000
0010
0000
0000
0000
1000
0000
0100
0000
0010
0000
0001
0000
0100
0000
0000
0001
0000
0000
0001
0000
,  // measure 39
0101
0100
0010
1000
0010
2000
0001
0000
3100
1000
0001
0010
0100
2000
0001
0000
,  // measure 40
3010
0000
0000
1000
0000
0100
1000
0000
0001
0000
0010
0000
0001
0000
0010
0000
0001
0000
0000
0100
0000
0001
1000
0000
0010
0000
0001
0000
0010
0000
0100
0000
,  // measure 41
0101
0001
1000
0010
0100
0200
1000
0000
,  // measure 42
0301
0100
0010
1000
0010
0020
0001
0000
,  // measure 43
1030
0010
1000
0010
1000
0010
1000
0010
0100
0001
0100
0001
0100
0001
0100
0001
,  // measure 44
0200
0000
0000
0000
0302
0000
0000
0013
0011
0000
1000
0000
0001
0000
0010
0000
,  // measure 45
0001
2000
0100
0000
3010
0001
0010
1000
,  // measure 46
0010
0200
1000
0000
0310
0100
0001
0100
,  // measure 47
0010
0000
2000
0000
0001
0000
0000
0000
3100
0000
0100
1000
0100
0000
0010
0000
,  // measure 48
0002
0100
0000
0103
0101
1000
0001
0010
,  // measure 49
0100
0020
0001
0000
0031
0010
0100
1000
,  // measure 50
0001
0100
0010
1000
0002
0000
1000
2003
,  // measure 51
0010
3020
0100
0000
0130
0010
1000
0100
,  // measure 52
0020
0000
0001
0000
0000
0000
0130
0000
0110
0000
0000
0100
1000
0000
0010
0000
,  // measure 53
1000
0000
0002
0000
0100
0000
0103
0000
0001
0000
0000
0010
0001
0000
1000
0000
,  // measure 54
0010
0000
0020
0000
0100
0000
0130
0000
0010
0000
0000
0010
1000
0000
0001
0000
,  // measure 55
0100
0000
0200
0000
0010
0000
0310
0000
0100
0000
0000
0001
0010
0000
0001
0000
,  // measure 56
1000
0000
0100
0000
0010
0000
0001
0000
0011
0000
0000
0001
0010
0000
0001
0000
,  // measure 57
1000
0000
0002
0000
0100
0000
0103
0000
0001
0000
0000
1000
0010
0000
0001
0000
,  // measure 58
0010
0000
2000
0000
0100
0000
3100
0000
1000
0000
0000
1000
0100
0000
1000
0000
,  // measure 59
0001
0020
0100
0130
0010
0001
0010
0100
,  // measure 60
2000
0001
0000
3100
1200
0000
2300
0000
,  // measure 61
3002
0000
0000
0000
0203
0000
0000
0300
0020
0000
0000
0000
0000
0000
0000
0000
,  // measure 62
0130
0010
2000
3002
,  // measure 63
0023
0000
0000
0000
0230
0000
0000
0300
2000
0000
0000
0000
0000
0000
0001
0000
,  // measure 64
3002
0020
0033
0000
;

//---------------dance-single - ----------------
#NOTEDATA:;
#CHARTNAME:X-Scale 8;
#STEPSTYPE:dance-single;
#DESCRIPTION:;
#CHARTSTYLE:;
#DIFFICULTY:Medium;
#METER:6;
#RADARVALUES:0.339588,0.457410,0.011347,0.521944,0.238279,419.000000,417.000000,2.000000,92.000000,0.000000,0.000000,0.000000,0.000000,0.000000,0.339588,0.457410,0.011347,0.521944,0.238279,419.000000,417.000000,2.000000,92.000000,0.000000,0.000000,0.000000,0.000000,0.000000;
#CREDIT:;
#NOTES:
// measure 0
0000
0000
0000
0000
,  // measure 1
0000
0000
0000
0000
,  // measure 2
0000
0000
2000
3002
,  // measure 3
0203
0000
0000
0000
0320
0000
0000
0030
2000
0000
0000
0000
0000
0000
3200
0000
,  // measure 4
2300
3200
0310
0001
,  // measure 5
1000
0000
0001
0000
0010
0000
0100
1000
0100
0000
0000
0000
1000
0000
0000
0000
,  // measure 6
0001
0000
0100
0000
0010
0000
0000
1000
0001
0000
0000
0000
1000
0000
0000
0000
,  // measure 7
0100
0000
0010
0000
0001
0000
0000
1000
0001
0000
0000
0000
0010
0000
0000
0000
,  // measure 8
0002
0000
0000
0000
2000
0000
0000
3003
1001
0000
1000
0000
0100
0010
0001
0000
,  // measure 9
1000
0000
0001
0000
0100
0010
1000
0000
0001
0000
0010
0000
0001
1000
0100
1000
,  // measure 10
0001
0000
0010
0000
0100
1000
0001
1000
0100
0000
0001
0000
0100
0000
1000
0000
,  // measure 11
0100
0020
0000
0000
0031
0010
0100
0010
,  // measure 12
0001
2000
0000
0000
3010
1000
0001
1000
,  // measure 13
0010
0200
0000
0000
0001
0001
0302
0000
,  // measure 14
1003
0000
0001
0000
0010
0100
1000
0000
,  // measure 15
0001
0000
1000
0000
0010
0100
0001
0000
,  // measure 16
0100
0000
0010
0000
0001
0010
1000
0000
,  // measure 17
0001
0000
0000
0010
0000
0000
0001
0000
1000
0000
0000
0100
0000
0000
0100
0000
,  // measure 18
1000
0000
0001
0100
0010
0100
0001
0000
,  // measure 19
0010
0000
0100
1000
0001
1000
0100
0000
,  // measure 20
0010
0000
0001
0100
1000
0100
0001
0000
,  // measure 21
1000
0100
0010
0001
2000
0000
0001
3002
,  // measure 22
1003
0000
0000
0100
0000
0000
1000
0000
0000
0000
0001
0000
0000
0001
0000
0000
0100
0000
0000
0010
0000
0000
0100
0000
0000
0000
0001
0000
0000
0001
0000
0000
,  // measure 23
0201
0000
0010
0302
0010
0003
0001
0000
,  // measure 24
1000
0000
0001
0020
1030
0020
0130
0020
,  // measure 25
0031
0000
0000
0100
0000
0000
0010
0000
1000
0000
0010
0000
0000
0000
1000
0000
,  // measure 26
0010
0001
0010
0200
1300
0200
0310
0200
,  // measure 27
0301
0000
0000
1000
0000
0000
0001
0000
0010
0000
0001
0000
0000
0000
1000
0000
,  // measure 28
0010
0100
0001
0020
1030
0020
0130
0020
,  // measure 29
0031
0000
0000
1000
0000
0000
0010
0000
0100
0000
0010
0000
0000
1000
0000
0000
,  // measure 30
0001
0000
0000
0010
0000
0000
0001
0000
1000
0000
0001
0000
0000
0010
0000
0000
,  // measure 31
0002
0000
0000
0000
0003
0000
2000
0000
0000
0000
3100
0000
0000
1000
0000
0000
0001
0000
0000
0010
0000
0000
0002
0000
0003
0000
2000
0000
3000
0000
0200
0000
,  // measure 32
1000
0000
0000
0010
0000
0000
1300
0000
0000
0000
0100
0000
0000
0010
0000
0000
0001
0000
0200
0000
0300
0000
0002
0000
0003
0000
0020
0000
0030
0000
0200
0000
,  // measure 33
1000
0000
0300
0100
0000
0000
1000
0000
0000
0000
0001
0000
0000
0100
0000
0000
0010
0000
0002
0000
0003
0000
0020
0000
0030
0000
2000
0000
3000
0000
0002
0000
,  // measure 34
1000
0000
0000
0010
0000
0000
1003
0000
0000
0000
0001
0000
0000
0100
0000
0000
1000
0000
0000
0100
0000
0000
0010
0000
0000
0000
1000
0000
0100
0000
0010
0000
,  // measure 35
0002
0000
0010
0000
2003
0000
0010
0000
3100
0000
2000
0000
3002
0000
0013
0100
,  // measure 36
1000
0000
0000
0000
0001
0000
0000
0000
1000
0000
0000
0000
0010
0000
0000
0000
0100
0000
1000
0000
0100
0000
0001
0000
0200
0000
0000
0010
0000
0300
0020
0000
,  // measure 37
2030
0000
0000
0000
0100
0000
0000
0000
3002
0000
0000
0000
0100
0000
0000
0000
0013
0000
0001
0000
1000
0000
0010
0000
0200
0000
0000
0001
0300
0000
0002
0000
,  // measure 38
2003
0000
0000
0000
0100
0000
0000
0000
3002
0000
0000
0000
0100
0000
0000
0000
0013
0000
0001
0000
1000
0000
0010
0000
0200
0000
0000
0010
0300
0000
0020
0000
,  // measure 39
1030
0000
0001
0000
1000
0100
0010
0000
0001
0000
1000
0000
0001
0100
0010
0000
,  // measure 40
1000
0000
0000
0100
0000
0000
1000
0000
0001
0000
0010
0000
1000
0000
0010
0000
0001
0000
0100
0000
0010
0000
1000
0000
0002
0000
0000
0000
0000
0000
0023
0000
,  // measure 41
0031
0010
1000
0010
0001
0200
0000
0000
,  // measure 42
0310
0100
0001
1000
0010
2000
0000
0000
,  // measure 43
3100
0010
0001
1000
0001
0020
0000
0000
,  // measure 44
1000
0100
0032
0000
1003
0100
0001
0000
,  // measure 45
0001
0100
1000
0000
0001
0010
1000
0000
,  // measure 46
1000
0010
0001
0000
0100
0010
1000
0000
,  // measure 47
0001
0000
0100
0000
0010
0000
0000
0000
1000
0000
0000
0100
1000
0000
0001
0000
,  // measure 48
0020
0000
0000
0230
1300
0100
0001
0000
,  // measure 49
0001
0100
1000
0000
0001
0010
1000
0000
,  // measure 50
1000
0010
0001
1000
0002
0000
0100
0203
,  // measure 51
0000
0300
0010
0000
1000
0010
0100
0001
,  // measure 52
2000
0000
0000
0000
0000
0000
3020
0000
1030
0000
0000
0001
0000
0000
0010
0000
,  // measure 53
0100
0000
2000
0000
0000
0000
3001
0000
1000
0000
0000
0100
0000
0000
1000
0000
,  // measure 54
0001
2000
0000
3010
0020
0000
0130
0001
,  // measure 55
1000
0000
0020
0000
0000
0000
1030
0000
0010
0000
0000
1000
0001
0000
0010
0000
,  // measure 56
0200
0000
0000
0000
0000
0000
2300
0000
3001
0000
0000
1000
0000
0000
0010
0000
,  // measure 57
0100
0000
0002
0000
0000
0000
0013
0000
0001
0000
0000
1000
0000
0000
0010
0000
,  // measure 58
1000
0200
0000
0310
0002
0000
1003
0001
,  // measure 59
0010
0200
0000
1300
0100
0001
0100
0010
,  // measure 60
0002
0000
0000
2003
3200
0000
2300
0000
,  // measure 61
3002
0000
0000
0000
0023
0000
0000
0030
0200
0000
0000
0000
0000
0000
0000
0000
,  // measure 62
2300
3200
2300
3020
,  // measure 63
0230
0000
0000
0000
0302
0000
0000
0003
0020
0000
0000
0000
0000
0000
0000
0000
,  // measure 64
0230
2000
3300
0000
;

//---------------dance-single - ----------------
#NOTEDATA:;
#CHARTNAME:X-Scale 5;
#STEPSTYPE:dance-single;
#DESCRIPTION:;
#CHARTSTYLE:;
#DIFFICULTY:Easy;
#METER:3;
#RADARVALUES:0.230985,0.329336,0.034040,0.295012,0.053896,285.000000,279.000000,6.000000,52.000000,0.000000,0.000000,0.000000,0.000000,0.000000,0.230985,0.329336,0.034040,0.295012,0.053896,285.000000,279.000000,6.000000,52.000000,0.000000,0.000000,0.000000,0.000000,0.000000;
#CREDIT:;
#NOTES:
// measure 0
0000
0000
0000
0000
,  // measure 1
0000
0000
0000
0000
,  // measure 2
0000
0000
0002
1000
,  // measure 3
0010
0000
0100
0000
2003
0000
0000
0010
,  // measure 4
3020
0000
0130
0001
,  // measure 5
1000
0001
0010
0100
,  // measure 6
1000
0001
0100
0010
,  // measure 7
1000
0010
0100
1000
,  // measure 8
0100
0000
0001
0000
0101
0100
0001
1000
,  // measure 9
0100
0000
1000
0000
0010
0000
0100
0000
0001
0000
1000
0000
0001
0020
0000
0000
,  // measure 10
0032
2003
3002
0023
0130
0000
1000
0000
,  // measure 11
0001
2000
0000
0000
3100
0000
0010
0000
,  // measure 12
0001
0200
0000
0000
0310
0000
0100
0000
,  // measure 13
0002
2000
0000
0000
0000
0000
3003
0000
,  // measure 14
1001
1000
0010
0100
,  // measure 15
0001
0010
0001
1000
,  // measure 16
0001
0100
1000
0100
,  // measure 17
0010
1000
0001
0000
,  // measure 18
1000
0100
0010
0001
,  // measure 19
1000
0010
0100
0001
,  // measure 20
1000
0100
0001
0100
,  // measure 21
0010
0000
0001
0000
2000
0000
0000
3100
,  // measure 22
1100
0000
0001
0000
,  // measure 23
1001
1000
0010
1000
,  // measure 24
0001
0000
0010
0002
0000
2003
0000
3002
,  // measure 25
1000
0003
0001
0000
0010
0000
1000
0000
,  // measure 26
0010
0000
0001
2000
0000
3200
0000
0320
,  // measure 27
0001
0030
0010
0000
0001
0000
1000
0000
,  // measure 28
0010
0000
0100
0002
0000
0023
0000
0230
,  // measure 29
0001
1300
0100
1000
,  // measure 30
0001
0010
0100
1000
,  // measure 31
0002
0000
0000
0023
0000
0000
0000
0030
0000
0000
0000
0100
0000
1000
0000
0002
,  // measure 32
0000
0000
0000
0000
0000
0000
0003
0000
0000
0000
0000
0000
0000
0000
0100
0000
0010
0000
1000
0000
0000
0000
0002
0000
0000
0003
2000
0000
0000
3000
0020
0000
,  // measure 33
0000
0000
0030
0000
0000
0000
0000
0000
0000
0000
0000
0000
0000
0000
1000
0000
0001
0000
1000
0000
0000
0000
0200
0000
0000
0300
0020
0000
0000
0030
0002
0000
,  // measure 34
0000
0000
0000
0003
0000
0000
0000
0000
2000
0000
0000
0000
0000
0000
0000
0000
,  // measure 35
3100
1000
0001
1000
0100
0010
0001
0000
,  // measure 36
0100
0000
0010
0000
0001
0000
0010
0000
1000
0000
0001
0000
0200
0000
0000
0001
,  // measure 37
0301
0000
0100
0000
1000
0000
0100
0000
0010
0000
1000
0000
0002
0000
0000
1000
,  // measure 38
1003
0000
0001
0000
0100
0000
0001
0000
1000
0000
0100
0000
0020
0000
0000
0001
,  // measure 39
0031
0010
0100
1000
0001
0010
0100
1000
,  // measure 40
0001
0000
0100
0000
0010
2000
0000
0000
3200
0000
0302
0000
0203
0000
2300
0000
,  // measure 41
3001
0000
1000
0000
0100
0020
0000
0000
,  // measure 42
0031
0000
0100
0000
0010
2000
0000
0000
,  // measure 43
3001
0000
1000
0000
0100
0020
0000
0000
,  // measure 44
0002
0033
1100
0001
,  // measure 45
1000
0100
1000
0001
,  // measure 46
0010
0100
0010
0001
,  // measure 47
1000
0100
0001
0100
,  // measure 48
1000
0000
0001
0100
,  // measure 49
0010
1000
0001
0100
,  // measure 50
0010
1000
0001
0010
,  // measure 51
0001
1000
0100
0000
,  // measure 52
1000
0000
1100
1000
,  // measure 53
0001
0010
0100
0000
1000
0000
0010
0000
,  // measure 54
0100
0001
1000
0000
0001
0000
0010
0000
,  // measure 55
0001
1000
0100
0000
0010
0000
0001
0000
,  // measure 56
2000
0000
0000
3002
1003
0000
0001
0000
,  // measure 57
0010
0100
1000
0000
0001
0000
0100
0000
,  // measure 58
0010
1000
0001
0000
1000
0000
0100
0000
,  // measure 59
0010
0001
1000
0000
0001
0000
0100
0000
,  // measure 60
0002
0000
0000
1000
2003
0000
0100
0000
,  // measure 61
0001
0010
3002
0000
,  // measure 62
1003
1000
0020
0001
,  // measure 63
0100
0000
1000
0000
2030
0000
0000
0001
,  // measure 64
3002
0100
0003
0000
;

//---------------dance-single - ----------------
#NOTEDATA:;
#CHARTNAME:X-Scale 1;
#STEPSTYPE:dance-single;
#DESCRIPTION:;
#CHARTSTYLE:;
#DIFFICULTY:Beginner;
#METER:1;
#RADARVALUES:0.102120,0.164668,0.011347,0.005673,0.000000,126.000000,124.000000,2.000000,1.000000,0.000000,0.000000,0.000000,0.000000,0.000000,0.102120,0.164668,0.011347,0.005673,0.000000,126.000000,124.000000,2.000000,1.000000,0.000000,0.000000,0.000000,0.000000,0.000000;
#CREDIT:;
#NOTES:
// measure 0
0000
0000
0000
0000
,  // measure 1
0000
0000
0000
0000
,  // measure 2
0000
0000
0001
0000
,  // measure 3
0000
0000
0100
0000
,  // measure 4
0010
0000
0100
0000
,  // measure 5
0000
0000
0001
0000
,  // measure 6
0000
0000
1000
0000
,  // measure 7
0000
0000
0100
0000
,  // measure 8
0010
0000
0001
1000
,  // measure 9
0001
1000
0100
0010
,  // measure 10
0100
0010
0001
0000
,  // measure 11
1000
0000
0100
0000
,  // measure 12
1000
0000
0001
0000
,  // measure 13
0010
0000
0001
0000
,  // measure 14
1001
0000
1000
0000
,  // measure 15
0100
0000
1000
0000
,  // measure 16
0001
0000
0010
0000
,  // measure 17
0001
0000
1000
0000
,  // measure 18
0010
0000
0100
0000
,  // measure 19
0010
0000
1000
0000
,  // measure 20
0001
0000
1000
0000
,  // measure 21
0100
0000
0010
0000
,  // measure 22
0001
0000
0000
0000
,  // measure 23
1000
0000
0100
0000
,  // measure 24
1000
0000
0001
0000
,  // measure 25
0100
0000
0001
0000
,  // measure 26
1000
0000
0100
0000
,  // measure 27
0010
0000
0001
0000
,  // measure 28
1000
0000
0100
0000
,  // measure 29
1000
0000
0001
0000
,  // measure 30
0100
0000
0001
0000
,  // measure 31
1000
0000
0100
0000
,  // measure 32
0010
0000
0001
0000
,  // measure 33
1000
0000
0010
0000
,  // measure 34
0100
0000
0001
0000
,  // measure 35
1000
0000
0010
0000
,  // measure 36
0100
0000
0010
0000
,  // measure 37
1000
0000
0001
0000
,  // measure 38
1000
0000
0100
0000
,  // measure 39
1000
0100
0010
0001
,  // measure 40
1000
0100
0010
0001
,  // measure 41
1000
0000
0001
0000
,  // measure 42
1000
0000
0010
0000
,  // measure 43
0100
0000
0010
0000
,  // measure 44
1000
0000
1001
0000
,  // measure 45
1000
0000
0001
0000
,  // measure 46
0010
0000
0001
0000
,  // measure 47
0100
0000
0010
0000
,  // measure 48
1000
0000
0001
0000
,  // measure 49
1000
0000
0100
0000
,  // measure 50
0010
0000
0001
0000
,  // measure 51
1000
0000
0001
0000
,  // measure 52
0010
0000
0001
0000
,  // measure 53
1000
0000
0001
0000
,  // measure 54
0100
0000
0010
0000
,  // measure 55
0100
0000
0001
0000
,  // measure 56
1000
0000
0100
0000
,  // measure 57
1000
0000
0001
0000
,  // measure 58
0010
0000
0100
0000
,  // measure 59
1000
0000
0001
0000
,  // measure 60
1000
0000
0010
0000
,  // measure 61
0000
0000
1000
0000
,  // measure 62
0000
0000
0001
0000
,  // measure 63
0000
0000
1000
0000
,  // measure 64
0200
0000
0300
0000
;
