#TITLE:日出ズル場所;
#SUBTITLE:;
#ARTIST:オメでたい頭でなにより;
#TITLETRANSLIT:Hi Izuru Basho;
#SUBTITLETRANSLIT:;
#ARTISTTRANSLIT:Happy Heads NANIYORI;
#GENRE:Rock;
#CREDIT:;
#BANNER:Hi Izuru Basho-bn.png;
#BACKGROUND:Hi Izuru Basho-bg.png;
#LYRICSPATH:;
#CDTITLE:cdtitle.png;
#MUSIC:Hi Izuru Basho.ogg;
#OFFSET:-0.020000;
#SAMPLESTART:69.120003;
#SAMPLELENGTH:15.360001;
#SELECTABLE:YES;
#BPMS:0.000000=124.999992
;
#STOPS:
;
#BGCHANGES:0.000=Hi Izuru Basho.avi=1.000=1=0=0=StretchNoLoop==CrossFade==,
99999=-nosongbg-=1.000=0=0=0 // don't automatically add -songbackground-
;
#KEYSOUNDS:;
#ATTACKS:;

//---------------dance-single - ----------------
#NOTES:
     dance-single:
     X-Scale 13:
     Hard:
     9:
     0.691266,0.706212,0.345633,0.074731,0.686595,518.000000,481.000000,37.000000,8.000000,0.000000,0.000000,0.691266,0.706212,0.345633,0.074731,0.686595,518.000000,481.000000,37.000000,8.000000,0.000000,0.000000:
// measure 0
0000
0000
0000
0000
,  // measure 1
0000
0000
0000
0000
,  // measure 2
0000
0000
0000
0000
,  // measure 3
1100
0000
1000
0000
0001
0000
0100
0010
1000
0000
0001
0010
0100
0000
0000
0000
,  // measure 4
0110
0000
0100
0000
1000
0010
0000
0010
0100
0000
0001
0000
0010
0000
0001
0000
,  // measure 5
1000
0000
0100
0000
0010
0001
0000
0001
1000
0000
0010
0000
0100
0010
0000
0010
,  // measure 6
1000
0000
0001
0000
1000
0100
0000
0100
0001
0000
1000
0000
0001
0000
0010
0000
,  // measure 7
0100
0000
1000
0000
0010
0100
0000
0100
1000
0000
0001
1000
0001
0000
0010
0000
,  // measure 8
0011
0000
0010
0000
0001
1000
0000
1000
0100
0000
0010
0000
0001
0000
1000
0000
,  // measure 9
0010
0000
0100
0000
0001
0010
0000
0010
0100
0000
1000
0000
0001
0000
1000
0100
,  // measure 10
0010
0000
0001
0000
1000
0010
0000
0010
0001
0000
0100
0000
0010
0000
1000
0000
,  // measure 11
0001
0000
0100
0000
0010
0100
0000
0100
1000
0000
0001
1000
0001
0100
0001
1000
,  // measure 12
0001
0000
0000
0010
0000
0000
0000
0000
0000
0100
0000
0000
1000
0000
0000
0000
0000
0000
0100
0000
1000
0000
0100
0000
1000
0000
0000
0100
0000
0000
1000
0000
0000
0000
0000
0000
0010
0000
0000
0000
0000
0000
0100
0000
0000
0000
0000
0000
,  // measure 13
0001
0010
0100
0010
0001
0100
0010
1000
0001
0000
0100
0000
0001
0000
1000
0000
,  // measure 14
1000
0010
0100
0010
1000
0000
0001
0010
1000
0000
1000
0010
0001
0000
0100
0000
,  // measure 15
0001
0100
0010
1000
0000
0001
0100
0010
1000
0000
0100
0010
0001
0000
1000
0000
,  // measure 16
0100
0000
0000
1000
0100
0000
1000
0000
0100
0000
0000
1000
0100
0000
1000
0000
0100
0000
1000
0000
0001
0000
1000
0000
0001
0000
0000
0000
0010
0000
0100
0000
,  // measure 17
0010
0000
0000
0000
0011
0000
1000
0000
0001
0000
0100
0010
1000
0000
0001
0000
,  // measure 18
1001
0000
0000
1000
0000
0000
0100
0000
0000
0000
1000
0000
0000
0000
0001
0000
0010
0000
0001
0000
1000
0000
0001
0000
0010
0000
0000
0000
0100
0000
0000
0000
,  // measure 19
1000
0000
0100
1000
0000
0001
0000
0100
0001
0000
1000
0100
0010
0000
0001
0000
,  // measure 20
0011
0000
0010
0001
0000
0001
1000
0000
1000
0100
0000
0100
0010
0000
0010
0000
,  // measure 21
0001
0000
0001
0100
0000
0100
1000
0000
1000
0001
0000
0001
1000
0000
1100
0000
,  // measure 22
1100
0000
0100
1000
0000
1000
0001
0000
0001
0010
0000
0010
0100
0000
0100
0010
,  // measure 23
0000
0010
0001
0000
1000
0000
0010
1000
0010
0000
0000
0100
0010
1000
0001
0100
,  // measure 24
0010
0000
0000
1000
0100
0000
1000
0000
0001
0000
0000
0010
0001
0000
1000
0000
,  // measure 25
0010
0001
0010
0100
0010
1000
0010
0100
,  // measure 26
0001
0100
0001
0100
0001
0100
0001
0100
0010
1000
0010
1000
0010
1000
0010
1000
,  // measure 27
0002
0000
0000
0000
1003
0000
0100
0010
0001
0000
1000
0000
1001
0000
0000
0000
,  // measure 28
1100
0000
0000
0000
0000
0000
1000
0100
1000
0000
0000
0000
0001
0000
0100
0000
,  // measure 29
0101
0000
0000
0000
0000
0000
1000
0010
0100
0000
0001
0000
0100
0000
0001
0000
,  // measure 30
0101
0000
0000
0000
0000
0000
1000
0100
1000
0000
0001
0100
0000
0100
1000
0000
,  // measure 31
1100
0000
0000
1000
0001
1000
0100
0000
0010
0001
1000
0001
0010
0001
1000
0001
,  // measure 32
0010
0000
0000
0100
0000
0000
0010
0000
0110
0000
0000
0100
1000
0000
0001
0000
,  // measure 33
1001
0000
0000
1000
0000
0000
0010
1000
0010
0000
0100
0000
0001
0000
0100
0000
,  // measure 34
0010
0000
0000
1000
0000
0000
0001
0000
1001
0000
0000
0000
1100
0000
1000
0100
,  // measure 35
1000
0001
1000
0001
1000
0001
1000
0000
,  // measure 36
1001
0000
0001
1000
0001
0000
0001
1000
0001
0000
0001
1000
0001
0000
0010
0000
,  // measure 37
0100
0000
1000
0100
1000
0000
1000
0100
1000
0000
1000
0100
1000
0000
0001
0000
,  // measure 38
1001
0000
0000
1100
0000
0000
0101
0000
0100
0000
0010
0000
0001
0000
0010
0000
,  // measure 39
1010
0000
0000
0110
0000
0000
0011
0000
0010
0000
0001
0000
1000
0000
0001
0000
,  // measure 40
1001
0000
1000
0010
1000
0000
1000
0010
1000
0000
1000
0010
1000
0000
0100
0000
,  // measure 41
0010
0000
0001
0010
0001
0000
0001
0010
0001
0000
0001
0010
0001
0000
0100
0000
,  // measure 42
0101
0000
0000
1001
0000
0000
1100
0000
0100
0000
0010
0000
0100
0000
1000
0000
,  // measure 43
1100
0000
0000
0110
0000
0000
0101
0000
0001
0000
1000
0000
0001
0100
0010
1000
,  // measure 44
0001
0000
0001
0000
0100
0000
0010
0100
0010
0000
1000
0000
0100
0000
1000
0001
,  // measure 45
1000
0000
0010
0000
0100
0000
0001
0100
0001
0000
0100
0000
0010
0100
0010
0000
,  // measure 46
1000
0000
0000
0000
0000
0000
0001
0000
0000
0000
0000
1000
0100
0000
0000
0000
1000
0000
0000
0000
0000
0000
1000
0000
0001
0000
1000
0000
0010
0000
1000
0000
,  // measure 47
0001
1000
0100
0010
0001
1000
0010
0100
0001
0000
0100
0000
0002
0000
0000
0000
,  // measure 48
1003
0000
0000
0000
0100
0000
1000
0000
0001
0000
0100
0010
0100
0000
0001
0000
,  // measure 49
1000
0000
0000
0100
1000
0000
0001
0100
0001
0000
0100
0000
0010
0000
0000
0000
,  // measure 50
2010
0000
3000
0001
0012
0000
0003
1000
,  // measure 51
1100
0000
1000
0100
0010
0000
0100
0010
0001
0000
0000
1000
0010
0100
0001
0000
,  // measure 52
0102
0000
0003
1000
2100
0000
3000
0001
,  // measure 53
0101
0000
0100
0001
1000
0000
0001
0100
0002
0000
0000
0000
2003
0000
0000
0000
,  // measure 54
3000
0000
0000
0000
;

//---------------dance-single - ----------------
#NOTES:
     dance-single:
     X-Scale 10:
     Medium:
     7:
     0.505772,0.529659,0.252219,0.401681,0.228865,379.000000,352.000000,27.000000,43.000000,0.000000,0.000000,0.505772,0.529659,0.252219,0.401681,0.228865,379.000000,352.000000,27.000000,43.000000,0.000000,0.000000:
0000
0000
0000
0000
,
0000
0000
0000
0000
,
0000
0000
0000
0000
,
1001
1000
0001
0100
0010
1000
1010
0000
,
1002
1003
0100
1000
0002
0013
0001
0010
,
0200
0000
1300
0000
0001
0000
1000
0000
0200
0000
0310
0000
0001
0010
0000
0010
,
0002
1003
0100
1000
0002
0103
0001
0100
,
0020
0000
1030
0000
0001
0000
1000
0000
0020
0000
0130
0010
0100
0000
0001
0000
,
0201
0310
0100
0001
0200
0310
0100
0010
,
2000
0000
3001
0000
0100
0000
0010
0000
2000
0000
3100
0000
0010
0001
0000
0001
,
0200
0310
1000
0010
0200
0301
0100
0001
,
2000
0000
3100
0000
0010
0000
0100
0000
2000
0000
3001
1000
0001
0000
0010
0000
,
0011
0000
1000
0100
0001
0000
0001
0100
,
1000
0000
0001
0100
0010
0000
1000
0010
,
0100
0000
0000
0000
0001
0000
0010
0001
0010
0000
0100
1000
0100
0000
1000
0000
,
0001
0000
0000
0000
0010
0000
0001
0010
0001
0000
1000
0010
1000
0000
0001
0000
,
1001
0000
0000
0000
0010
0100
0000
0010
0100
0000
0001
0000
1000
0000
0100
1000
,
0100
0000
0000
0000
0010
0001
0000
0001
1000
0000
0001
0100
0001
0000
1000
0000
,
0100
0010
0000
0010
0001
0000
1000
0000
0010
0100
0000
0100
0001
0000
0010
0000
,
0100
0000
1000
0000
0001
0100
0000
0100
0010
0000
1000
0100
1000
0000
0002
0000
,
1003
0000
0000
0001
0000
0000
1000
0000
0100
0000
0000
0010
0000
0000
0100
0000
,
1000
0000
0000
0001
0000
0000
1000
0000
0100
0000
0000
0010
0000
0000
0001
0000
,
0011
0000
0000
1000
0000
0000
0100
0000
1000
0000
0000
0001
0000
0000
0010
0000
,
0001
0000
0000
0000
1000
0000
0100
1000
0200
0000
0000
0000
0320
0000
0000
0000
,
0031
1000
0001
1000
,
0010
0100
0010
0100
0001
1000
0001
1000
,
0200
0000
0000
0001
0000
0000
0010
0000
0010
0000
0000
1000
0000
0000
0010
0000
,
0310
0100
1000
0001
1000
0010
1010
0000
,
0102
0000
0000
0000
2000
0003
0100
0001
,
3002
0000
0000
0100
0203
1000
0010
0001
,
0302
0000
0000
0000
0000
0000
0000
0000
1000
0000
0000
0100
0000
0000
1000
0000
,
1000
0000
0000
0010
0000
0000
1003
0000
0001
0000
0000
0000
0100
0000
0010
0000
,
1000
0000
0000
0001
0000
0000
1000
0000
1100
0000
0000
0000
0100
0000
0010
0000
,
0011
0000
0000
1000
0000
0000
0001
0000
1001
0000
1000
0000
0100
0000
1000
0000
,
1001
0000
0000
0001
0000
0000
0010
0000
0110
0000
0000
0000
0100
0000
1000
0100
,
1000
0100
1000
0100
1000
0100
1000
0000
,
0102
0000
1000
0000
0010
0003
1000
0001
,
0010
0000
0100
1000
0001
1000
0010
0100
,
0002
0000
0003
2000
0000
3000
0002
0000
0003
0000
0010
0000
0100
0000
1000
0000
,
0002
0000
0003
2000
0000
3000
0002
0000
0003
0000
0010
0000
0100
0000
1000
0000
,
1200
0000
0001
0000
0010
0300
1000
0100
,
1000
0000
0001
0010
1000
0010
0100
1000
,
0002
0000
0003
2000
0000
3000
0002
0000
0003
0000
0010
0000
0100
0000
1000
0000
,
0002
0000
0003
2000
0000
3000
0002
0000
0003
0000
0010
0000
0100
0000
1000
0000
,
1100
0000
0000
0000
0010
0000
1000
0000
0001
0000
0000
0000
0010
0000
0100
0010
,
0100
0000
1000
0000
0001
0000
0100
0000
0010
0000
1000
0000
0001
1000
0001
0000
,
0100
0000
0000
0001
0000
0100
0001
0000
1000
0000
0000
0010
0100
0000
0001
0000
,
1000
0001
0010
0100
1000
0010
2000
0000
,
3001
0000
0100
0010
1000
0001
0020
0000
,
0031
0000
0000
1000
0000
0000
0001
0000
0010
0000
0100
0000
1000
0000
0000
0000
,
1100
0000
0000
1000
1001
0000
0000
0001
,
0101
0000
0100
0000
0110
0000
0010
0000
1010
0000
0000
0000
1000
0010
1000
0000
,
1010
0000
0000
0001
0011
0000
0000
1000
,
1100
0100
0110
0010
0012
0000
0023
0000
,
0030
0000
0000
0000
;

//---------------dance-single - ----------------
#NOTES:
     dance-single:
     X-Scale 6:
     Easy:
     4:
     0.340295,0.376576,0.065390,0.345633,0.000000,255.000000,248.000000,7.000000,37.000000,0.000000,0.000000,0.340295,0.376576,0.065390,0.345633,0.000000,255.000000,248.000000,7.000000,37.000000,0.000000,0.000000:
0000
0000
0000
0000
,
0000
0000
0000
0000
,
0000
0000
0000
0000
,
1100
0000
0000
0000
,
0011
0000
0100
0000
0001
1000
0100
1000
,
0001
0000
0010
0000
0100
1000
0100
0010
,
0100
0000
1000
0000
0001
0100
0010
0100
,
0001
0000
1000
0000
0020
0000
0130
0010
,
1000
0000
0001
0000
0010
0100
1000
0100
,
0010
0000
0001
0000
1000
0010
0100
0010
,
1000
0000
0001
0000
0010
0100
1000
0100
,
0010
0000
0001
0000
2000
0000
3010
1000
,
1001
0000
0010
0000
0001
0000
1000
0010
,
0100
0000
0001
0000
0010
0000
0100
1000
,
0001
0000
1000
0000
0010
0000
0100
0010
,
1000
0000
0001
0000
0010
0000
0100
0010
,
0001
0100
0001
0100
0010
0001
0010
1000
,
0100
0000
1000
0010
1000
0000
0001
0010
,
0001
0000
0100
0000
0010
0000
1000
0100
,
0010
0000
0001
0000
0100
0000
0010
1000
,
0001
0000
1000
0020
0000
0030
0100
0002
,
0000
0003
0010
0200
0000
0300
1000
0002
,
1000
0003
0001
0020
0000
0030
0100
2000
,
0000
3000
0001
0010
0002
0000
2003
0000
,
3001
2000
3002
2003
,
3200
0320
0230
0320
,
0032
1000
0010
1000
,
0023
0000
0031
0010
0100
1000
2100
0000
,
3002
0000
0000
0000
0100
0000
0013
0001
,
2000
0000
3020
0000
,
0230
0000
1000
0000
,
0301
0000
0100
0010
1000
0000
0001
0010
,
0200
0000
0000
0000
2300
0000
3100
1000
,
0002
0000
0203
0000
,
0320
0000
0001
0100
,
2030
0100
0001
3010
,
1001
0000
0010
0000
0001
0000
1000
0010
,
0100
0000
0001
0000
0010
0000
0100
1000
,
0001
0000
0010
0000
0001
1000
0100
1000
,
0001
0000
0010
0000
0100
1000
0001
1000
,
0100
0000
0010
0000
0001
0000
0010
0100
,
1000
0000
0001
0000
0100
0000
0010
1000
,
0001
0000
1000
0000
0001
1000
0100
1000
,
0001
0000
0010
0000
0100
1000
0001
1000
,
0200
0000
1300
0002
0000
0013
0200
0300
,
1000
0010
0100
0001
0010
0100
2000
0000
,
3001
0000
1000
0000
0100
1000
0001
0000
,
0100
0000
0010
0000
1000
0100
0020
0000
,
0031
0000
1000
0010
0100
0001
1000
0000
,
0010
0100
0010
1000
,
1001
0000
0000
0010
0010
0000
0000
0001
,
0001
0010
0100
1000
0002
0000
0003
0000
,
1001
0000
0000
1000
1000
0000
0000
0001
,
0001
0100
0010
1000
0002
0000
0003
0000
;

//---------------dance-single - ----------------
#NOTES:
     dance-single:
     X-Scale 2:
     Beginner:
     2:
     0.157470,0.249883,0.102756,0.084073,0.000000,118.000000,107.000000,11.000000,9.000000,0.000000,0.000000,0.157470,0.249883,0.102756,0.084073,0.000000,118.000000,107.000000,11.000000,9.000000,0.000000,0.000000:
0000
0000
0000
0000
,
0000
0000
0000
0000
,
0000
0000
0000
0000
,
0000
0000
0000
0000
,
1001
0000
1000
0000
,
0001
0000
1000
0000
,
0010
0000
0100
0000
,
0010
0000
0100
0000
,
0001
0000
0010
0000
,
0001
0000
0010
0000
,
0100
0000
1000
0000
,
0100
0000
1000
0000
,
0001
0000
0100
0000
,
0001
0000
0100
0000
,
0010
0000
1000
0000
,
0010
0000
1000
0000
,
0100
0000
0010
0000
,
0100
0000
0010
0000
,
0001
0000
1000
0000
,
0001
0000
1000
0000
,
1001
0000
0000
0002
0000
0003
0000
2000
,
0000
3000
0000
0200
0000
0300
0000
2000
,
0001
3000
0000
0002
0000
0003
0000
0020
,
0000
0030
0000
0000
0100
0000
1000
0000
,
1100
0000
0100
0000
,
1000
0000
0001
0000
,
2000
0000
0000
0000
,
0002
0000
0000
3003
,
1001
0000
0000
0000
,
0010
0000
0001
0000
,
1000
0000
0001
0000
,
0010
0000
0000
0001
0000
0000
1000
0000
,
1000
0000
0001
0000
,
1000
0000
0001
0000
,
0010
0000
0100
0000
,
0020
0000
0000
0030
,
0011
0000
1000
0000
,
0001
0000
1000
0000
,
0100
0000
0010
0000
,
0100
0000
1000
0000
,
0001
0000
1000
0000
,
0001
0000
0010
0000
,
0100
0000
1000
0000
,
0001
0000
1000
0000
,
0100
0000
0010
0001
,
0010
0000
0001
1000
,
0001
0000
0100
0010
,
0100
0000
0001
0010
,
0001
0000
1000
0010
,
1000
0000
0001
0010
,
0011
0000
1001
0000
,
0011
0010
0001
0000
,
1100
0000
1001
0000
,
1100
0100
1000
0000
;
