#TITLE:Hello, Hello;
#SUBTITLE:;
#ARTIST:Mari Ferrari;
#TITLETRANSLIT:;
#SUBTITLETRANSLIT:;
#ARTISTTRANSLIT:;
#GENRE:Deep House;
#CREDIT:;
#BANNER:hh-bn.png;
#BACKGROUND:hh-bg.png;
#LYRICSPATH:;
#CDTITLE:cdtitle.png;
#MUSIC:hello hello.ogg;
#OFFSET:0.000000;
#SAMPLESTART:32.020000;
#SAMPLELENGTH:20.000000;
#SELECTABLE:YES;
#BPMS:0.000000=60.000000
,48.000000=120.000000
,112.000000=60.000000
,128.000000=120.000000
,160.000000=60.000000
;
#STOPS:
;
#BGCHANGES:;
#KEYSOUNDS:;
#ATTACKS:;

//---------------dance-single - ----------------
#NOTES:
     dance-single:
     :
     Hard:
     7:
     0.334423,0.461112,0.099970,0.016662,0.145790,281.000000,269.000000,12.000000,2.000000,0.000000,0.000000,0.334423,0.461112,0.099970,0.016662,0.145790,281.000000,269.000000,12.000000,2.000000,0.000000,0.000000:
// measure 0
0000
0000
0000
0000
,  // measure 1
0000
0000
0000
0000
,  // measure 2
0000
0000
0000
0000
,  // measure 3
0000
0000
0000
0000
,  // measure 4
1001
0100
0010
0100
0010
1000
0001
1000
,  // measure 5
0001
0010
0100
1000
0100
1000
0100
0010
,  // measure 6
1001
0010
0100
0010
1000
0001
0100
0010
,  // measure 7
0100
0001
0010
0100
1000
0001
0100
0010
,  // measure 8
0110
0000
1000
0100
1000
0100
1000
0100
0000
0000
0010
0001
0010
0001
0010
0001
,  // measure 9
0010
0000
0000
0000
0100
0000
0000
0000
1000
0000
0000
0000
0000
0000
0000
1000
0000
0000
0100
0000
0000
0010
0000
0000
0000
0000
0000
0001
0000
0000
0010
0000
0000
0001
0000
0000
0010
0000
0000
0100
0000
0000
0010
0000
0000
0000
0000
0000
,  // measure 10
0001
0000
0001
1000
0001
1000
0001
1000
0000
0000
0010
0100
0010
0100
0010
0100
,  // measure 11
0000
0010
1000
0000
0000
0100
0010
0001
0000
0010
0100
0010
0001
0010
0100
0000
,  // measure 12
0011
0000
1000
0000
1000
0010
0100
0001
,  // measure 13
0010
0100
0010
0000
0100
1000
0100
0010
,  // measure 14
0001
1000
0001
0000
1000
0100
0010
0001
,  // measure 15
0010
0100
0010
0000
0001
0100
0010
1000
,  // measure 16
1010
0000
1000
0000
0100
0010
0001
0010
,  // measure 17
0100
1000
0001
0000
1000
0010
0100
0001
,  // measure 18
0010
0100
0010
0000
1000
0100
0010
0001
,  // measure 19
1000
0001
0010
0000
0001
0010
0100
1000
,  // measure 20
1100
0000
1000
0100
1000
0100
1000
0100
,  // measure 21
0000
0000
0010
0001
0010
0001
0010
0001
,  // measure 22
0000
0100
0010
0000
0100
0001
0010
0100
,  // measure 23
0000
0100
0010
0001
0010
0100
1000
0000
,  // measure 24
1001
0000
0100
0010
0100
0010
0100
0010
,  // measure 25
0000
0000
0001
1000
0001
1000
0001
1000
,  // measure 26
0000
0010
0100
0000
1000
0100
1000
0001
,  // measure 27
0000
0100
0010
0100
0001
1000
0010
0000
,  // measure 28
0101
0000
0000
0000
0001
0000
0000
0000
0000
0000
0100
0000
0000
0100
0000
0000
0010
0000
0000
0000
1000
0000
0000
0000
0000
0000
0000
0000
1000
0000
0000
0000
,  // measure 29
0010
0000
0000
0000
0100
0000
0000
0000
0000
0000
0001
0000
0000
0001
0000
0000
0100
0000
0000
0000
0010
0000
0000
0000
0000
0000
0000
0000
0100
0000
0000
0000
,  // measure 30
0001
0000
0000
0000
1000
0000
0000
0000
0000
0000
0010
0000
0000
0010
0000
0000
0100
0000
0000
0000
0010
0000
0000
0000
0000
0000
0000
0000
0100
0000
0000
0000
,  // measure 31
0001
0000
0000
0000
1000
0000
0000
0000
0000
0000
1000
0000
0000
1000
0000
0000
0010
0000
0000
0000
0100
0000
0000
0000
0000
0000
0000
0100
0010
0000
0100
0000
,  // measure 32
0101
0000
1000
0100
0010
0001
0010
0100
,  // measure 33
0000
0001
0001
0010
0100
1000
0100
0010
,  // measure 34
0000
0010
0100
0000
0001
1000
0001
0100
,  // measure 35
0000
0010
0100
0010
1000
0100
0010
0000
,  // measure 36
0101
0000
0001
0010
0100
1000
0100
0010
,  // measure 37
0000
1000
1000
0100
0010
0001
0010
0100
,  // measure 38
0000
0100
0010
0000
0100
0010
1000
0001
,  // measure 39
0000
0100
0001
1000
0010
0100
0010
0000
,  // measure 40
0101
0000
0000
0202
0000
0000
0000
0000
,  // measure 41
0303
0000
0000
0000
;

//---------------dance-single - ----------------
#NOTES:
     dance-single:
     :
     Challenge:
     8:
     0.415352,0.563581,0.108301,0.016662,0.395715,349.000000,336.000000,13.000000,2.000000,0.000000,0.000000,0.415352,0.563581,0.108301,0.016662,0.395715,349.000000,336.000000,13.000000,2.000000,0.000000,0.000000:
// measure 0
0000
0000
0000
0000
,  // measure 1
0000
0000
0000
0000
,  // measure 2
0000
0000
0000
0000
,  // measure 3
0000
0000
0000
0000
,  // measure 4
1001
0000
0000
0000
0100
0000
0001
0000
0010
0000
0000
0000
0100
0000
0000
0000
1000
0000
0001
0000
0010
0000
0001
0000
0100
0000
0000
0001
0000
0000
0010
0000
,  // measure 5
0011
0000
0000
0000
0001
0000
0000
0000
0100
0000
0010
0000
0100
0000
0010
0000
1000
0000
0100
0000
0000
0000
0010
0000
0000
0000
0001
0000
0100
0001
0100
0001
,  // measure 6
0100
0000
0001
0000
1000
0000
0010
0000
0100
0000
0000
0000
0001
0000
0000
0000
0001
0000
0100
0010
1000
0000
0010
0000
0100
0000
0000
0000
0100
0000
0000
0000
,  // measure 7
0110
0000
1000
0001
0010
0000
0000
0000
0100
0000
1000
0000
0100
0000
0010
0000
0001
0000
1000
0010
0100
0000
0010
0000
0000
0000
0100
0000
0000
0000
0010
0000
,  // measure 8
0011
0000
1000
0100
1000
0100
1000
0010
0000
0000
0010
0100
0010
0100
0010
1000
,  // measure 9
0010
0000
0000
0000
0100
0000
0000
0000
0010
0000
0000
0000
0000
0000
0000
1000
0000
0000
0001
0000
0000
0100
0000
0000
0000
0000
0000
0001
0000
0000
0010
0000
0000
0100
0000
0000
1000
0000
0000
0100
0000
0000
0010
0000
0000
0000
0000
0000
,  // measure 10
0001
0000
0001
0010
0001
0010
0001
0100
0000
0100
0010
0100
0010
0100
0010
1000
,  // measure 11
0000
0000
0001
0000
0100
0000
0000
0000
0010
0000
0100
0000
0010
0000
1000
0000
0000
0000
0001
0000
0100
0000
0010
0000
1000
0000
0010
0100
0100
0000
0100
0000
,  // measure 12
1001
0000
0000
0001
1000
0000
0000
0001
1000
0000
0010
0000
0100
0000
0001
0000
,  // measure 13
0010
0000
0001
0100
0010
0000
0000
1000
0100
0000
1000
0000
0100
0000
0010
0000
,  // measure 14
0001
0000
0100
0010
0100
0000
0000
0010
1000
0000
0100
0000
0010
0000
0001
0000
,  // measure 15
0010
0000
0100
0010
1000
0000
0000
1000
0001
0000
0010
0000
0100
0000
0010
0000
,  // measure 16
0101
0000
0000
0001
1000
0000
0000
0001
0010
0000
0100
0000
0010
0000
0001
0000
,  // measure 17
0010
0000
0100
0001
0010
0000
0000
0001
1000
0000
0100
0000
0010
0000
0001
0000
,  // measure 18
0010
0000
0100
0010
0100
0000
0000
1000
0001
0000
0100
0000
0010
0000
1000
0000
,  // measure 19
0010
0000
0100
0001
0010
0000
0000
1000
0001
0000
0010
0000
0100
0010
0100
0000
,  // measure 20
0110
0000
0001
0010
0100
0010
0001
0010
,  // measure 21
0000
1000
1000
0100
0010
0100
1000
0100
,  // measure 22
0000
0000
0100
0000
0010
0000
0000
1000
0010
0000
0100
0000
0001
0000
0010
0000
,  // measure 23
0100
1000
0100
0010
0001
0100
0010
1000
,  // measure 24
1001
0000
1000
0010
0100
0001
0010
0100
,  // measure 25
0000
0100
0010
0001
0010
0100
1000
0100
,  // measure 26
0000
0000
0010
0000
0100
0000
0000
0001
1000
0000
0100
0000
1000
0000
0001
0000
,  // measure 27
0000
0100
0010
0100
0001
1000
0010
0100
,  // measure 28
0101
0000
0000
0000
1000
0000
0000
0000
0000
0000
0100
0000
0000
0010
0000
0000
0100
0000
0000
0000
0001
0000
0000
0000
0100
0000
0010
0000
1000
0000
0010
0000
,  // measure 29
0100
0000
0001
0000
0000
1000
0001
0100
0000
0010
0100
0010
0100
0010
0100
0000
,  // measure 30
0001
0000
0000
0000
1000
0000
0000
0000
0000
0000
0001
0000
0000
0100
0000
0000
0010
0000
0000
0000
1000
0000
0000
0000
0010
0000
0100
0000
0001
0000
0100
0000
,  // measure 31
0010
0000
0000
0000
1000
0000
0000
0000
0000
0000
0100
0000
0001
0000
0100
0000
0000
0000
0010
0000
0100
0000
0010
0000
1000
0000
0000
0001
0010
0000
0001
0000
,  // measure 32
0101
0000
0001
0010
0001
1000
0100
0010
,  // measure 33
0000
0001
1000
0100
1000
0001
0010
0100
,  // measure 34
0000
0000
0010
0000
0100
0000
0000
0001
1000
0000
1000
0000
0001
0000
0100
0000
,  // measure 35
0000
0010
0100
0010
0001
0010
0100
0010
,  // measure 36
0101
0000
0010
1000
0010
0100
0001
0010
,  // measure 37
0000
0100
0010
1000
0100
0010
0100
0001
,  // measure 38
0000
0000
0100
0000
0010
0000
0000
1000
0001
0000
0010
0000
0001
0000
0100
0000
,  // measure 39
0000
0100
0010
1000
0001
0100
0010
1000
,  // measure 40
0101
0000
0000
2002
0000
0000
0000
0000
,  // measure 41
3003
0000
0000
0000
;

//---------------dance-single - ----------------
#NOTES:
     dance-single:
     :
     Medium:
     4:
     0.295150,0.324486,0.099970,0.041654,0.029158,248.000000,236.000000,12.000000,5.000000,0.000000,0.000000,0.295150,0.324486,0.099970,0.041654,0.029158,248.000000,236.000000,12.000000,5.000000,0.000000,0.000000:
// measure 0
0000
0000
0000
0000
,  // measure 1
0000
0000
0000
0000
,  // measure 2
0000
0000
0000
0000
,  // measure 3
0000
0000
0000
0000
,  // measure 4
1001
0100
0010
0100
1000
0010
0100
0001
,  // measure 5
0010
0100
0100
0010
0010
1000
0100
0010
,  // measure 6
1001
1000
0100
0001
0010
1000
0100
0100
,  // measure 7
0100
0001
0100
1000
0010
0010
0100
0010
,  // measure 8
0011
0000
1000
0000
1000
0000
0200
0000
0000
0300
0010
0000
0010
0000
0001
0000
,  // measure 9
0010
0000
0100
0000
0010
0000
0000
0000
0000
0200
0000
0000
0310
0000
0100
0000
0000
0000
0001
0000
0000
0010
0000
0000
,  // measure 10
0001
0000
1000
0000
0001
0000
2000
0000
0000
3000
0010
0000
0010
0000
0100
0010
,  // measure 11
0000
0000
0000
0000
0000
0100
0010
0001
0000
0010
0100
0000
1000
0000
0000
0000
,  // measure 12
0110
0000
1000
0000
0001
0100
0010
0100
,  // measure 13
0010
1000
1000
0000
0100
1000
0100
0010
,  // measure 14
0001
0100
0100
0000
1000
0010
0100
0001
,  // measure 15
0100
0010
0010
0000
0001
1000
0010
0100
,  // measure 16
0101
0000
1000
0000
0001
0010
0100
1000
,  // measure 17
0100
0010
0010
0000
1000
0100
1000
0010
,  // measure 18
1000
0001
0001
0000
0010
0100
0010
1000
,  // measure 19
0010
0100
0010
0000
0001
0010
0100
1000
,  // measure 20
1100
0000
0010
0000
1000
0001
0100
0010
,  // measure 21
0000
0010
1000
0000
1000
0100
1000
0100
,  // measure 22
0000
0010
0001
0000
0010
0001
0010
0100
,  // measure 23
0000
0100
0010
0000
0010
0100
1000
0010
,  // measure 24
1001
0000
0100
0000
0010
0100
0010
1000
,  // measure 25
0000
0100
0010
0000
0001
0100
0010
0100
,  // measure 26
0000
0010
0100
0000
1000
0100
1000
0001
,  // measure 27
0000
0100
0010
0000
0001
1000
0010
0100
,  // measure 28
0101
1000
0000
0010
0100
0001
0000
1000
,  // measure 29
0010
0100
0000
0001
0100
0010
0000
0100
,  // measure 30
0010
1000
0000
0001
1000
0010
0000
0100
,  // measure 31
0001
1000
0000
0100
0010
0001
0000
0010
,  // measure 32
0101
0000
1000
0000
0001
0010
0100
0010
,  // measure 33
0000
1000
0010
0000
0010
1000
0001
0100
,  // measure 34
0000
0010
0100
0000
0001
0100
0010
1000
,  // measure 35
0000
0010
1000
0000
0100
0010
0100
0001
,  // measure 36
0101
0000
0010
0000
1000
0100
0010
0001
,  // measure 37
0000
0010
0100
0000
0001
0010
0100
1000
,  // measure 38
0000
0100
0010
0000
1000
0010
0100
0001
,  // measure 39
0000
0100
0010
0000
1000
0001
1000
0000
,  // measure 40
1001
0000
0000
2002
0000
0000
0000
0000
,  // measure 41
3003
0000
0000
0000
;

//---------------dance-single - ----------------
#NOTES:
     dance-single:
     :
     Easy:
     2:
     0.197560,0.239095,0.116632,0.049985,0.024993,166.000000,152.000000,14.000000,6.000000,0.000000,0.000000,0.197560,0.239095,0.116632,0.049985,0.024993,166.000000,152.000000,14.000000,6.000000,0.000000,0.000000:
// measure 0
0000
0000
0000
0000
,  // measure 1
0000
0000
0000
0000
,  // measure 2
0000
0000
0000
0000
,  // measure 3
0000
0000
0000
0000
,  // measure 4
1001
0010
1000
0100
,  // measure 5
0010
0100
0001
0100
,  // measure 6
0011
0100
0001
1000
,  // measure 7
0010
0100
0010
1000
,  // measure 8
1001
0000
0000
0000
0000
0000
0000
0000
0000
0000
0000
0000
0000
0000
0000
0000
0000
0000
0200
0000
0000
0000
0000
0000
0010
0000
0000
0300
0100
0000
0000
0000
0001
0000
0000
0000
0000
0000
0000
0000
0000
0000
0000
0000
0000
0000
0000
0000
,  // measure 9
0001
0000
1000
0000
0010
0000
0000
0000
0000
0200
0000
0000
0310
0000
0100
0000
0000
0000
0000
0000
0000
0000
0000
0000
,  // measure 10
0001
0000
1000
0000
0001
0000
2000
0000
0000
3000
0010
0000
0100
0000
0010
0010
,  // measure 11
0000
0100
0002
0000
,  // measure 12
1003
0100
1000
0100
,  // measure 13
0010
0100
0010
0001
,  // measure 14
0010
0100
1000
0010
,  // measure 15
0100
0010
0001
0010
,  // measure 16
0101
1000
0010
0001
,  // measure 17
1010
0010
1000
0100
,  // measure 18
0011
0100
1000
0010
,  // measure 19
1001
0010
0001
0100
,  // measure 20
1100
0010
0010
0001
,  // measure 21
0100
1000
0001
0100
,  // measure 22
0001
0010
0100
0010
,  // measure 23
1000
0010
0100
1000
,  // measure 24
1001
0100
0100
1000
,  // measure 25
0100
0010
0001
0010
,  // measure 26
0010
0100
1000
1000
,  // measure 27
0100
0010
0001
0010
,  // measure 28
1001
1000
0000
0010
0000
0100
0000
0010
,  // measure 29
0000
0001
0000
0010
0000
0100
0000
0010
,  // measure 30
0000
1000
0000
0001
0000
0010
0000
0100
,  // measure 31
0000
1000
0000
0100
0000
0001
0000
0010
,  // measure 32
0101
1000
0100
0010
,  // measure 33
0100
0010
0010
0001
,  // measure 34
1000
0100
0001
0001
,  // measure 35
0100
0010
0001
0010
,  // measure 36
0101
0010
0010
0001
,  // measure 37
1000
0010
0100
0001
,  // measure 38
0010
0010
0100
1000
,  // measure 39
0100
0010
0001
0010
,  // measure 40
0110
0000
0000
0220
0000
0000
0000
0000
,  // measure 41
0330
0000
0000
0000
;

//---------------dance-single - ----------------
#NOTES:
     dance-single:
     :
     Beginner:
     1:
     0.120202,0.170782,0.133293,0.058316,0.000000,101.000000,85.000000,16.000000,7.000000,0.000000,0.000000,0.120202,0.170782,0.133293,0.058316,0.000000,101.000000,85.000000,16.000000,7.000000,0.000000,0.000000:
// measure 0
0000
0000
0000
0000
,  // measure 1
0000
0000
0000
0000
,  // measure 2
0000
0000
0000
0000
,  // measure 3
0000
0000
0000
0000
,  // measure 4
1001
0000
1100
0000
,  // measure 5
0011
0000
1100
0000
,  // measure 6
0011
0000
0101
0000
,  // measure 7
0110
0000
1001
0000
,  // measure 8
0011
0000
0000
0000
0000
0000
0200
0000
0000
0300
0000
0000
0000
0000
0000
0000
,  // measure 9
2000
0000
3000
0200
0320
0000
0030
0100
,  // measure 10
0100
0000
0000
0000
0000
0000
2000
0000
0000
3000
0001
0000
1000
0000
0010
0000
,  // measure 11
0000
0000
0001
0000
,  // measure 12
0011
0000
0100
0000
,  // measure 13
0001
0000
1000
0000
,  // measure 14
0010
0000
0100
0000
,  // measure 15
0010
0000
1000
0000
,  // measure 16
0101
0000
0010
0000
,  // measure 17
0001
0000
0100
0000
,  // measure 18
0010
0000
1000
0000
,  // measure 19
0001
0000
0100
0000
,  // measure 20
0110
0000
1000
0000
,  // measure 21
0010
0000
0100
0000
,  // measure 22
0001
0000
0010
0000
,  // measure 23
0100
0000
1000
0000
,  // measure 24
1001
0000
0100
0000
,  // measure 25
0001
0000
0010
0000
,  // measure 26
0001
0000
1000
0000
,  // measure 27
0100
0000
0010
0000
,  // measure 28
0000
1000
0000
0010
0000
0100
0000
0010
,  // measure 29
0000
0001
0000
1000
0000
0010
0000
0100
,  // measure 30
0000
0010
0000
1000
0000
0010
0000
0100
,  // measure 31
0000
0001
0000
0010
0000
0100
0000
0000
,  // measure 32
0101
0000
0010
0000
,  // measure 33
1000
0000
0100
0000
,  // measure 34
0010
0000
0001
0000
,  // measure 35
0100
0000
0010
0000
,  // measure 36
0100
0000
1000
0000
,  // measure 37
0100
0000
0001
0000
,  // measure 38
0010
0000
0100
0000
,  // measure 39
0010
0000
0001
0000
,  // measure 40
0101
0000
0000
0202
0000
0000
0000
0000
,  // measure 41
0303
0000
0000
0000
;
