#TITLE:Hella Deep;
#SUBTITLE:;
#ARTIST:Masayoshi Iimori;
#TITLETRANSLIT:;
#SUBTITLETRANSLIT:;
#ARTISTTRANSLIT:;
#GENRE:Freestyle;
#CREDIT:;
#BANNER:Hella Deep-bn.png;
#BACKGROUND:Hella Deep-bg.png;
#LYRICSPATH:;
#CDTITLE:cdtitle.png;
#MUSIC:Hella Deep.ogg;
#OFFSET:0.000000;
#SAMPLESTART:26.400000;
#SAMPLELENGTH:12.800000;
#SELECTABLE:YES;
#DISPLAYBPM:66.000000:150.000000;
#BPMS:0.000000=150.000000
,34.000000=75.000000
,42.000000=150.000000
,54.000000=75.000000
,56.000000=150.000000
,120.000000=75.000000
,124.000000=72.000000
,128.000000=144.000000
,136.000000=66.000000
,144.000000=132.000000
,152.000000=66.000000
,154.000000=264.000000
,155.000000=132.000000
,163.000000=264.000000
,164.000000=132.000000
,186.000000=528.000000
,188.000000=264.000000
,189.000000=132.000000
,252.000000=8.000000
;
#STOPS:152.000000=1.364000,
154.000000=0.227000,
163.000000=0.227000,
186.000000=0.114000,
187.000000=0.114000,
188.000000=0.227000
;
#BGCHANGES:0.000=Hella Deep.avi=1.000=1=0=0=StretchNoLoop==CrossFade==,
99999=-nosongbg-=1.000=0=0=0 // don't automatically add -songbackground-
;
#KEYSOUNDS:;
#ATTACKS:;

//---------------dance-single - ----------------
#NOTES:
     dance-single:
     X-Scale 15:
     Hard:
     10:
     0.666647,1.040677,0.388189,0.082593,0.437745,565.000000,518.000000,47.000000,10.000000,16.000000,2.000000,0.666647,1.040677,0.388189,0.082593,0.437745,565.000000,518.000000,47.000000,10.000000,16.000000,2.000000:
// measure 0
0000
0000
0000
0000
1100
1000
0010
0100
,  // measure 1
0001
0000
1001
0000
1000
0000
0010
0001
,  // measure 2
0010
1000
0010
0100
0110
0010
1000
0001
,  // measure 3
0010
0000
0001
0000
0100
0000
0000
0000
0010
0000
0010
0000
0010
0100
0010
0100
,  // measure 4
0010
0000
1000
0000
1000
0001
1000
0000
4004
0000
3003
0000
4004
0000
3003
0000
,  // measure 5
2002
3003
1100
0000
0001
0000
0100
0001
,  // measure 6
1000
0010
0100
0001
0011
0010
0001
1000
,  // measure 7
0010
0000
1000
0000
0100
0000
0010
0000
0001
0010
0001
0010
0004
0000
0000
0000
,  // measure 8
0103
0000
0000
0000
0000
0000
0000
0000
1100
1000
0100
1000
0010
0000
0010
0100
,  // measure 9
0010
0000
0010
0000
0010
0100
0001
0010
1000
0001
0100
1000
0010
0000
0010
0100
,  // measure 10
0010
0000
0010
0000
0010
0100
0001
1000
1001
0000
1000
0000
0001
0000
1000
0000
,  // measure 11
0001
0010
0100
0010
0100
1000
0010
1000
,  // measure 12
0010
0000
0100
0000
0001
0000
0100
0000
0001
0100
0010
1000
0001
0100
0010
1000
,  // measure 13
0004
0000
0000
0000
1000
0000
0000
0000
1000
0000
0000
0000
1003
0000
0000
0000
1001
0000
0000
0000
0001
0000
0001
0000
M000
000M
0000
0000
M000
0000
0000
0000
,  // measure 14
M11M
0000
0000
0000
0100
0000
0010
0000
0100
0000
0001
0100
0001
0000
0001
0000
,  // measure 15
1000
0000
0100
0010
0100
0000
1000
0000
0010
0000
0100
0010
0100
0000
0100
0000
,  // measure 16
0101
0000
0000
0000
0001
0000
1000
0000
0001
0000
0100
0001
0100
0000
0100
0000
,  // measure 17
0010
0000
1000
0010
1000
0000
0001
0000
0010
0000
0010
0000
0010
0000
0010
0000
,  // measure 18
0001
0000
0000
0000
1001
0000
0110
0000
1001
0000
0000
1000
0010
0000
1000
0000
,  // measure 19
0001
0010
0100
1000
0001
0000
0100
0000
0010
0000
0010
0000
4000
0000
0001
0000
,  // measure 20
3001
0000
0000
0000
0010
0000
0000
0000
0001
0000
1000
0000
0010
0100
0001
0100
,  // measure 21
0010
0000
0010
0000
0010
0000
0010
0000
1001
0000
1000
0010
1000
0000
0100
0000
,  // measure 22
0011
0000
0000
0000
0001
0000
0100
0000
0001
0000
0010
0100
1000
0000
0010
0000
,  // measure 23
1000
0000
0001
0100
0001
0000
0010
0000
0010
0000
0100
0010
0001
0000
0001
0000
,  // measure 24
1010
0000
0000
0000
0001
0000
0010
0000
0100
0000
0010
0001
1000
0000
0001
0000
,  // measure 25
1000
0000
0010
0100
0010
0000
1000
0000
0100
0000
0100
0000
0100
0000
0100
0000
,  // measure 26
1010
0000
0000
0001
0011
0010
0100
0000
,  // measure 27
0011
0000
0010
0001
1000
0000
0001
0000
1001
0000
0010
0000
4000
3000
4000
3000
,  // measure 28
1100
0010
0100
0001
0010
0100
1000
0001
,  // measure 29
4000
0000
0000
0000
0000
0001
3001
1000
,  // measure 30
1001
0000
0000
0000
0000
0002
0000
0000
,  // measure 31
0023
0000
0000
0000
,  // measure 32
0200
0000
0000
0000
,  // measure 33
0000
0000
0000
0000
,  // measure 34
1331
0000
0001
0000
0010
0000
0100
0000
1000
0000
0001
0000
1000
0100
0010
0000
0100
0000
1000
0000
0001
0010
0100
0000
0010
0000
0001
0000
1000
0010
0100
0000
,  // measure 35
0001
0000
0010
0000
1000
0000
0010
0000
0001
0000
0100
0000
0001
1000
0100
0000
1000
0000
0010
0000
0001
0010
0100
0000
0010
0000
1000
0000
0100
0000
0001
0000
,  // measure 36
0110
0010
0001
1000
0001
0010
0100
1000
,  // measure 37
0001
0010
0100
1000
0001
0010
0100
1000
0001
0010
0100
0010
0001
1000
0100
0010
,  // measure 38
0110
1000
1000
1000
MMMM
0000
0101
0000
,  // measure 39
0101
0000
0000
0000
0000
0000
1000
0000
0000
0000
0000
0000
0001
0000
0000
0000
0000
0000
0010
0000
0000
0000
0000
0000
0010
0000
0000
0000
0000
0000
0001
0000
0010
0000
0001
0000
0010
0000
0000
0000
0000
0000
0001
0000
0000
1000
0000
0000
,  // measure 40
0100
0000
1000
0000
0010
0000
0100
0010
0400
0000
0000
0000
0301
0000
0000
0000
,  // measure 41
1100
0000
1000
0000
0001
0000
0100
0001
0100
0000
0100
0000
0010
0000
1000
0100
,  // measure 42
0010
0100
1000
0001
0010
00M0
1100
0000
,  // measure 43
0101
0000
0001
0000
1000
0100
0010
0100
1000
0000
0010
0000
1000
0000
0010
0000
,  // measure 44
0001
0000
0010
0000
1000
0100
0010
0100
1000
0000
0010
0000
01M1
00M0
0000
0000
,  // measure 45
1100
0000
0010
0000
1000
0001
0100
0010
1000
0000
0001
0000
0010
0000
0001
0000
,  // measure 46
0100
0001
0040
0000
0230
0300
0200
0300
,  // measure 47
0110
0000
1001
0001
1000
0100
0001
0100
,  // measure 48
1000
0000
0001
0100
0010
0000
0100
0000
0001
0000
0010
0001
0100
0000
0001
0000
,  // measure 49
0110
0000
1001
0100
1000
0010
0100
0001
,  // measure 50
1000
0000
0001
0010
0100
0000
0010
0000
0001
0000
1000
0010
4000
0000
0000
0000
,  // measure 51
3100
0000
0010
0000
0001
0010
0100
0010
0001
0000
1000
0000
0010
0100
0001
0100
,  // measure 52
0010
0000
1000
0000
0001
0010
0100
0010
0001
0000
1000
0000
0010
0000
0004
0000
,  // measure 53
0113
0100
0001
0001
1000
1000
0100
0100
,  // measure 54
1000
0100
0010
0001
1000
0100
0010
0001
0020
0000
0000
0000
0M30
0000
0M00
0000
,  // measure 55
0000
0000
0000
1000
0000
0000
0010
0000
0000
1000
0100
1000
0100
0000
0000
0100
0000
0000
1100
0000
0000
0001
0000
0000
,  // measure 56
0100
0001
0010
1000
0010
0001
0400
0000
,  // measure 57
0301
0000
0100
0000
0010
0100
0010
0000
0110
0000
1001
0000
0110
0000
0100
0000
,  // measure 58
0001
0000
0001
0000
0001
0010
0100
1000
0001
0000
1000
0000
0100
0010
0001
0000
,  // measure 59
1000
0000
0100
0000
0010
0000
0001
0000
0100
0000
0010
0000
1000
0000
0000
1000
0000
0000
0401
0000
0000
0002
0000
0000
,  // measure 60
0000
0303
1100
0010
1000
0100
00M0
00M0
,  // measure 61
0101
0010
0001
1000
0010
1000
0100
0010
,  // measure 62
0001
0010
0100
1000
0400
0000
0000
0000
0320
0000
0000
0000
0000
0000
0000
0000
,  // measure 63
0031
0000
0000
0000
;

//---------------dance-single - ----------------
#NOTES:
     dance-single:
     X-Scale 12:
     Medium:
     8:
     0.522698,0.598389,0.280818,0.231262,0.148668,443.000000,409.000000,34.000000,28.000000,0.000000,0.000000,0.522698,0.598389,0.280818,0.231262,0.148668,443.000000,409.000000,34.000000,28.000000,0.000000,0.000000:
// measure 0
0000
0000
0000
0000
1001
0000
1000
0001
,  // measure 1
1000
0000
0010
0000
0100
0000
0001
0010
,  // measure 2
0100
0000
0010
0000
0011
0000
0001
0100
,  // measure 3
0001
0000
1000
0000
1000
0000
0000
0000
0010
0000
0010
0000
0010
0100
0010
0100
,  // measure 4
0020
0230
0301
1000
,  // measure 5
2002
3003
1000
0000
0100
0000
0010
0100
,  // measure 6
1000
0000
0001
0100
0001
0000
1000
0100
,  // measure 7
0010
0000
0001
0000
0001
0000
0000
0000
1000
0100
1000
0100
2000
0000
0001
0000
,  // measure 8
3001
0000
0000
0000
0000
0000
0000
0000
1001
0000
1000
0000
0010
0000
0001
0010
,  // measure 9
0100
0000
0001
0000
0010
0000
1000
0010
0001
0000
1000
0000
0010
0000
0001
0010
,  // measure 10
0100
0000
0001
0000
0010
0000
1000
0010
0001
0000
0010
0000
1000
0000
0010
0000
,  // measure 11
0001
0001
1000
1000
0001
0001
1000
1000
,  // measure 12
0001
0000
0001
0000
1000
0000
1000
0000
0010
0100
0010
0100
0010
0100
0010
0100
,  // measure 13
0002
0000
0000
0000
0010
0000
0000
0000
1003
0000
1000
1000
0000
0000
0000
0000
,  // measure 14
1100
0000
0001
1000
0001
0010
0100
0010
,  // measure 15
0100
0000
1000
0010
0100
0000
0001
0001
,  // measure 16
0101
0000
0100
0010
1000
0100
1000
0100
,  // measure 17
0010
0000
0001
0000
0100
0100
0100
0100
,  // measure 18
0100
0000
0000
0000
0101
0000
0011
0000
0101
0000
0000
0100
0000
0000
0010
0000
,  // measure 19
2000
0000
3010
1000
0001
0001
0010
0010
,  // measure 20
0011
0000
0000
0000
0002
0000
0003
0000
1000
0000
0100
0000
1000
0100
0010
0001
,  // measure 21
1000
0000
0010
0000
1000
0000
0010
0000
1000
0000
0001
0010
0001
0000
0100
0000
,  // measure 22
0101
0000
0010
1000
0001
0000
1000
1000
,  // measure 23
1000
0100
0001
0100
1000
0000
0001
0001
,  // measure 24
0001
0000
0010
0100
1000
0000
0010
0010
,  // measure 25
0010
0000
1000
0001
0100
0100
0100
0100
,  // measure 26
0101
0000
0000
1000
1100
0100
0020
0030
,  // measure 27
0101
0000
0001
0000
2000
0000
3000
0000
0011
0000
0010
0000
0200
0300
0200
0300
,  // measure 28
1100
1000
0100
0010
0001
0000
1000
0010
,  // measure 29
4000
0000
0000
3100
,  // measure 30
1100
0000
0000
0000
,  // measure 31
2001
0000
0000
0000
,  // measure 32
0200
0000
0000
0000
,  // measure 33
0000
0000
0000
0000
0000
0000
0000
0000
0000
0000
0000
0000
0000
0000
0000
0000
0000
0000
0000
0000
0000
0000
0000
0000
0000
0000
0000
0000
0000
0000
0000
0000
0000
0000
0000
0000
0000
0000
0000
0000
0000
0000
0000
0000
0000
0000
0000
0000
0000
0000
0000
0000
0000
0000
0000
0000
0000
0000
0000
0000
0000
0000
0000
0000
0000
0000
0000
0000
0000
0000
0000
0000
0000
0000
0000
0000
0000
0000
0000
0000
0000
0000
0000
0000
0000
0000
0000
0000
0000
0000
0000
0000
0000
0000
0000
0000
0000
0000
0000
0000
0000
0000
0000
0000
0000
0000
0000
0000
0000
0000
0000
0000
0000
0000
0000
0000
0000
0000
0000
0000
0000
0000
0000
0000
0000
0000
0000
0000
0000
0000
0000
0000
0000
0000
0000
0000
0000
0000
0000
0000
0000
0000
0000
0000
0000
0000
0000
0000
0000
0000
0000
0000
0000
0000
0000
0000
0000
0000
0000
0000
0000
0000
0000
0000
0000
0000
0000
0000
0000
0000
0000
0000
0000
0000
0000
0000
0000
0000
0000
0000
0000
0000
0000
0000
0000
0000
0000
0000
0000
0000
0000
3300
,  // measure 34
1100
0100
0010
0001
1000
0000
1000
0000
0010
0000
0010
0000
1000
0000
1000
0000
,  // measure 35
0001
0100
1000
0100
0010
0000
0010
0000
0100
0000
0100
0000
0010
0000
0010
0000
,  // measure 36
1001
1000
0001
1000
0100
0100
0010
0010
,  // measure 37
0200
1000
0001
0010
1000
0001
0010
1000
,  // measure 38
1300
0001
1000
0001
0010
0000
0110
0000
,  // measure 39
0100
1000
0001
0000
0100
0100
0100
0000
,  // measure 40
0001
0010
0100
0000
2000
0000
3000
0000
,  // measure 41
0101
0100
0010
1000
0001
1000
0100
0001
,  // measure 42
0100
0010
0001
1000
0010
0000
1001
0000
,  // measure 43
1000
0000
0100
0000
0010
0000
0001
0010
0001
0000
1000
0000
0001
0000
0100
0000
,  // measure 44
0010
0000
1000
0000
0001
0000
0100
0010
0100
0000
0001
0000
0101
0000
0000
0000
,  // measure 45
1100
0000
1000
0000
0001
0000
1000
0100
1000
0000
0010
0000
0001
0000
0010
0000
,  // measure 46
0100
0001
2000
0000
3200
0300
0200
0300
,  // measure 47
1100
0000
1000
0001
0100
0010
0001
0010
,  // measure 48
1000
0000
0001
1000
0001
0000
0100
0000
0010
0000
1000
0000
0100
0000
1000
0000
,  // measure 49
1100
0000
0101
0100
0001
1000
0001
0010
,  // measure 50
0100
0000
1000
0100
1000
0000
0001
0000
0100
0000
0010
0000
2000
0000
0000
0000
,  // measure 51
3100
0000
1000
0001
1001
0000
0010
0100
,  // measure 52
0110
0000
1000
0010
1010
0000
0001
0020
,  // measure 53
0130
0010
0100
0010
0001
1000
0001
1000
,  // measure 54
0020
0001
0100
1000
2030
0000
3002
0003
,  // measure 55
0000
0000
0001
0000
0010
0000
0100
0000
1000
0000
0000
1000
0000
0000
1000
0000
,  // measure 56
0000
1000
0000
0000
1000
0000
0010
0000
0100
0000
0001
0000
0040
0000
0000
0000
,  // measure 57
0130
0010
0001
0000
1000
0000
0100
0010
,  // measure 58
0001
0000
0001
0000
0001
1000
0001
1000
0001
0000
0000
0000
0000
0000
0000
0000
,  // measure 59
1000
0000
0100
0000
1000
0000
0001
0000
1000
0000
0100
0000
2000
0000
0000
3000
0000
0000
1001
0000
0000
0002
0000
0000
,  // measure 60
0000
0103
0001
1000
0100
0010
0001
0001
,  // measure 61
1001
0000
1000
0000
0001
0100
0101
0000
,  // measure 62
1000
0100
1000
0100
2000
0000
0000
0000
3002
0000
0000
0000
0000
0000
0000
0000
,  // measure 63
1003
0000
0000
0000
;

//---------------dance-single - ----------------
#NOTES:
     dance-single:
     X-Scale 7:
     Easy:
     5:
     0.387009,0.494322,0.247780,0.156928,0.000000,328.000000,298.000000,30.000000,19.000000,0.000000,0.000000,0.387009,0.494322,0.247780,0.156928,0.000000,328.000000,298.000000,30.000000,19.000000,0.000000,0.000000:
// measure 0
0000
0000
0101
0001
,  // measure 1
1000
0001
0010
0100
,  // measure 2
1000
0001
1000
0100
,  // measure 3
0010
0001
1000
0010
,  // measure 4
0100
0000
0001
0000
2002
3003
2002
3003
,  // measure 5
2002
3003
1000
0000
0100
0000
0010
0000
,  // measure 6
0001
0100
0010
1000
,  // measure 7
0001
0000
0010
0000
0100
0000
1000
0010
,  // measure 8
1010
0000
0000
0000
0011
0010
0001
0001
,  // measure 9
1000
1000
0001
0001
0010
0100
1000
1000
,  // measure 10
0010
0010
1000
1000
0001
0000
0010
0000
,  // measure 11
0100
1000
0001
1000
0100
1000
0001
1000
,  // measure 12
0100
1000
0001
1000
0100
0010
0001
0100
,  // measure 13
0010
1000
0100
0010
0011
0000
0000
0000
,  // measure 14
1010
0000
1000
0010
1000
0000
0001
0000
,  // measure 15
0010
0000
0100
1000
0100
0000
1000
0000
,  // measure 16
0001
0000
0100
0001
0100
0000
0010
0000
,  // measure 17
1000
0000
0100
0010
0100
0000
0100
0000
,  // measure 18
0100
0000
1000
0100
1000
0000
0001
0100
,  // measure 19
0001
0000
0010
0100
1000
1000
2000
0000
,  // measure 20
3001
0000
0011
0020
,  // measure 21
0130
0010
0110
0000
,  // measure 22
1100
0000
1000
0100
1000
0000
0001
0000
,  // measure 23
0100
0000
0010
0100
0010
0000
1000
0000
,  // measure 24
0001
0000
0010
0100
0010
0000
0001
0000
,  // measure 25
1000
0000
0010
1000
0010
0000
0010
0000
,  // measure 26
0110
0000
0101
0000
,  // measure 27
1001
0000
1100
0000
,  // measure 28
0101
0001
0010
0100
,  // measure 29
2000
0000
0000
0000
,  // measure 30
3100
0000
0000
0000
,  // measure 31
1000
0000
0000
0000
,  // measure 32
0000
0000
0000
0000
,  // measure 33
0000
0000
0000
0000
,  // measure 34
1001
1000
0001
0001
0010
0010
0001
0001
,  // measure 35
0100
0010
1000
1000
0010
0010
1000
1000
,  // measure 36
1010
0000
0010
0000
0100
0001
0100
0001
,  // measure 37
1000
0010
1000
0010
0100
0001
0010
0100
,  // measure 38
1100
1000
0000
0001
0000
0000
1001
0000
,  // measure 39
1000
0001
1000
0000
0010
0000
0100
0000
,  // measure 40
0001
0010
0001
0000
2000
0000
3000
0000
,  // measure 41
1100
0100
0010
0000
0001
1000
0100
0000
,  // measure 42
0010
0100
1000
0000
0001
1000
1001
0000
,  // measure 43
0001
0000
0010
0100
0010
0100
0010
0000
,  // measure 44
0001
0000
1000
0010
1000
0010
1000
0000
,  // measure 45
0001
0000
0010
0100
0010
0100
0010
0000
,  // measure 46
0001
2000
3000
0000
,  // measure 47
1001
0000
1000
0100
0001
0000
0001
0100
,  // measure 48
1000
0000
0001
0010
1000
0000
1000
0010
,  // measure 49
0001
0000
0100
0010
1000
0000
1000
0010
,  // measure 50
0100
0000
0001
0010
0100
0000
2000
0000
,  // measure 51
3001
1000
1100
0100
,  // measure 52
0110
0010
0011
0000
,  // measure 53
1001
1000
0100
1000
,  // measure 54
0001
0010
0100
1000
0002
0000
1003
0001
,  // measure 55
0000
0000
1000
1100
,  // measure 56
0100
0000
0010
0001
1000
0001
0010
0000
,  // measure 57
0100
1000
0001
1000
0100
0000
0010
0001
,  // measure 58
1000
1000
2000
0000
3001
0000
0000
0000
,  // measure 59
1000
0100
0010
0001
0022
0033
0010
0200
,  // measure 60
0000
1300
0100
0001
0100
1000
0000
0000
,  // measure 61
0011
0010
0100
1000
0001
0000
1000
0010
,  // measure 62
0100
0100
0200
0000
0302
0000
0000
0000
,  // measure 63
0003
0000
0000
0000
;

//---------------dance-single - ----------------
#NOTES:
     dance-single:
     X-Scale 3:
     Beginner:
     3:
     0.194685,0.283915,0.189965,0.000000,0.000000,165.000000,142.000000,23.000000,0.000000,0.000000,0.000000,0.194685,0.283915,0.189965,0.000000,0.000000,165.000000,142.000000,23.000000,0.000000,0.000000,0.000000:
// measure 0
0000
0000
1000
0000
,  // measure 1
0100
0000
1000
0000
,  // measure 2
0100
0000
0010
0000
,  // measure 3
0001
0000
0010
0000
,  // measure 4
0001
0000
0000
0000
,  // measure 5
0000
1000
0000
0000
,  // measure 6
0100
0000
1000
0000
,  // measure 7
0001
0000
0010
0000
,  // measure 8
0001
0000
1001
1000
,  // measure 9
0100
0010
0001
0100
,  // measure 10
0010
1000
1001
0000
,  // measure 11
0001
0000
0010
0000
,  // measure 12
0001
0000
1000
0001
,  // measure 13
0100
0010
0110
0000
,  // measure 14
1001
0000
1000
0000
,  // measure 15
0100
0000
1000
0000
,  // measure 16
0001
0000
0100
0000
,  // measure 17
0001
0000
1000
0000
,  // measure 18
0010
0000
1000
0000
,  // measure 19
0001
0000
1000
0000
,  // measure 20
1001
0000
0110
0000
,  // measure 21
1001
0000
0001
0000
,  // measure 22
1001
0000
1000
0000
,  // measure 23
0100
0000
0010
0000
,  // measure 24
0001
0000
0100
0000
,  // measure 25
0010
0000
1000
0000
,  // measure 26
1001
0000
0110
0000
,  // measure 27
1001
0000
0110
0000
,  // measure 28
1001
0000
0100
0000
,  // measure 29
1000
0000
0000
0000
,  // measure 30
1001
0000
0000
0000
,  // measure 31
1001
0000
0000
0000
,  // measure 32
0000
0000
0000
0000
,  // measure 33
0000
0000
0000
0000
,  // measure 34
1000
0000
0010
0000
,  // measure 35
0100
0000
0001
0000
,  // measure 36
1000
0000
0010
0000
,  // measure 37
0100
0000
0001
0000
,  // measure 38
1000
0000
0000
1001
,  // measure 39
1000
0100
0010
0001
,  // measure 40
0100
0010
1000
0000
,  // measure 41
0001
0010
0100
1000
,  // measure 42
0010
0100
0001
1001
,  // measure 43
1000
0100
1000
0001
,  // measure 44
0100
0010
0100
0001
,  // measure 45
1000
0100
0010
0001
,  // measure 46
1000
0010
0000
0000
,  // measure 47
0000
0110
0100
0010
,  // measure 48
1000
0001
0010
0100
,  // measure 49
0010
0001
1000
0010
,  // measure 50
1000
0001
0010
0100
,  // measure 51
0110
0000
1001
0000
,  // measure 52
0110
0000
1001
0000
,  // measure 53
0110
0100
0010
0100
,  // measure 54
0010
0000
0001
0000
,  // measure 55
0000
0000
1000
1000
,  // measure 56
0000
0100
0000
0000
,  // measure 57
0100
0000
0010
0000
,  // measure 58
0001
0000
1000
0000
,  // measure 59
0001
0000
1000
0000
,  // measure 60
0000
0100
0000
0000
,  // measure 61
1000
0000
0001
0000
,  // measure 62
1000
0000
0001
0000
;
