#VERSION:0.83;
#TITLE:Helikopter;
#SUBTITLE:;
#ARTIST:Fazlija;
#TITLETRANSLIT:;
#SUBTITLETRANSLIT:;
#ARTISTTRANSLIT:;
#GENRE:Bosnian Folk Pop;
#ORIGIN:;
#CREDIT:;
#BANNER:Helikopter-bn.png;
#BACKGROUND:Helikopter-bg.png;
#PREVIEWVID:;
#JACKET:Helikopter-jacket.png;
#CDIMAGE:;
#DISCIMAGE:;
#LYRICSPATH:;
#CDTITLE:cdtitle.png;
#MUSIC:Helikopter.ogg;
#OFFSET:0.158000;
#SAMPLESTART:9.833000;
#SAMPLELENGTH:20.000000;
#SELECTABLE:YES;
#BPMS:0.000=192.000;
#STOPS:;
#DELAYS:;
#WARPS:;
#TIMESIGNATURES:0.000=4=4;
#TICKCOUNTS:0.000=4;
#COMBOS:0.000=1;
#SPEEDS:0.000=0.000=0.000=0,
4.000=1.000=28.000=0,
320.000=0.000=10.000=0;
#SCROLLS:0.000=1.000,
192.000=0.800,
192.250=0.600,
192.500=0.500,
255.000=0.600,
255.250=0.700,
255.500=0.800,
255.750=0.900,
256.000=1.000;
#FAKES:;
#LABELS:0.000=Song Start;
#BGCHANGES:;
#KEYSOUNDS:;
#ATTACKS:
;

//---------------dance-single - ----------------
#NOTEDATA:;
#CHARTNAME:X-Scale 3;
#STEPSTYPE:dance-single;
#DESCRIPTION:;
#CHARTSTYLE:;
#DIFFICULTY:Beginner;
#METER:2;
#RADARVALUES:0.125342,0.188686,0.000000,0.000000,0.000000,93.000000,93.000000,0.000000,0.000000,0.000000,0.000000,0.000000,0.000000,0.000000,0.125342,0.188686,0.000000,0.000000,0.000000,93.000000,93.000000,0.000000,0.000000,0.000000,0.000000,0.000000,0.000000,0.000000;
#CREDIT:k3niik0pt3r;
#NOTES:
// measure 0
0000
0000
0000
0000
,  // measure 1
0000
0000
0000
0000
,  // measure 2
0000
0000
0000
0000
,  // measure 3
0000
0000
0000
0000
,  // measure 4
0000
0000
0000
0000
,  // measure 5
0000
0000
0000
0000
,  // measure 6
0000
0000
0000
0000
,  // measure 7
0000
0000
0000
0000
,  // measure 8
0001
0000
0000
0000
,  // measure 9
1000
0000
0000
0000
,  // measure 10
0010
0000
0000
0000
,  // measure 11
1000
0000
0000
0000
,  // measure 12
0001
0000
0000
0000
,  // measure 13
1000
0000
0000
0000
,  // measure 14
0010
0000
0000
0000
,  // measure 15
1000
0000
0000
0000
,  // measure 16
0001
0000
0000
0000
,  // measure 17
0010
0000
0000
0000
,  // measure 18
0100
0000
0000
0000
,  // measure 19
0010
0000
0000
0000
,  // measure 20
0001
0000
0000
0000
,  // measure 21
0010
0000
0000
0000
,  // measure 22
0100
0000
0000
0000
,  // measure 23
0010
0000
0000
0000
,  // measure 24
0001
0000
1000
0000
,  // measure 25
0001
0000
1000
0000
,  // measure 26
0100
0000
0010
0000
,  // measure 27
0100
0000
0010
0000
,  // measure 28
0001
0000
0100
0000
,  // measure 29
0001
0000
0100
0000
,  // measure 30
0010
0000
1000
0000
,  // measure 31
0010
0000
1000
0000
,  // measure 32
0001
0000
0000
0000
,  // measure 33
1000
0000
0000
0000
,  // measure 34
0010
0000
0000
0000
,  // measure 35
1000
0000
0000
0000
,  // measure 36
0001
0000
0000
0000
,  // measure 37
0010
0000
0000
0000
,  // measure 38
0100
0000
0000
0000
,  // measure 39
1000
0000
0000
0000
,  // measure 40
0001
0000
0000
0000
,  // measure 41
1000
0000
0000
0000
,  // measure 42
0100
0000
0000
0000
,  // measure 43
1000
0000
0000
0000
,  // measure 44
0010
0000
0000
0000
,  // measure 45
0100
0000
0000
0000
,  // measure 46
0001
0000
0000
0000
,  // measure 47
1000
0000
0000
0000
,  // measure 48
0001
0000
1000
0000
,  // measure 49
0001
0000
0000
0000
,  // measure 50
0010
0000
0100
0000
,  // measure 51
0010
0000
0000
0000
,  // measure 52
0001
0000
1000
0000
,  // measure 53
0001
0000
0000
0000
,  // measure 54
1000
0000
0010
0000
,  // measure 55
1000
0000
0000
0000
,  // measure 56
0100
0000
0010
0000
,  // measure 57
0001
0000
0000
0000
,  // measure 58
1000
0000
0001
0000
,  // measure 59
0100
0000
0000
0000
,  // measure 60
0001
0000
0010
0000
,  // measure 61
0100
0000
0000
0000
,  // measure 62
0010
0000
0100
0000
,  // measure 63
1000
0000
0000
0000
,  // measure 64
0001
0000
0000
0000
,  // measure 65
0010
0000
0000
0000
,  // measure 66
0100
0000
0000
0000
,  // measure 67
1000
0000
0001
0000
,  // measure 68
1000
0000
0000
0000
,  // measure 69
0010
0000
0000
0000
,  // measure 70
0100
0000
0000
0000
,  // measure 71
0001
0000
0100
0000
,  // measure 72
0001
0000
0000
0000
,  // measure 73
1000
0000
0000
0000
,  // measure 74
0001
0000
0000
0000
,  // measure 75
0010
0000
0100
0000
,  // measure 76
0010
0000
0000
0000
,  // measure 77
0001
0000
0000
0000
,  // measure 78
1000
0000
0000
0000
,  // measure 79
0010
0000
1000
0000
,  // measure 80
0010
0000
0000
0000
;

//---------------dance-single - ----------------
#NOTEDATA:;
#CHARTNAME:X-Scale 7;
#STEPSTYPE:dance-single;
#DESCRIPTION:;
#CHARTSTYLE:;
#DIFFICULTY:Easy;
#METER:5;
#RADARVALUES:0.328853,0.415110,0.028303,0.018869,0.000000,244.000000,241.000000,3.000000,2.000000,0.000000,0.000000,0.000000,0.000000,0.000000,0.328853,0.415110,0.028303,0.018869,0.000000,244.000000,241.000000,3.000000,2.000000,0.000000,0.000000,0.000000,0.000000,0.000000;
#CREDIT:k3niik0pt3r;
#NOTES:
// measure 0
0000
0000
0000
0000
,  // measure 1
0000
0000
0000
0000
,  // measure 2
0000
0000
0000
0000
,  // measure 3
0000
0000
0000
0000
,  // measure 4
0000
0000
0000
0000
,  // measure 5
0000
0000
0000
0000
,  // measure 6
0000
0000
0000
0000
,  // measure 7
0000
0000
0000
0000
,  // measure 8
1100
0000
0001
1000
,  // measure 9
0001
0000
0100
0000
,  // measure 10
0001
0000
1000
0000
,  // measure 11
0010
1000
0001
1000
,  // measure 12
0010
0000
1000
0100
,  // measure 13
0010
0000
0001
0000
,  // measure 14
1000
0001
0010
0000
,  // measure 15
0001
1000
0001
1000
,  // measure 16
0001
0000
0010
0100
,  // measure 17
1000
0000
0001
0000
,  // measure 18
1000
0010
1000
0000
,  // measure 19
0001
0100
0001
0100
,  // measure 20
0001
0000
0010
0100
,  // measure 21
1000
0000
0001
0000
,  // measure 22
1000
0000
0010
1000
,  // measure 23
0001
0000
1000
0000
,  // measure 24
0001
0100
0001
0100
,  // measure 25
0010
1000
0010
1000
,  // measure 26
0100
0010
0100
0010
,  // measure 27
0001
1000
0001
1000
,  // measure 28
0100
0010
0100
0010
,  // measure 29
0001
0100
0001
0100
,  // measure 30
0010
1000
0010
1000
,  // measure 31
0001
1000
0001
1000
,  // measure 32
1001
0000
0000
0010
1000
0000
0001
0000
,  // measure 33
0100
0000
0000
0010
0100
0000
0001
0000
,  // measure 34
1000
0000
0000
1000
0001
0000
1000
0000
,  // measure 35
0010
0000
1000
0000
1000
0001
0010
0000
,  // measure 36
0001
0000
0000
0010
0100
0000
1000
0000
,  // measure 37
0001
0000
0000
1000
0100
0000
0010
0000
,  // measure 38
0001
0000
0000
0001
1000
0000
0001
0000
,  // measure 39
0100
0000
0010
0000
1000
0001
1000
0000
,  // measure 40
0100
0000
0000
0100
0010
0000
0001
0000
,  // measure 41
1000
0000
0000
0010
1000
0000
0001
0000
,  // measure 42
0100
0000
0000
0001
1000
0000
0100
0000
,  // measure 43
0010
0000
0100
0000
1000
0001
0100
0000
,  // measure 44
0001
0000
0000
0010
0100
0000
0010
0000
,  // measure 45
0001
0000
0000
1000
0001
0000
1000
0000
,  // measure 46
0010
0000
0000
1000
0100
0000
0010
0000
,  // measure 47
0001
0000
1000
0000
0001
0010
0100
0000
,  // measure 48
1001
0000
1000
0000
,  // measure 49
0001
0000
0100
0001
,  // measure 50
1000
0000
0100
0000
,  // measure 51
0010
0000
0001
0010
,  // measure 52
0100
0000
1000
0000
,  // measure 53
0001
0000
0100
0001
,  // measure 54
1000
0000
0001
0000
,  // measure 55
1000
0000
0010
0100
,  // measure 56
0001
0000
1000
0000
,  // measure 57
0001
0000
0100
0001
,  // measure 58
1000
0000
0100
0000
,  // measure 59
0010
0000
0100
1000
,  // measure 60
0001
0000
0100
0000
,  // measure 61
0001
0000
0010
0100
,  // measure 62
1000
0000
0001
0000
,  // measure 63
1000
0000
0100
0010
,  // measure 64
0001
0000
1000
0010
,  // measure 65
1000
0000
0001
0010
,  // measure 66
0001
0000
0100
0000
,  // measure 67
0001
1000
0001
1000
,  // measure 68
0001
0000
0100
0010
,  // measure 69
0100
0000
0001
0010
,  // measure 70
0001
0000
0000
1000
0001
0000
1000
0000
,  // measure 71
0001
0100
0010
1000
,  // measure 72
0001
0000
0000
1000
0100
0000
1000
0000
,  // measure 73
0001
0000
0000
0100
0010
0000
0100
0000
,  // measure 74
0001
0000
0000
0010
0100
0000
1000
0000
,  // measure 75
0001
0010
0001
0010
,  // measure 76
0001
0000
0000
0010
0100
0000
1000
0000
,  // measure 77
0001
0000
0000
0100
0001
0000
1000
0000
,  // measure 78
0100
0000
0000
0010
0100
0000
1000
0000
,  // measure 79
0002
0000
2000
0000
,  // measure 80
3003
0000
0000
0000
;

//---------------dance-single - ----------------
#NOTEDATA:;
#CHARTNAME:X-Scale 13;
#STEPSTYPE:dance-single;
#DESCRIPTION:;
#CHARTSTYLE:;
#DIFFICULTY:Medium;
#METER:9;
#RADARVALUES:0.595710,0.622665,0.254727,0.358504,0.084909,442.000000,415.000000,27.000000,38.000000,0.000000,0.000000,0.000000,0.000000,0.000000,0.595710,0.622665,0.254727,0.358504,0.084909,442.000000,415.000000,27.000000,38.000000,0.000000,0.000000,0.000000,0.000000,0.000000;
#CREDIT:k3niik0pt3r;
#NOTES:
// measure 0
0000
0000
0000
0000
,  // measure 1
0000
0000
0000
0000
,  // measure 2
0000
0000
0000
0000
,  // measure 3
0000
0000
0000
0000
,  // measure 4
0000
0000
0000
0000
,  // measure 5
0000
0000
0000
0000
,  // measure 6
0000
0000
0000
0000
,  // measure 7
1000
0001
0100
0010
1000
0100
0010
0001
,  // measure 8
1001
0000
1000
0001
0100
0000
0101
0000
,  // measure 9
0001
0200
0000
2300
0000
3020
0000
0000
,  // measure 10
0031
0000
1000
0000
0100
0010
0001
0000
,  // measure 11
0022
0033
2020
3030
0001
1000
0010
1000
,  // measure 12
0002
0000
0000
0103
0001
1000
0010
0000
,  // measure 13
1000
0000
0100
0010
0001
1000
0001
0000
,  // measure 14
2002
3003
0220
0330
0001
0100
0010
0000
,  // measure 15
2020
3030
0022
0033
1000
0001
0010
0001
,  // measure 16
1000
0000
0100
0010
0001
0000
0011
0000
,  // measure 17
0001
0020
0000
2030
0000
3200
0000
0000
,  // measure 18
0301
0000
0100
0000
1000
0100
0001
0000
,  // measure 19
0202
0303
2200
3300
0100
1000
0001
1000
,  // measure 20
0100
0000
0010
0100
1000
0000
0010
1000
,  // measure 21
0001
0000
0100
0000
0001
0100
1000
0100
,  // measure 22
0001
0000
1000
0100
0001
0000
0100
0000
,  // measure 23
1000
0000
0001
0000
0100
0010
1000
0000
,  // measure 24
1000
0100
0001
1000
0010
0100
1000
0000
,  // measure 25
0001
0100
1000
0010
0001
0000
0011
0000
,  // measure 26
1000
0010
0100
0001
0100
0010
1000
0000
,  // measure 27
1000
0100
0001
0010
1000
0000
1010
0000
,  // measure 28
1000
0001
0100
0001
0010
0100
1000
0000
,  // measure 29
0001
0100
1000
0010
0001
0000
0011
0000
,  // measure 30
1000
0001
0100
0010
1000
0100
0010
0000
,  // measure 31
0001
0100
0000
0100
1000
0100
0010
0100
,  // measure 32
1001
0000
0000
1000
0100
0010
0001
0000
,  // measure 33
1000
0000
0001
0100
1000
0100
0001
0000
,  // measure 34
1000
0000
0010
1000
0001
0000
0100
0000
,  // measure 35
0001
0000
0010
0000
1000
0010
0100
0010
,  // measure 36
0001
0000
0000
0010
0001
1000
0001
0000
,  // measure 37
0100
0000
0000
0010
0000
0000
0200
0000
0001
0000
0000
0000
0320
0000
0030
0000
,  // measure 38
1001
0000
0100
0001
1000
0000
0010
0000
,  // measure 39
1000
0000
0001
0010
0200
0000
0301
0100
,  // measure 40
1000
0000
0010
1000
0000
0001
1000
0001
,  // measure 41
0100
0000
0010
1000
0200
0000
0001
0000
,  // measure 42
1300
0000
0000
0100
0000
0000
0010
0000
0001
0000
1000
0000
0001
0000
0100
0000
,  // measure 43
0002
0000
0100
0000
1000
0000
0103
0001
,  // measure 44
1000
0000
0000
0010
0000
0000
1000
0000
0001
0000
0100
0000
0001
0000
0000
0001
,  // measure 45
1000
0000
0010
1000
0001
1000
0100
0000
,  // measure 46
0100
0010
0001
1000
0001
0010
0100
0000
,  // measure 47
1000
0010
0001
0010
1000
0100
0001
0100
,  // measure 48
1000
0000
0000
0000
1000
0000
0100
0000
0000
0001
0000
0000
0010
0000
0000
0000
,  // measure 49
1000
0000
0000
0001
0000
0000
0100
0000
0000
0000
0001
0000
0000
0000
0000
0000
,  // measure 50
1001
0000
0000
1000
0000
0000
0001
0000
0100
0000
0000
0000
0001
0000
0010
0000
,  // measure 51
0100
0010
0001
1000
,  // measure 52
0001
0000
0000
0000
0000
0000
0010
0000
0000
0100
0000
0000
1000
0000
0000
0000
,  // measure 53
0010
0001
0100
1000
,  // measure 54
1100
0001
1001
0010
,  // measure 55
0110
0000
0001
0000
1001
0000
1000
0010
,  // measure 56
1001
0000
1000
0100
0001
0000
0010
0000
,  // measure 57
1000
0000
0010
0100
1000
0000
0100
0000
,  // measure 58
0001
0000
1000
0001
0100
0000
0001
0000
,  // measure 59
0010
0100
0000
0000
0010
0001
0000
0000
1000
0010
0000
0000
0100
0000
0010
0000
,  // measure 60
0100
0000
0000
0000
0001
0000
1000
0000
0000
0010
0000
0000
1000
0000
0100
0000
,  // measure 61
0010
0000
0011
0000
0001
0000
1000
0001
,  // measure 62
0100
0000
0001
0010
0100
0000
1000
0000
,  // measure 63
1001
0000
0100
0000
0101
0000
0001
1000
,  // measure 64
1001
0000
0001
0100
1000
0100
0001
0000
,  // measure 65
1000
0020
0000
0032
0000
0203
0000
0000
,  // measure 66
1300
0001
1000
0000
0001
0010
1000
0010
,  // measure 67
0001
1000
0000
0000
0010
1000
0000
0000
0001
0000
0100
0000
1000
0000
0100
0000
,  // measure 68
0020
0000
0000
0031
0010
1000
0001
0000
,  // measure 69
0020
0000
0000
0130
0010
0001
1000
0000
,  // measure 70
0001
0000
0100
0000
1000
0100
0001
0000
,  // measure 71
0010
0100
0000
0000
0010
0001
0000
0000
1000
0000
0100
0000
0001
0000
0100
0000
,  // measure 72
1000
0000
0001
0000
1000
0001
0100
0000
,  // measure 73
0001
0200
0000
2300
0000
3020
0000
0000
,  // measure 74
0031
0000
1000
0010
0001
0010
1000
0000
,  // measure 75
0010
0100
0000
0000
0100
0001
0000
0000
1000
0000
0010
0000
0001
0000
0010
0000
,  // measure 76
1000
0000
0100
0000
0010
0100
1000
0000
,  // measure 77
0001
0000
0100
0001
1000
0001
0100
0000
,  // measure 78
0001
0010
0000
0010
1000
0010
0001
0000
,  // measure 79
1000
0100
0010
0001
0100
0010
1000
0000
,  // measure 80
2002
0000
0000
0000
,  // measure 81
0000
0000
0000
0000
,  // measure 82
0000
0000
3003
0000
;

//---------------dance-single - ----------------
#NOTEDATA:;
#CHARTNAME:X-Scale 16;
#STEPSTYPE:dance-single;
#DESCRIPTION:;
#CHARTSTYLE:;
#DIFFICULTY:Hard;
#METER:11;
#RADARVALUES:0.672532,0.739415,0.207555,0.396241,0.212272,499.000000,477.000000,22.000000,42.000000,0.000000,0.000000,0.000000,0.000000,0.000000,0.672532,0.739415,0.207555,0.396241,0.212272,499.000000,477.000000,22.000000,42.000000,0.000000,0.000000,0.000000,0.000000,0.000000;
#CREDIT:k3niik0pt3r;
#NOTES:
// measure 0
0000
0000
0000
0000
,  // measure 1
0000
0000
0000
0000
,  // measure 2
0000
0000
0000
0000
,  // measure 3
0000
0000
0000
0000
,  // measure 4
0000
0000
0000
0000
,  // measure 5
0000
0000
0000
0000
,  // measure 6
0000
0000
0000
0000
,  // measure 7
1000
0000
1000
0000
0001
0000
0001
0000
1000
0010
1000
0010
1000
0010
1000
0010
,  // measure 8
1000
0000
0001
0100
1000
0100
0001
0000
,  // measure 9
1000
0200
0000
0302
0000
0023
0000
0000
,  // measure 10
1030
0100
0000
0100
0001
0100
1000
0000
,  // measure 11
0001
0010
0000
0000
0001
1000
0000
0000
0001
0000
0001
0000
0100
0000
0100
0000
,  // measure 12
1001
0000
0000
0001
0100
0010
1000
0000
,  // measure 13
0020
0000
0031
0010
1000
0001
1000
0000
,  // measure 14
0001
0100
1000
0100
0010
0100
0001
0000
,  // measure 15
1000
0001
0000
0000
1000
0100
0000
0000
0010
0000
0010
0000
0100
0000
0100
0000
,  // measure 16
1001
0000
0001
0100
1000
0100
0001
0000
,  // measure 17
1000
0200
0000
0302
0000
0023
0000
0000
,  // measure 18
1030
0000
0001
0100
0010
1000
0001
0000
,  // measure 19
1000
0010
0000
0000
1000
0001
0000
0000
1000
0000
1000
0000
0001
0000
0001
0000
,  // measure 20
1001
0000
0000
0010
1000
0001
1000
0000
,  // measure 21
0200
0000
0302
0000
1003
0010
0001
0000
,  // measure 22
1000
0010
0000
0010
0001
0010
1000
0000
,  // measure 23
0001
0100
1000
0100
0010
0100
0001
0000
,  // measure 24
1001
0100
1000
0001
0010
0010
0200
0300
,  // measure 25
1001
0001
0010
0010
0200
0300
1000
0000
,  // measure 26
1100
0100
0010
0001
1000
1000
0020
0030
,  // measure 27
1001
0001
1000
1000
0020
0030
0100
0000
,  // measure 28
0101
0001
1000
0001
0100
0100
0020
0030
,  // measure 29
1001
0001
0100
0100
0020
0030
1000
0000
,  // measure 30
1010
1000
0001
0010
0100
0100
2000
3000
,  // measure 31
0001
0200
0000
1300
0100
0010
0100
0001
,  // measure 32
1001
0000
0000
0001
0010
0100
1000
0000
,  // measure 33
0001
0000
0000
0000
1000
0000
0100
0000
0010
0000
0001
0000
1000
0001
0100
0010
,  // measure 34
1000
0000
0010
1000
0001
1000
0010
0000
,  // measure 35
0100
0000
0000
0000
0001
0100
0000
0000
1000
0100
0000
0000
0001
0000
0001
0000
,  // measure 36
1001
0000
0100
0001
1000
0100
0010
0000
,  // measure 37
0001
0000
0010
0000
0000
0000
0010
0000
1000
0000
0010
0000
0001
0010
0100
1000
,  // measure 38
0001
0000
0001
0100
1000
0100
0001
0000
,  // measure 39
0100
0000
0000
0000
0010
1000
0000
0000
0001
0100
0000
0000
0001
0000
0001
0000
,  // measure 40
1001
0000
0000
1000
0010
0100
0001
0000
,  // measure 41
1000
0000
0010
0000
0000
0000
0100
0000
0001
0000
1000
0000
0001
0100
0010
1000
,  // measure 42
0001
0000
0000
0100
0000
0000
1000
0000
0100
0000
0010
0000
0100
0000
0001
0000
,  // measure 43
1000
0001
0000
0000
0100
0010
0000
0000
1000
0010
0000
0000
1000
0000
1000
0000
,  // measure 44
1100
0000
1000
0010
0001
0010
1000
0000
,  // measure 45
0001
0000
0010
0000
0000
0000
0010
0000
1000
0000
0010
0000
0001
0010
0100
1000
,  // measure 46
0001
0100
1000
0100
0001
0000
0100
0010
,  // measure 47
1000
0000
1000
0000
0001
0000
0001
0000
0010
0000
0010
0100
1000
0001
1000
0100
,  // measure 48
1000
0000
0001
0100
1000
0000
0001
0010
,  // measure 49
2000
3200
0302
0023
,  // measure 50
1030
0000
0000
1000
0001
0000
0100
0010
,  // measure 51
1000
0000
0001
0010
0100
0000
1000
0000
,  // measure 52
1001
0000
0000
1000
0001
1000
0100
0000
,  // measure 53
0002
0023
2030
3002
,  // measure 54
1003
0000
0001
0100
1000
0100
0001
0000
,  // measure 55
1000
0001
0100
0000
0001
0010
0100
0000
,  // measure 56
1001
0000
0000
1000
0010
0000
1000
0001
,  // measure 57
0020
2030
3200
0302
,  // measure 58
1003
0000
0001
1000
0100
0000
0010
0100
,  // measure 59
1000
0100
0000
0000
1000
0001
0000
0000
0100
0001
0000
0000
0010
0000
0010
0000
,  // measure 60
1001
0000
0000
0001
0100
0001
1000
0000
,  // measure 61
0020
0032
0203
2300
,  // measure 62
3001
0000
0100
0001
1000
0000
0001
0001
,  // measure 63
1000
0010
1000
0100
0001
0100
1000
0000
,  // measure 64
1001
0000
1000
0001
0100
0001
1000
0000
,  // measure 65
0001
0020
0000
2030
0000
3200
0000
0000
,  // measure 66
0301
1000
0000
0010
1000
0001
1000
0100
,  // measure 67
0010
0001
0000
0000
0010
0100
0000
0000
1000
0001
0100
0000
0001
0000
0001
0000
,  // measure 68
1001
0000
0010
1000
0001
1000
0010
0000
,  // measure 69
0200
0000
0000
0000
1300
0000
0100
0000
0001
0000
1000
0000
0001
0100
0010
1000
,  // measure 70
0001
1000
0010
0100
0001
0010
0100
0000
,  // measure 71
1000
0010
0000
0000
0100
0010
0000
0000
1000
0000
1000
0000
0001
0000
0001
0000
,  // measure 72
0011
0000
0010
0100
1000
0001
1000
0000
,  // measure 73
0100
0002
0000
0023
0000
2030
0000
0000
,  // measure 74
3001
0000
1000
0100
0001
0100
1000
0000
,  // measure 75
0001
0100
0000
0000
1000
0100
0000
0000
0001
0000
0001
0000
1000
0000
1000
0000
,  // measure 76
1001
0000
0000
1000
0010
1000
0001
0000
,  // measure 77
0100
0000
0000
0000
1000
0000
0100
0000
0001
0000
1000
0000
0010
0100
0001
1000
,  // measure 78
0001
0100
0000
0010
1000
0001
1000
0100
,  // measure 79
1000
0000
0010
0000
0001
0000
1000
0000
0100
0000
0001
0000
1000
0001
1000
0001
,  // measure 80
2002
0000
0000
0000
,  // measure 81
0000
0000
0000
0000
,  // measure 82
0000
0000
3003
0000
;
