#TITLE:Havana;
#SUBTITLE:;
#ARTIST:Camila Cabello;
#TITLETRANSLIT:;
#SUBTITLETRANSLIT:;
#ARTISTTRANSLIT:;
#GENRE:Latin Pop;
#CREDIT:;
#BANNER:havana-bn.png;
#BACKGROUND:havana-bg.png;
#LYRICSPATH:;
#CDTITLE:cdtitle.png;
#MUSIC:Havana.ogg;
#OFFSET:-0.004000;
#SAMPLESTART:8.853001;
#SAMPLELENGTH:18.000000;
#SELECTABLE:YES;
#BPMS:0.000000=105.000000
;
#STOPS:
;
#BGCHANGES:;
#KEYSOUNDS:;
#ATTACKS:;

//---------------dance-single - this chart took me back to Havana, even though I've never been to Havana----------------
#NOTES:
     dance-single:
     X-Scale 11:
     Hard:
     8:
     0.482251,0.474715,0.028771,0.364428,0.210985,352.000000,349.000000,3.000000,38.000000,0.000000,0.000000,0.482251,0.474715,0.028771,0.364428,0.210985,352.000000,349.000000,3.000000,38.000000,0.000000,0.000000:
// measure 0
0000
0000
0000
0000
,  // measure 1
0000
0000
0000
0000
,  // measure 2
0000
0000
0000
0000
,  // measure 3
0000
0000
0000
0000
0000
0000
0000
1000
,  // measure 4
0100
0010
0001
0010
0001
1000
0001
0100
,  // measure 5
0000
0001
0010
0100
0010
0001
1000
0100
,  // measure 6
0010
0001
1000
0010
1000
0010
0100
0001
,  // measure 7
0000
0001
1000
0001
0010
0100
0010
0001
,  // measure 8
1000
0000
0100
0000
0010
0000
0100
0000
0010
0000
0001
0100
0001
0000
0100
0000
,  // measure 9
0000
0100
0010
1000
0100
1000
0001
0010
,  // measure 10
0100
0000
1000
0000
0010
0000
1000
0000
0100
0000
0010
0100
0010
0000
0001
0000
,  // measure 11
0100
0001
0001
1000
0010
1000
0010
1000
,  // measure 12
1010
0000
0010
0000
0100
0000
0001
0000
0010
0000
0100
0000
0010
0000
0000
0001
0000
0000
0010
0000
0000
1000
0000
0000
,  // measure 13
0010
0000
0001
0100
0001
0000
0001
0000
1000
0000
0100
0000
1000
0000
0010
0000
,  // measure 14
1000
0000
0000
0000
0010
0000
0000
0000
0100
0000
0000
0000
0001
0000
0000
0000
0010
0000
0000
0000
0100
0000
0000
0000
1000
0000
0000
0000
0000
0000
1000
0000
0000
0100
0000
0000
1000
0000
0000
0000
0000
0000
0001
0000
0000
0000
0000
0000
,  // measure 15
1000
0000
0010
1000
0010
0000
0100
0000
0001
0000
0010
0000
0001
0000
1000
0000
,  // measure 16
0100
1000
0000
0001
0100
0000
0010
0000
1000
0000
0001
0100
0001
0000
0100
0000
,  // measure 17
0010
0000
1000
0010
1000
0000
0100
0000
0010
0000
0100
0000
1000
0000
0001
0000
,  // measure 18
1000
0000
0000
0000
0010
0000
0000
0000
0100
0000
0000
0000
0010
0000
0000
0000
0000
0000
0001
0000
0000
0000
0000
0000
0010
0000
0000
0000
0000
0000
1000
0000
0000
0010
0000
0000
1000
0000
0000
0000
0000
0000
0001
0000
0000
0000
0000
0000
,  // measure 19
0010
0000
0001
0010
0001
0000
1000
0000
0010
0000
0100
0000
0001
0100
0001
0000
,  // measure 20
0200
0000
0000
0000
0310
0000
0100
0000
1000
0000
0100
0010
0100
0000
0001
0000
,  // measure 21
0010
0001
0100
0010
0010
0100
0100
0001
,  // measure 22
1000
1000
0001
1000
1000
0100
0010
0001
,  // measure 23
0100
0000
0100
0000
0002
0000
0000
0000
0000
0000
0013
0001
0010
0001
0010
0000
,  // measure 24
1000
0100
1000
0100
1000
0000
0001
0000
0010
0000
0001
0010
0001
0000
0100
0000
,  // measure 25
0010
0000
1000
0000
0100
0000
0010
0000
0100
0000
1000
0010
1000
0000
0100
0000
,  // measure 26
0010
0000
0010
0000
0001
0000
0100
0000
0010
0000
0000
0010
1000
0000
1000
0000
,  // measure 27
0200
0001
0010
0010
0010
0010
0010
1300
,  // measure 28
1100
0000
1000
0100
1000
0000
0010
0000
0010
0000
0100
0010
0100
0000
0001
0000
,  // measure 29
1000
0100
0010
0100
1000
0001
0100
0010
,  // measure 30
0100
0000
0001
0000
1000
0000
0010
0000
1000
0000
0010
0100
0010
0000
1000
0000
,  // measure 31
0100
0001
0100
0010
0001
1000
0100
1000
,  // measure 32
0010
0000
1000
0000
0100
0000
0010
0000
0100
0000
0010
0001
0010
0000
0001
0000
,  // measure 33
1000
0000
0010
1000
0010
0000
1000
0000
0001
0000
0100
0000
0010
0000
1000
0000
,  // measure 34
0100
0100
1000
0010
0100
0001
0010
0100
,  // measure 35
0010
0000
0010
0000
0001
0000
0100
0001
0100
0000
0010
0000
0100
0000
0010
0000
,  // measure 36
0110
0100
0100
0002
2003
3200
0302
0203
,  // measure 37
2300
3020
1000
0000
1030
0010
0010
4000
,  // measure 38
3001
0000
1000
0000
0100
0000
2000
0000
3020
0000
2030
0000
0100
0000
3200
2300
,  // measure 39
3002
1003
0001
1000
1000
0010
0010
0400
,  // measure 40
0310
0100
0001
0020
0032
2003
3020
0230
,  // measure 41
0302
0000
0203
0000
0010
0000
1300
0000
0100
0000
0010
0000
0100
0000
0001
0010
,  // measure 42
0200
0000
0000
0000
1300
0000
2000
3002
2003
3000
0020
0000
0100
0030
0020
2030
,  // measure 43
3002
0000
0000
0000
0000
0000
0013
0000
0001
0000
0010
0002
0023
0032
2003
3200
,  // measure 44
2300
3002
0000
0000
0000
0000
0000
0000
0000
0000
0000
0000
0000
0000
0000
0000
,  // measure 45
0003
0000
0000
0000
;

//---------------dance-single - Jeffrey just left Havana to go back to East Atlanta----------------
#NOTES:
     dance-single:
     X-Scale 8:
     Medium:
     6:
     0.335657,0.358674,0.009590,0.306887,0.004795,245.000000,244.000000,1.000000,32.000000,0.000000,0.000000,0.335657,0.358674,0.009590,0.306887,0.004795,245.000000,244.000000,1.000000,32.000000,0.000000,0.000000:
// measure 0
0000
0000
0000
0000
,  // measure 1
0000
0000
0000
0000
,  // measure 2
0000
0000
0000
0000
,  // measure 3
0000
0000
0000
0000
,  // measure 4
2000
0000
3001
1000
0010
0100
0001
0200
,  // measure 5
0000
0300
0100
0001
1000
0010
1000
0010
,  // measure 6
2000
0000
3001
0010
1000
0010
0001
0200
,  // measure 7
0300
0200
0310
1000
0001
1000
0100
0010
,  // measure 8
0002
0000
1003
0010
0100
0001
0010
0200
,  // measure 9
0000
0310
0001
1000
0001
0010
0001
0010
,  // measure 10
0100
0010
0000
0001
0100
1000
0100
0001
,  // measure 11
0002
0100
0100
0000
1000
0000
0100
0000
,  // measure 12
0013
0000
0001
0010
0001
0000
1000
0100
,  // measure 13
0010
0000
1000
0000
0010
0000
0001
0100
,  // measure 14
0001
0000
1000
0100
1000
0000
0001
0010
,  // measure 15
0100
0010
0010
0000
0001
0000
1000
0100
,  // measure 16
1000
0000
0100
1000
0001
0000
1000
0100
,  // measure 17
0010
0000
0001
1000
0001
0000
0100
0010
,  // measure 18
0001
0000
0001
0010
0001
0000
1000
0100
,  // measure 19
0010
0000
0000
0000
0001
0000
0000
0000
1000
0000
0000
0000
0010
0100
0010
0000
,  // measure 20
0200
0000
0310
0000
1000
0000
0001
0100
,  // measure 21
1000
0100
0001
0000
0100
0000
0010
0000
,  // measure 22
1000
1000
0100
0010
0010
0001
0100
0010
,  // measure 23
1000
1000
0002
0000
0000
0013
0001
0010
,  // measure 24
0002
0000
1003
0000
0010
0000
1000
0100
,  // measure 25
0001
0100
1000
0000
0001
0000
1000
0000
,  // measure 26
0100
0100
1000
0010
0010
0100
0001
1000
,  // measure 27
0002
0010
1000
0010
,  // measure 28
1003
0000
0001
0010
0001
0000
1000
0001
,  // measure 29
0000
0001
0010
0000
0100
0010
0100
0000
,  // measure 30
0010
0000
0001
1000
0002
0000
1003
0002
,  // measure 31
0003
0001
1000
0001
0010
0100
1000
0100
,  // measure 32
0000
0100
0010
0001
0010
0000
0001
1000
,  // measure 33
0001
0000
1000
0000
0100
0010
0100
0000
,  // measure 34
1000
1000
1000
0000
0001
0000
0100
0000
,  // measure 35
0001
0001
0001
0010
0100
0010
0100
0010
,  // measure 36
0110
0010
0001
0000
1000
0200
0320
0230
,  // measure 37
0320
0030
0001
0000
1000
0001
0010
0001
,  // measure 38
0100
0000
0001
0000
1000
0200
2300
3200
,  // measure 39
2300
3000
0100
0000
1000
0010
1000
0100
,  // measure 40
0010
0000
0100
0000
1000
0002
0203
0302
,  // measure 41
0203
0300
0001
2000
3000
2000
3001
0001
,  // measure 42
1000
0000
0001
0000
0100
0002
2003
3002
,  // measure 43
2003
3000
0000
1000
0100
0010
0100
0010
,  // measure 44
0100
0000
0000
0000
;

//---------------dance-single - There's some mannerisms going on in here that Havana is just there...----------------
#NOTES:
     dance-single:
     X-Scale 5:
     Easy:
     3:
     0.276746,0.295378,0.019180,0.019180,0.000000,202.000000,200.000000,2.000000,2.000000,0.000000,0.000000,0.276746,0.295378,0.019180,0.019180,0.000000,202.000000,200.000000,2.000000,2.000000,0.000000,0.000000:
// measure 0
0000
0000
0000
0000
,  // measure 1
0000
0000
0000
0000
,  // measure 2
0000
0000
0000
0000
,  // measure 3
0000
0000
0000
0000
,  // measure 4
0001
0000
1000
0001
1000
0000
0100
0010
,  // measure 5
0000
0010
0001
0000
1000
0000
0001
0010
,  // measure 6
0001
0000
1000
0100
1000
0000
0001
0010
,  // measure 7
0000
0010
0100
0000
1000
0000
0001
0100
,  // measure 8
0001
0000
0010
0100
0010
0000
0001
1000
,  // measure 9
0000
1000
0100
0000
1000
0000
0100
0000
,  // measure 10
0010
0001
0010
0000
1000
0000
0010
0000
,  // measure 11
0001
0010
0001
0000
1000
0000
0001
0000
,  // measure 12
1001
0000
1000
0000
0010
0000
0100
0001
,  // measure 13
0100
0000
0001
0000
0010
0000
0100
0100
,  // measure 14
0100
0000
1000
0000
0001
0000
1000
0100
,  // measure 15
1000
0000
0001
0000
0010
0000
0100
0100
,  // measure 16
0100
0000
0001
0000
0100
0000
1000
0010
,  // measure 17
1000
0000
0001
0000
0010
0000
0100
0100
,  // measure 18
0100
0000
1000
0000
0010
0000
0100
0010
,  // measure 19
0100
0001
1000
0100
,  // measure 20
2000
3010
1000
0001
,  // measure 21
0010
0100
1000
0000
0100
0000
0010
0000
,  // measure 22
0100
0010
0000
0100
0010
0000
0100
0000
,  // measure 23
1000
0100
1000
0000
0001
0000
0010
0000
,  // measure 24
0001
1000
0010
0100
,  // measure 25
0001
0010
0001
0000
1000
0000
0001
0000
,  // measure 26
0010
0100
0000
0010
0100
0000
0010
0000
,  // measure 27
0002
0000
1000
0000
,  // measure 28
0013
0001
0100
0010
,  // measure 29
1000
0000
0001
0000
0010
0000
0100
0010
,  // measure 30
0100
0001
0100
1000
,  // measure 31
0010
0000
0100
0000
0001
0100
1000
0100
,  // measure 32
0001
0010
0001
1000
,  // measure 33
0100
0000
1000
0000
0100
0010
0100
0000
,  // measure 34
1000
1000
1000
0000
0001
0000
0100
0000
,  // measure 35
0001
0001
0001
0010
0100
0000
0010
0000
,  // measure 36
0011
0000
0001
0000
1000
0001
1000
0001
,  // measure 37
1000
0001
0010
0100
,  // measure 38
0010
0000
0001
0000
0100
0010
0100
0010
,  // measure 39
0100
0001
1000
0100
,  // measure 40
1000
0000
0001
0000
0010
0001
0010
0001
,  // measure 41
0010
0000
0001
1000
0000
1000
0100
0010
,  // measure 42
0100
0000
0010
0000
0001
0100
0001
0100
,  // measure 43
0001
0000
0000
0001
0010
0100
0010
0100
,  // measure 44
0010
0000
0000
0000
;

//---------------dance-single - take me to Havana pls----------------
#NOTES:
     dance-single:
     X-Scale 2:
     Beginner:
     1:
     0.150703,0.189886,0.009590,0.047951,0.000000,110.000000,109.000000,1.000000,5.000000,0.000000,0.000000,0.150703,0.189886,0.009590,0.047951,0.000000,110.000000,109.000000,1.000000,5.000000,0.000000,0.000000:
0000
0000
0000
0000
,
0000
0000
0000
0000
,
0000
0000
0000
0000
,
0000
0000
0000
0000
,
0000
1000
0000
0001
,
0000
0010
0000
0100
,
1000
0100
0000
1000
,
0000
0010
0000
1000
,
0001
1000
0000
0100
,
0000
0010
0000
0100
,
1000
0100
0000
0010
,
0200
0000
0000
0000
,
0310
0100
0000
0010
,
0000
0001
0000
1000
,
0100
1000
0000
0001
,
0000
0010
0000
0001
,
0010
0001
0000
1000
,
0000
0010
0000
0100
,
0010
0100
0000
1000
,
0000
0001
0000
0100
,
0200
0001
0000
1000
,
0000
0301
0000
0100
,
0010
0100
0000
0001
,
0000
1000
0000
0010
,
0020
1000
0000
0001
,
0000
1030
0000
0001
,
0010
0001
0000
1000
,
2000
0000
0000
0000
,
3100
1000
0000
0001
,
1000
0001
0000
0010
,
0100
0010
0000
0001
,
0010
0001
0000
1000
,
0001
1000
0000
0010
,
0100
0010
0000
1000
,
0010
1000
0000
0001
,
0100
0001
0000
0000
,
0110
0000
0010
0000
0000
0000
1000
0010
,
1000
0001
0000
0010
,
0100
0000
0010
0000
0000
0000
0001
0010
,
0001
1000
0000
0100
,
1000
0000
0010
0000
0000
0000
1000
0001
,
1000
0100
0000
0010
,
0100
0000
0010
0000
0000
0000
0001
1000
,
0002
0000
0010
0100
,
1003
0000
0000
0000
;
