#VERSION:0.83;
#TITLE:Här kommer Rebecca;
#SUBTITLE:(Top3! Remix);
#ARTIST:Discocrew;
#TITLETRANSLIT:;
#SUBTITLETRANSLIT:;
#ARTISTTRANSLIT:;
#GENRE:Hands Up;
#ORIGIN:;
#CREDIT:;
#BANNER:HkR_Top3!-bn.png;
#BACKGROUND:HkR_Top3!-bg.png;
#PREVIEWVID:;
#JACKET:HkR_Top3!-jacket.png;
#CDIMAGE:;
#DISCIMAGE:;
#LYRICSPATH:;
#CDTITLE:cdtitle.png;
#MUSIC:HkR_Top3!.ogg;
#OFFSET:-0.428000;
#SAMPLESTART:22.285000;
#SAMPLELENGTH:13.300000;
#SELECTABLE:YES;
#BPMS:0.000=140.000;
#STOPS:;
#DELAYS:;
#WARPS:;
#TIMESIGNATURES:0.000=4=4;
#TICKCOUNTS:0.000=4;
#COMBOS:0.000=1;
#SPEEDS:0.000=1.000=0.000=0;
#SCROLLS:0.000=1.000;
#FAKES:;
#LABELS:0.000=Song Start;
#BGCHANGES:;
#KEYSOUNDS:;
#ATTACKS:
;

//---------------dance-single - ----------------
#NOTEDATA:;
#CHARTNAME:X-Scale 11;
#STEPSTYPE:dance-single;
#DESCRIPTION:;
#CHARTSTYLE:;
#DIFFICULTY:Hard;
#METER:8;
#RADARVALUES:0.498038,0.571129,0.083290,0.118985,0.089239,293.000000,286.000000,7.000000,10.000000,0.000000,0.000000,0.000000,0.000000,0.000000,0.498038,0.571129,0.083290,0.118985,0.089239,293.000000,286.000000,7.000000,10.000000,0.000000,0.000000,0.000000,0.000000,0.000000;
#CREDIT:;
#NOTES:
0000
0000
0000
0000
,
0000
0000
0000
0000
,
0000
0000
0000
0000
,
0000
0000
0000
1000
,
1000
0000
0001
1000
0001
1000
1100
0000
,
0010
0000
1000
0100
0010
0000
0001
0000
,
0100
0000
0001
0100
0010
0000
1000
0000
,
0001
0000
1000
0100
0010
0000
0001
0000
,
0100
0001
1000
0001
0100
0001
1000
0000
,
0100
1000
0100
0010
,
0001
0000
0000
0000
0010
0000
0000
0000
0001
0000
0000
0000
1001
0000
0000
1100
,
0000
0101
0000
0100
0100
0001
0001
1000
,
0010
0000
1000
0000
0010
0000
1000
0000
1000
0100
1000
0000
1100
0000
0010
0000
,
0001
0010
1000
1000
0001
0100
0010
1000
,
0001
0000
1000
0001
0000
0000
1000
0000
0010
0000
0100
0000
0001
0000
0010
0000
,
1000
0010
0001
0100
0010
1000
0000
0001
,
0010
0000
0100
0000
0010
0000
0001
0000
0010
0000
0001
1000
0001
0000
1000
0000
,
0100
1000
0010
0010
0100
1000
0100
0001
,
0010
0100
0010
0001
1000
0010
0100
0010
,
1000
0100
0001
0100
1000
1000
0001
0000
,
0100
0100
0001
0010
0100
1000
0002
0000
,
0100
0000
0100
0003
0001
0020
0000
0031
,
0010
0200
1000
0300
1000
0010
1000
0200
,
0000
0301
0100
1000
0010
0100
0010
2000
,
0000
0000
3001
0000
1000
0000
0001
0010
0001
0000
0001
0000
0100
0000
0010
0000
,
0001
0010
1000
0010
0100
0002
0010
0003
,
0001
2000
0100
3000
1000
0010
0001
0010
,
1000
0000
0000
0000
0010
0000
0010
0000
0010
0000
0100
0010
0100
0000
0100
0000
,
0000
0000
0001
0000
0201
0000
0000
0000
0000
0000
0000
0000
0310
0000
0000
0100
,
0001
0000
1000
0000
0001
0000
0010
0000
0100
0000
1000
0000
0010
0000
0000
1000
,
0001
0000
0010
0000
0001
0000
0100
0000
1000
0000
0100
0000
0001
0000
0000
0100
,
0010
0000
0100
0000
0001
0000
0010
0000
0100
0000
1000
0000
0001
0000
0000
1000
,
0100
0000
1000
0000
0010
0000
0100
0000
0001
0000
0001
0100
0001
0000
0000
1000
,
0100
0000
1000
0000
0010
0000
0001
0000
0010
0000
0100
0000
0001
0000
0000
0100
,
0001
0000
0010
0000
0001
0000
1000
0000
0100
0000
0010
0000
0001
0000
0000
0100
,
0001
0100
0010
0001
0010
1000
0001
0100
,
0001
0100
0010
1000
0010
1000
0001
0100
,
0001
0010
0100
1000
0010
1000
0100
0010
,
0001
0000
0100
0001
0000
0000
1000
0000
0100
0000
1000
0000
0010
0000
0100
0000
,
0001
1000
0010
0001
0010
1000
0100
0010
,
0100
1000
0001
0000
0100
0000
0001
0001
,
1000
0010
1000
0001
1000
0010
1000
0100
,
0001
0100
1000
0010
0100
0001
0010
0000
,
0001
0010
0001
1000
,
1000
0010
0010
2020
,
0000
0000
0000
0000
,
0000
0000
0000
0000
,
0000
0000
0000
0000
,
3030
0000
0000
0000
;

//---------------dance-single - ----------------
#NOTEDATA:;
#CHARTNAME:X-Scale 8;
#STEPSTYPE:dance-single;
#DESCRIPTION:;
#CHARTSTYLE:;
#DIFFICULTY:Medium;
#METER:6;
#RADARVALUES:0.343358,0.391908,0.071391,0.249869,0.017848,202.000000,196.000000,6.000000,21.000000,0.000000,0.000000,0.000000,0.000000,0.000000,0.343358,0.391908,0.071391,0.249869,0.017848,202.000000,196.000000,6.000000,21.000000,0.000000,0.000000,0.000000,0.000000,0.000000;
#CREDIT:;
#NOTES:
0000
0000
0000
0000
,
0000
0000
0000
0000
,
0000
0000
0000
0000
,
0000
0000
0000
0000
,
0000
0000
0000
0000
1000
0010
1000
0000
,
0001
0000
0010
0100
0010
0002
0000
2003
,
0000
3002
0000
0013
0100
1000
0001
0000
,
1000
0010
1000
0200
0000
0320
0001
0000
,
0031
0100
0010
0100
0010
0100
0110
0000
,
1000
0001
1000
0001
,
0010
0000
0000
0000
0100
0000
0000
0000
0010
0000
0000
0000
0100
0000
0000
1000
,
0000
0100
0000
1000
0010
2000
0000
0000
,
3001
1000
0001
1000
0001
0000
1001
1000
,
0001
0010
0001
1000
0000
1000
0100
0010
,
0001
0000
1000
0001
0000
0000
0100
0000
0010
0000
1000
0000
0001
0000
0010
0000
,
0100
1000
0000
0001
1000
0200
0000
0320
,
0000
0230
1000
1300
0100
0100
0010
0000
,
0001
0000
1000
0000
0001
0010
0000
0001
,
0100
0010
0001
0010
1000
0002
0000
2003
,
0000
3002
0000
1003
0100
0010
0010
0000
,
0001
0001
0000
0000
1000
0010
2000
0000
,
0001
0000
0000
3000
0001
2000
0000
3000
,
0001
2000
0000
3000
0100
0010
0001
2000
,
0000
3000
0010
0000
1000
0100
0010
0002
,
0000
0013
0002
0000
1003
0010
0100
0000
,
0001
0000
1000
0000
0001
0200
0000
0300
,
0001
0200
0000
0300
0001
1000
0010
2000
,
0001
3000
1000
0010
0010
0000
1000
1000
,
0000
0001
0001
0000
0000
0000
1000
0000
,
1001
0000
0001
0100
0001
0100
0001
0000
,
1000
0000
0100
0010
0100
0010
0100
0000
,
1000
0000
0001
0100
0001
0100
0001
0000
,
0010
0000
0100
1000
0100
1000
0100
0000
,
1100
0000
0001
0100
0001
0100
0001
0000
,
0101
0000
1000
0100
1000
0100
1000
0000
,
1100
0000
0001
0100
0001
0100
0001
0000
,
1000
0000
0001
0000
1000
0100
1000
0001
,
0100
0001
1000
0100
0000
1000
0010
0100
,
0001
0000
0100
0001
0000
0000
1000
0000
0100
0000
0010
0000
0001
0000
0000
0000
;

//---------------dance-single - ----------------
#NOTEDATA:;
#CHARTNAME:X-Scale 5;
#STEPSTYPE:dance-single;
#DESCRIPTION:;
#CHARTSTYLE:;
#DIFFICULTY:Easy;
#METER:4;
#RADARVALUES:0.305962,0.346098,0.047594,0.118985,0.000000,180.000000,176.000000,4.000000,10.000000,0.000000,0.000000,0.000000,0.000000,0.000000,0.305962,0.346098,0.047594,0.118985,0.000000,180.000000,176.000000,4.000000,10.000000,0.000000,0.000000,0.000000,0.000000,0.000000;
#CREDIT:;
#NOTES:
// measure 0
0000
0000
0000
0000
,  // measure 1
0000
0000
0000
0000
,  // measure 2
0000
0000
0000
0000
,  // measure 3
0000
0000
0000
0000
,  // measure 4
0000
0000
0000
1100
,  // measure 5
0010
1000
0010
0100
,  // measure 6
0001
0100
0001
0010
,  // measure 7
0100
0010
0100
1000
,  // measure 8
0001
1000
0001
1001
,  // measure 9
1000
0100
0010
0100
,  // measure 10
1000
0001
0100
0001
,  // measure 11
0000
0000
1000
0000
0000
0000
0001
0100
,  // measure 12
0000
0010
0000
0100
0020
0000
1030
0000
,  // measure 13
0001
0000
1000
0100
1000
0000
0001
0000
,  // measure 14
0100
0000
0001
0100
0001
0000
0010
0000
,  // measure 15
0100
0000
0010
0001
0010
0000
0001
0000
,  // measure 16
1000
0000
0010
1000
0010
0000
0100
0000
,  // measure 17
0001
0000
1000
0100
1000
0000
0001
0000
,  // measure 18
0100
0000
0001
0100
0001
0000
0010
0000
,  // measure 19
0100
0000
1000
0001
1000
0001
1000
0000
,  // measure 20
0001
1000
0000
0000
0000
0000
0020
0000
,  // measure 21
0000
0000
0000
0030
0001
0200
0000
0300
,  // measure 22
0001
0200
0000
0300
0001
1000
0000
2000
,  // measure 23
0000
0000
3100
0000
0010
0100
0010
0000
,  // measure 24
0001
0100
0001
0000
1000
0000
0020
0000
,  // measure 25
0000
0000
0000
0030
1000
0002
0000
0003
,  // measure 26
1000
0002
0000
0003
1000
0100
0000
0200
,  // measure 27
0000
0000
0310
0100
0010
0000
0001
1000
,  // measure 28
0000
0001
1000
0000
0000
0000
0000
0000
,  // measure 29
1001
0000
0001
0000
1000
0100
0010
0000
,  // measure 30
0100
0000
1000
0000
0010
0100
0001
0000
,  // measure 31
1000
0000
0001
0000
1000
0100
0010
0000
,  // measure 32
0100
0000
1000
0000
0010
0100
0001
0000
,  // measure 33
0101
0000
1000
0000
0001
0010
0100
0000
,  // measure 34
0010
0000
0001
0000
1000
0010
0100
0000
,  // measure 35
0001
0000
1000
0000
0001
0010
0100
1000
,  // measure 36
0000
0001
0000
1000
0010
0100
0001
0000
,  // measure 37
1000
0000
0001
0010
0001
0000
1000
0000
,  // measure 38
0010
0000
1000
0001
1000
0000
0010
0000
,  // measure 39
0100
0000
0001
0100
0001
0000
1000
0000
,  // measure 40
0100
0000
1000
0100
1000
0000
0010
0100
,  // measure 41
0000
0010
0000
0100
0000
0010
0000
1000
,  // measure 42
0000
0001
0000
1000
0000
0001
1000
0000
,  // measure 43
0001
1000
0001
0020
,  // measure 44
0000
0100
0000
0030
;

//---------------dance-single - ----------------
#NOTEDATA:;
#CHARTNAME:X-Scale 2;
#STEPSTYPE:dance-single;
#DESCRIPTION:;
#CHARTSTYLE:;
#DIFFICULTY:Beginner;
#METER:1;
#RADARVALUES:0.118985,0.159738,0.035696,0.000000,0.000000,70.000000,67.000000,3.000000,0.000000,0.000000,0.000000,0.000000,0.000000,0.000000,0.118985,0.159738,0.035696,0.000000,0.000000,70.000000,67.000000,3.000000,0.000000,0.000000,0.000000,0.000000,0.000000,0.000000;
#CREDIT:;
#NOTES:
// measure 0
0000
0000
0000
0000
,  // measure 1
0000
0000
0000
0000
,  // measure 2
0000
0000
0000
0000
,  // measure 3
0000
0000
0000
0000
,  // measure 4
0000
0000
0000
0000
,  // measure 5
1000
0000
0100
0000
,  // measure 6
0010
0000
0001
0000
,  // measure 7
1000
0000
0001
0000
,  // measure 8
0000
0000
0000
0100
,  // measure 9
0000
0010
0000
1000
,  // measure 10
0000
0001
0000
1000
,  // measure 11
0000
0100
0000
0010
,  // measure 12
0000
0001
0000
0011
,  // measure 13
0000
1000
0000
0001
,  // measure 14
0000
0010
0000
0001
,  // measure 15
0000
1000
0000
0100
,  // measure 16
0000
0010
0000
0001
,  // measure 17
0000
1000
0000
0001
,  // measure 18
0000
0100
0000
0010
,  // measure 19
0000
1000
0000
0001
,  // measure 20
0000
0000
0000
1001
,  // measure 21
0000
1000
0000
0000
,  // measure 22
0000
0001
0000
0000
,  // measure 23
0000
1000
0000
0000
,  // measure 24
0000
0001
0000
0100
,  // measure 25
0000
0010
0000
1000
,  // measure 26
0000
0001
0000
1000
,  // measure 27
0000
0100
0000
0010
,  // measure 28
0000
0001
0000
0000
,  // measure 29
1001
0000
0000
1000
,  // measure 30
0000
0000
0000
0010
,  // measure 31
0000
0000
0000
1000
,  // measure 32
0000
0000
0000
0001
,  // measure 33
0000
0000
0000
0010
,  // measure 34
0000
0000
0000
0100
,  // measure 35
0000
0000
0000
1000
,  // measure 36
0000
0000
0000
0001
,  // measure 37
0000
0100
0000
0010
,  // measure 38
0000
1000
0000
0001
,  // measure 39
0000
0010
0000
0100
,  // measure 40
0000
1000
0000
0001
,  // measure 41
0000
0100
0000
0010
,  // measure 42
0000
1000
0000
0001
,  // measure 43
0000
1000
0000
0001
,  // measure 44
0000
1000
0000
0001
;
