#VERSION:0.83;
#TITLE:Hanakotoba;
#SUBTITLE:;
#ARTIST:Golin;
#TITLETRANSLIT:;
#SUBTITLETRANSLIT:;
#ARTISTTRANSLIT:;
#GENRE:Electropop;
#ORIGIN:;
#CREDIT:;
#BANNER:Hanakotoba-bn.png;
#BACKGROUND:Hanakotoba-bg.png;
#PREVIEWVID:;
#JACKET:Hanakotoba-jacket.png;
#CDIMAGE:;
#DISCIMAGE:;
#LYRICSPATH:;
#CDTITLE:cdtitle.png;
#MUSIC:Hanakotoba.ogg;
#OFFSET:-0.135000;
#SAMPLESTART:33.134998;
#SAMPLELENGTH:16.000000;
#SELECTABLE:YES;
#DISPLAYBPM:120.000000;
#BPMS:0.000=120.000,
26.000=240.000,
31.000=96.000,
33.000=120.000,
51.000=240.000,
51.500=120.000,
51.750=60.000,
52.000=120.000,
116.500=240.000,
117.000=120.000,
117.250=60.000,
117.500=120.000,
118.000=240.000,
118.500=120.000,
118.750=60.000,
119.000=120.000,
120.000=240.000,
121.000=120.000,
147.000=240.000,
147.500=120.000,
147.750=60.000,
148.000=120.000,
155.000=240.000,
155.500=120.000,
155.750=60.000,
156.000=120.000,
158.000=240.000,
158.500=120.000,
158.750=60.000,
160.000=120.000;
#STOPS:26.000=0.125,
26.500=0.125,
27.000=0.125,
27.500=0.125,
28.000=0.250,
29.000=0.125,
29.500=0.125,
30.000=0.125,
30.500=0.125,
31.000=0.250,
120.000=0.063,
120.250=0.063,
120.500=0.063,
120.750=0.063;
#DELAYS:;
#WARPS:;
#TIMESIGNATURES:0.000=4=4;
#TICKCOUNTS:0.000=4;
#COMBOS:0.000=1;
#SPEEDS:0.000=1.000=0.000=0;
#SCROLLS:0.000=1.000;
#FAKES:;
#LABELS:0.000=Song Start;
#BGCHANGES:;
#KEYSOUNDS:;
#ATTACKS:
;

//---------------dance-single - ----------------
#NOTEDATA:;
#CHARTNAME:X-Scale 13;
#STEPSTYPE:dance-single;
#DESCRIPTION:;
#CHARTSTYLE:;
#DIFFICULTY:Hard;
#METER:9;
#RADARVALUES:0.483940,0.541356,0.131238,0.237869,0.315791,413.000000,397.000000,16.000000,29.000000,0.000000,0.000000,0.000000,0.000000,0.000000,0.483940,0.541356,0.131238,0.237869,0.315791,413.000000,397.000000,16.000000,29.000000,0.000000,0.000000,0.000000,0.000000,0.000000;
#CREDIT:iamthek3n;
#DISPLAYBPM:120.000000;
#NOTES:
// measure 0
0000
0000
0000
0000
,  // measure 1
0000
0000
0000
0000
,  // measure 2
0000
0000
0000
0000
,  // measure 3
0000
0000
0000
0000
,  // measure 4
0000
0000
0000
0000
1000
0001
0100
0010
,  // measure 5
1000
0000
0001
0000
0001
0010
0000
0000
0000
0000
0100
0000
0100
0000
0000
0000
,  // measure 6
2000
0000
0000
0000
3001
0001
0001
0001
,  // measure 7
0001
0000
1000
1000
1000
1000
1000
0000
,  // measure 8
0000
0000
0110
0000
0100
0010
0100
0000
,  // measure 9
0001
0010
0100
0001
0100
0010
0001
0000
,  // measure 10
1000
1000
1100
0000
0100
0010
0001
0000
,  // measure 11
1000
0000
0001
0000
0100
0000
0000
0010
0000
0000
0100
0000
0001
0000
0000
0010
,  // measure 12
0100
0000
0100
0000
1000
0100
0000
0000
0010
0000
0001
0000
0101
0000
0000
0000
,  // measure 13
0100
0010
0110
0000
0001
1000
0010
0020
,  // measure 14
0030
0000
0000
1000
0100
0000
1000
0000
0001
0000
0010
0000
0001
0000
0000
0100
,  // measure 15
0010
0100
0001
1000
0001
0010
1000
0010
,  // measure 16
0100
1000
1010
1000
0010
0001
0010
0100
,  // measure 17
0010
0000
1000
0000
0001
0000
0010
0000
0200
0000
0000
0000
1300
0000
0010
0100
,  // measure 18
0010
0000
0100
0000
0001
0000
0000
0010
0200
0000
0000
0000
1300
0000
0010
0100
,  // measure 19
0010
0000
1000
0000
0000
0000
1000
0000
0200
0000
0000
0000
0310
0000
0001
0010
,  // measure 20
0001
1000
0010
0001
1000
0100
0001
1000
,  // measure 21
0010
0000
0100
0000
0001
0000
0010
0000
0200
0000
0000
0000
1300
0000
0010
0100
,  // measure 22
0010
0000
1000
0000
0001
0000
0000
0010
0200
0000
0000
0000
1300
0000
0001
0100
,  // measure 23
0001
0000
1000
0000
0000
0000
1000
0000
0200
0000
0000
0000
0310
0000
0001
0010
,  // measure 24
0002
0000
0000
0000
1003
0000
0000
0010
1000
0000
0001
0000
0100
0000
0010
0000
,  // measure 25
0100
0000
0001
0000
0020
0000
0000
0230
0000
0000
2300
0000
3002
0000
0003
0000
,  // measure 26
1000
0000
0001
0000
1000
0000
0000
0100
0010
0000
0100
0000
1000
0000
0000
0010
,  // measure 27
1000
0000
0001
0000
0020
0000
0000
0032
0000
0103
0002
0000
2003
0000
3000
0010
,  // measure 28
0000
0000
0010
0000
1000
0000
0000
0001
0100
0000
0001
0000
1000
0000
0200
0000
,  // measure 29
0300
0120
0000
1030
2000
0000
3002
0000
,  // measure 30
1003
0001
1000
0001
1000
0000
0000
0000
1001
0000
0000
0110
0000
0010
0100
0000
,  // measure 31
0001
0000
0100
0000
1000
0000
0010
0000
0001
0000
0000
1000
0010
0000
1000
0000
,  // measure 32
0000
0000
0001
0000
1001
0000
0000
1000
0100
0000
1000
0000
0001
0000
0000
0100
,  // measure 33
0010
0000
0100
0000
0001
0000
0000
0010
0100
0000
1000
0000
0002
0000
0000
0000
,  // measure 34
0013
0000
0010
0100
0010
0000
0000
0100
1000
0000
0001
0000
0100
0000
0000
0010
,  // measure 35
0100
0000
0001
0000
1000
0000
0000
0100
0010
0000
0001
0000
2000
0000
0010
0000
,  // measure 36
3000
0000
0010
0000
1010
0000
0000
1000
0000
1000
0001
0000
0101
0000
0000
0000
,  // measure 37
0001
0000
0001
0000
0011
0000
0000
0010
0100
0000
1000
0000
0002
0000
0000
1003
,  // measure 38
0001
0000
0001
0010
0100
0000
1000
0000
0000
0000
0001
0000
1001
0000
0000
0000
,  // measure 39
0001
1000
0000
1000
1001
0000
0000
0000
,  // measure 40
0001
0000
0000
0001
0000
0000
0001
0000
1000
0000
0000
1000
0000
0000
1000
0000
,  // measure 41
0010
0000
0100
0000
0002
0000
0000
0000
0013
0000
0100
0010
0002
0000
0000
0000
,  // measure 42
0013
0000
0000
0010
0000
0000
0010
0000
0100
0000
1000
0100
0010
0000
0001
0000
,  // measure 43
0000
0000
0001
0000
0002
0000
0000
0000
0013
0000
0100
0010
0100
0000
0000
0000
,  // measure 44
1000
0000
0000
1000
0000
0000
1000
0000
0001
0000
0000
0001
0000
0000
0001
0000
,  // measure 45
0100
0000
0010
0000
2000
0000
0000
0000
3100
0000
1000
0001
0200
0000
0000
0000
,  // measure 46
0310
0000
0000
0010
0000
0000
0010
0000
1000
0000
0001
1000
0100
0000
1000
0000
,  // measure 47
0000
0000
1000
0000
1100
0000
0000
0000
0101
0000
0000
0001
0000
0001
0100
0001
,  // measure 48
1000
0000
0000
1000
0100
0000
1000
0000
0001
0000
0000
0010
0100
0000
1000
0000
,  // measure 49
0001
0000
0100
0010
0100
0000
0001
0010
0001
0000
1000
0010
1000
0000
0100
0000
,  // measure 50
0100
0000
0010
0000
0001
0000
1000
0000
0001
0000
0000
0010
0100
0000
1000
0000
,  // measure 51
1000
0000
0010
1000
0001
0000
0100
0001
1000
0100
0010
0001
0100
0001
0000
0001
,  // measure 52
1000
0000
0000
0100
1000
0000
0001
0000
0100
0000
0000
0010
0100
0000
0001
0000
,  // measure 53
1000
0000
0100
1000
0001
0000
0100
0001
1000
0000
0100
0010
0001
0000
1000
0000
,  // measure 54
1000
0000
0010
0000
1000
0000
0001
0000
0010
0000
0000
0100
1000
0000
0001
0000
,  // measure 55
0100
0000
0010
0000
0010
0000
1000
0010
0100
0000
0000
0000
0000
0000
0000
0000
,  // measure 56
0001
0000
0000
0001
0000
0000
0010
0000
0100
0000
0000
0100
0000
0000
0100
0000
,  // measure 57
1000
0000
0000
1000
0000
0000
1000
0000
0001
0000
0000
0000
0000
0000
0000
0000
,  // measure 58
0100
0000
0000
0100
0000
0000
0001
0000
0010
0000
0000
0000
0000
0000
0000
0000
,  // measure 59
0100
0000
0000
0100
0000
0000
0100
0000
1000
0000
0000
0000
1000
0000
0000
0000
,  // measure 60
1000
0000
0000
0000
;

//---------------dance-single - ----------------
#NOTEDATA:;
#CHARTNAME:X-Scale 10;
#STEPSTYPE:dance-single;
#DESCRIPTION:;
#CHARTSTYLE:;
#DIFFICULTY:Medium;
#METER:7;
#RADARVALUES:0.394885,0.418321,0.155845,0.172250,0.196857,337.000000,318.000000,19.000000,21.000000,0.000000,0.000000,0.000000,0.000000,0.000000,0.394885,0.418321,0.155845,0.172250,0.196857,337.000000,318.000000,19.000000,21.000000,0.000000,0.000000,0.000000,0.000000,0.000000;
#CREDIT:iamthek3n;
#DISPLAYBPM:120.000000;
#NOTES:
// measure 0
0000
0000
0000
0000
,  // measure 1
0000
0000
0000
0000
,  // measure 2
0000
0000
0000
0000
,  // measure 3
0000
0000
0000
0000
,  // measure 4
0000
0000
0001
1000
,  // measure 5
0001
0000
0100
0000
0001
0100
0000
0000
0000
0000
0010
0000
0010
0000
0000
0000
,  // measure 6
2000
0000
0000
0000
3001
0010
1000
0010
,  // measure 7
0001
0000
1000
0010
0001
0010
1000
0000
,  // measure 8
0000
0000
0000
0000
1001
0000
0000
1000
0000
0000
1000
0000
0001
0000
0000
0001
,  // measure 9
0000
0001
0100
0010
0001
0010
0100
0000
,  // measure 10
0001
0000
0001
0000
1000
0000
0000
1000
0000
0000
1000
0000
0100
0000
0000
0100
,  // measure 11
0000
0000
0100
0000
0010
0000
0000
0010
0000
0000
0010
0000
0001
0000
0000
0000
,  // measure 12
1000
0000
1000
0000
0010
0000
0000
0010
0000
0000
0010
0000
0101
0000
0000
0000
,  // measure 13
0001
0010
0200
0000
0301
0100
2000
0000
,  // measure 14
3000
0000
0000
0000
1000
0001
1000
0000
0000
0000
0100
0000
0010
0000
0000
0001
,  // measure 15
0010
0001
1000
0001
0200
0000
0302
0000
,  // measure 16
0010
0000
1003
0100
0001
0100
0010
0100
,  // measure 17
2000
0000
3010
0100
0002
0000
0013
0000
,  // measure 18
0011
0000
0000
0000
1001
0000
0000
1000
0000
0000
1000
0000
0010
0000
0000
0010
,  // measure 19
0000
0010
0000
0100
0100
0000
0110
0000
,  // measure 20
1001
0000
1000
0010
0100
0001
0010
0100
,  // measure 21
2000
0000
3010
0100
0002
0000
0013
0000
,  // measure 22
0101
0000
0000
0000
1100
0000
0000
1000
0000
0000
1000
0000
0001
0000
0000
0001
,  // measure 23
0000
0001
0000
0010
0010
0000
0011
0000
,  // measure 24
0002
0000
1003
0001
0100
0010
0100
0001
,  // measure 25
0100
0000
0000
0000
0001
0000
0000
0010
0000
0000
0100
0000
1000
0000
0000
0100
,  // measure 26
0000
0010
0001
1000
0020
0000
0031
0010
,  // measure 27
0200
0000
0000
0000
0301
0000
0000
0001
0000
0010
0100
0000
1000
0000
0000
0010
,  // measure 28
0000
1000
0001
0100
0001
1000
0100
0020
,  // measure 29
0000
0032
0000
1003
0002
0000
0203
0000
,  // measure 30
0000
0000
0000
0000
0310
0000
0000
0000
0110
0000
0000
1001
0000
0000
1010
0000
,  // measure 31
1010
0000
0001
0001
0001
0000
2000
3000
,  // measure 32
2000
0000
3000
0000
1010
0000
0000
0010
0000
0000
0010
0000
1000
0000
0000
1000
,  // measure 33
0000
0000
1000
0000
0100
0000
0000
0100
0000
0000
0100
0000
0010
0000
0000
0000
,  // measure 34
0001
0010
0000
0010
0100
0000
0000
0100
0000
0000
0100
0000
1000
0000
0000
1000
,  // measure 35
0000
0000
1000
0000
0001
0000
0000
0001
0000
0000
0001
0000
0100
0000
0000
0100
,  // measure 36
0000
0000
0100
0000
0001
0010
0000
0000
0001
0000
1000
0000
1100
0000
0000
0000
,  // measure 37
0100
0100
0110
0000
0020
0000
0032
0000
,  // measure 38
2003
0000
3010
1000
0000
0001
1001
0000
,  // measure 39
0010
1000
0000
0001
1001
0000
0000
0000
,  // measure 40
1000
0000
0000
0010
0000
0000
1000
0000
0100
0000
0000
0010
0000
0000
0001
0000
,  // measure 41
0000
0100
0000
0100
0001
0000
1000
0000
,  // measure 42
0001
0000
0000
0010
0000
0000
0100
0000
1000
0000
0000
0010
0000
0000
1000
0000
,  // measure 43
0000
0100
0100
0000
0010
0000
0001
0000
,  // measure 44
1000
0000
0000
0100
0000
0000
0001
0000
0001
0000
0000
0100
0000
0000
1000
0000
,  // measure 45
0000
0001
0000
0001
0100
0000
0010
0000
,  // measure 46
1000
0000
0000
1000
0000
0000
1000
0000
0001
0000
0000
0001
0000
0000
0001
0000
,  // measure 47
0000
0010
0010
0000
0100
0000
0000
0000
,  // measure 48
1010
1000
0010
0100
0001
0010
0100
1000
,  // measure 49
0001
0000
0100
0000
0000
0100
0000
0000
0100
0000
0000
0010
1000
0000
0100
0000
,  // measure 50
0100
0010
0001
1000
0001
0010
0100
1000
,  // measure 51
1000
0000
0010
0000
0010
0000
0000
0000
1000
0000
0000
0100
1000
0000
0001
0000
,  // measure 52
0001
0100
0010
1000
0100
0001
0100
0010
,  // measure 53
0001
0000
1000
0000
0000
1000
0000
0000
1000
0000
0000
0010
1000
0000
0001
0000
,  // measure 54
0001
0000
0100
0000
0001
0000
1000
0000
0100
0000
0000
0100
0010
0000
0001
0000
,  // measure 55
1000
0010
0010
1000
0001
0000
0000
0000
,  // measure 56
0001
0000
0000
0100
0000
0000
0001
0000
0010
0000
0000
0100
0000
0000
1000
0000
,  // measure 57
0100
0000
0000
0010
0000
0000
0001
0000
0001
0000
0000
0000
0000
0000
0000
0000
,  // measure 58
1000
0000
0000
0010
0000
0000
1000
0000
0001
0000
0000
0000
0000
0000
0000
0000
,  // measure 59
0010
0000
0000
0100
0000
0000
1000
0000
0001
0000
0000
0000
0001
0000
0000
0000
,  // measure 60
0001
0000
0000
0000
;

//---------------dance-single - ----------------
#NOTEDATA:;
#CHARTNAME:X-Scale 5;
#STEPSTYPE:dance-single;
#DESCRIPTION:;
#CHARTSTYLE:;
#DIFFICULTY:Easy;
#METER:3;
#RADARVALUES:0.214433,0.319892,0.032809,0.032809,0.000000,183.000000,179.000000,4.000000,4.000000,0.000000,0.000000,0.000000,0.000000,0.000000,0.214433,0.319892,0.032809,0.032809,0.000000,183.000000,179.000000,4.000000,4.000000,0.000000,0.000000,0.000000,0.000000,0.000000;
#CREDIT:iamthek3n;
#DISPLAYBPM:120.000000;
#NOTES:
// measure 0
0000
0000
0000
0000
,  // measure 1
0000
0000
0000
0000
,  // measure 2
0000
0000
0000
0000
,  // measure 3
0000
0000
0000
0000
,  // measure 4
0000
0000
0000
0000
,  // measure 5
0000
0000
0000
0000
,  // measure 6
2000
0000
3002
0000
,  // measure 7
1003
2000
0000
3001
,  // measure 8
0000
1001
0000
1000
,  // measure 9
0000
0010
1000
0010
,  // measure 10
0000
0100
0000
0001
,  // measure 11
0000
1000
0010
1000
,  // measure 12
0000
0100
0000
0110
,  // measure 13
0000
0001
0000
1000
,  // measure 14
0000
0010
0000
1000
,  // measure 15
0000
0001
0000
1000
,  // measure 16
0010
1000
0000
0001
,  // measure 17
0000
0100
0000
0010
,  // measure 18
0100
0010
0000
1000
,  // measure 19
0000
0001
0000
0001
0000
0000
0100
0000
,  // measure 20
0010
0100
0000
0001
,  // measure 21
0000
1000
0000
0100
,  // measure 22
0010
0100
0000
1000
,  // measure 23
0000
0001
0000
0001
0000
0000
0200
0000
,  // measure 24
0000
0301
0000
0010
,  // measure 25
0000
0100
0000
1000
,  // measure 26
0000
0010
0000
1000
,  // measure 27
0000
0100
0000
0010
,  // measure 28
0000
0001
0000
1000
,  // measure 29
0000
0010
0000
0000
1000
0000
0000
0000
,  // measure 30
0000
0000
0001
1000
0001
0010
0000
0100
,  // measure 31
0010
0001
1000
0010
1000
0000
0000
0000
,  // measure 32
0000
0000
1001
0000
0001
0010
0100
0000
,  // measure 33
1000
0001
0100
0000
0010
0100
0001
0000
,  // measure 34
1000
0000
0010
0000
0100
0010
1000
0000
,  // measure 35
0001
1000
0010
0000
0100
0010
1000
0000
,  // measure 36
0100
0000
0010
0000
0001
0010
0100
0000
,  // measure 37
1000
0100
1000
0000
0001
0000
0100
0000
,  // measure 38
0010
0000
0100
0001
0000
1000
0001
0000
,  // measure 39
0100
0001
0000
1000
0001
0000
0000
0000
,  // measure 40
1000
0000
0000
0000
0010
0000
0000
1000
,  // measure 41
0000
1000
0000
0001
0100
0000
0001
0000
,  // measure 42
0010
0000
0000
0000
0100
0000
0000
1000
,  // measure 43
0000
1000
0001
0000
0100
0000
0001
0000
,  // measure 44
0010
0000
0000
0000
0100
0000
0000
1000
,  // measure 45
0000
0010
0000
1000
0001
0000
0100
0000
,  // measure 46
0001
0000
0000
0000
0010
0000
0000
0100
,  // measure 47
0000
0100
1000
0000
0001
0000
0000
0000
,  // measure 48
1001
1000
0100
1000
,  // measure 49
0001
0000
0100
0000
0010
0000
0100
0001
,  // measure 50
0100
0010
1000
0001
,  // measure 51
0010
0100
0010
0000
0001
0000
1000
0010
,  // measure 52
1000
0100
0010
0001
,  // measure 53
0100
0000
0001
0000
1000
0000
0010
0100
,  // measure 54
0010
1000
0001
0010
,  // measure 55
0100
1000
0100
0000
1000
0000
0000
0000
,  // measure 56
0001
0000
1000
0000
,  // measure 57
0001
0000
1000
0000
,  // measure 58
0100
0000
0010
0000
,  // measure 59
0100
0000
0010
0000
,  // measure 60
0001
0000
0000
0000
;

//---------------dance-single - ----------------
#NOTEDATA:;
#CHARTNAME:X-Scale 2;
#STEPSTYPE:dance-single;
#DESCRIPTION:;
#CHARTSTYLE:;
#DIFFICULTY:Beginner;
#METER:1;
#RADARVALUES:0.094913,0.147643,0.008202,0.000000,0.000000,81.000000,80.000000,1.000000,0.000000,0.000000,0.000000,0.000000,0.000000,0.000000,0.094913,0.147643,0.008202,0.000000,0.000000,81.000000,80.000000,1.000000,0.000000,0.000000,0.000000,0.000000,0.000000,0.000000;
#CREDIT:iamthek3n;
#DISPLAYBPM:120.000000;
#NOTES:
// measure 0
0000
0000
0000
0000
,  // measure 1
0000
0000
0000
0000
,  // measure 2
0000
0000
0000
0000
,  // measure 3
0000
0000
0000
0000
,  // measure 4
0000
0000
0000
0000
,  // measure 5
0000
0000
0000
0000
,  // measure 6
0000
0000
0000
0000
,  // measure 7
0000
0000
0000
0000
,  // measure 8
0000
1000
0000
0001
,  // measure 9
0000
0100
0000
0001
,  // measure 10
0000
1000
0000
0100
,  // measure 11
0000
0010
0000
0100
,  // measure 12
0000
1000
0000
0001
,  // measure 13
0000
0100
0000
0001
,  // measure 14
0000
0010
0000
0100
,  // measure 15
0000
1000
0000
0000
,  // measure 16
0000
0000
0000
0001
,  // measure 17
0000
0000
0000
1000
,  // measure 18
0000
0000
0000
0010
,  // measure 19
0000
0000
0000
1000
,  // measure 20
0000
0000
0000
0001
,  // measure 21
0000
0000
0000
0010
,  // measure 22
0000
0000
0000
0100
,  // measure 23
0000
0000
0000
1000
,  // measure 24
0000
0001
0000
0100
,  // measure 25
0000
0001
0000
1000
,  // measure 26
0000
0100
0000
1000
,  // measure 27
0000
0001
0000
0010
,  // measure 28
0000
0100
0000
1000
,  // measure 29
0000
0000
0001
0000
,  // measure 30
0000
0000
1000
0000
,  // measure 31
0001
0000
1000
0000
,  // measure 32
0000
0110
0000
0010
,  // measure 33
0000
0100
0000
0001
,  // measure 34
0000
0010
0000
0001
,  // measure 35
0000
1000
0000
0100
,  // measure 36
0000
0010
0000
0001
,  // measure 37
0000
1000
0000
0001
,  // measure 38
0000
0100
0000
0001
,  // measure 39
0000
0000
1000
0000
,  // measure 40
0001
0000
0000
0000
,  // measure 41
0100
0000
0000
0000
,  // measure 42
0010
0000
0000
0000
,  // measure 43
1000
0000
0000
0000
,  // measure 44
0100
0000
0000
0000
,  // measure 45
0010
0000
0000
0000
,  // measure 46
0001
0000
0000
0000
,  // measure 47
0000
0000
0001
0000
,  // measure 48
1000
0000
0001
0000
,  // measure 49
0100
0000
0001
0000
,  // measure 50
1000
0000
0001
0000
,  // measure 51
0100
0000
0010
0000
,  // measure 52
1000
0000
0100
0000
,  // measure 53
0010
0000
0100
0000
,  // measure 54
1000
0000
0001
0000
,  // measure 55
0010
0000
0001
0000
,  // measure 56
1000
0000
0000
0000
,  // measure 57
0000
0000
0000
0000
,  // measure 58
0001
0000
0000
0000
,  // measure 59
1000
0000
0000
0000
,  // measure 60
0001
0000
0000
0000
;
