#TITLE:HUMBLE.;
#SUBTITLE:;
#ARTIST:Kendrick Lamar;
#TITLETRANSLIT:;
#SUBTITLETRANSLIT:;
#ARTISTTRANSLIT:;
#GENRE:Hip-Hop;
#CREDIT:;
#BANNER:HUMBLE.-bn.png;
#BACKGROUND:HUMBLE.-bg.png;
#LYRICSPATH:;
#CDTITLE:cdtitle.png;
#MUSIC:HUMBLE..ogg;
#OFFSET:-0.009000;
#SAMPLESTART:57.990997;
#SAMPLELENGTH:12.000000;
#SELECTABLE:YES;
#DISPLAYBPM:150.000000;
#BPMS:0.000000=150.000000
,115.000000=75.000000
,119.000000=150.000000
,159.000000=75.000000
,163.000000=150.000000
,187.000000=75.000000
,191.000000=150.000000
;
#STOPS:
;
#BGCHANGES:
;
#KEYSOUNDS:;
#ATTACKS:;

//---------------dance-single - ----------------
#NOTES:
     dance-single:
     X-Scale 13:
     Hard:
     9:
     0.580177,0.701758,0.268758,0.049770,0.149310,408.000000,381.000000,27.000000,5.000000,0.000000,0.000000,0.580177,0.701758,0.268758,0.049770,0.149310,408.000000,381.000000,27.000000,5.000000,0.000000,0.000000:
// measure 0
0000
0000
0000
1100
,  // measure 1
0101
0000
0000
0011
,  // measure 2
1010
0000
0000
0110
,  // measure 3
1001
0000
0000
1100
,  // measure 4
0011
0000
0002
0003
0002
0003
1001
0000
,  // measure 5
1000
0000
0001
0100
1000
0100
0001
0000
,  // measure 6
1000
0010
0100
0001
0010
0100
1000
0100
,  // measure 7
0010
0100
1000
0010
0100
0001
0010
0100
,  // measure 8
0010
0001
0010
1000
0010
0001
1000
0001
,  // measure 9
1000
0000
0001
0010
1000
0010
0100
1000
,  // measure 10
0001
1000
0100
0010
0100
1000
0001
0100
,  // measure 11
0010
0000
1000
0001
0010
0100
0010
1000
,  // measure 12
0010
0100
0010
0001
0010
0100
1000
0001
,  // measure 13
1000
0000
1002
0000
0013
0001
0100
0010
,  // measure 14
1000
0100
0020
0000
1030
0010
0001
0000
,  // measure 15
0010
0000
0001
0100
1000
0100
0001
0000
,  // measure 16
1000
0010
0100
0001
0010
0100
1000
0000
,  // measure 17
0010
0000
1000
0100
0001
0100
0010
0001
,  // measure 18
0100
0001
0010
0100
1000
0001
0100
0000
,  // measure 19
0010
0000
1000
0100
0010
0100
1000
0010
,  // measure 20
0100
0001
0010
0100
1000
0010
1000
0000
,  // measure 21
0100
0000
1000
0010
0001
0010
1000
0100
,  // measure 22
1000
0100
0001
0100
1000
0100
1000
0000
,  // measure 23
0010
0000
0100
0001
0010
0001
1000
0010
,  // measure 24
0100
0001
0010
1000
0010
0001
0010
0000
,  // measure 25
0100
0000
1000
0100
0001
0100
0010
0001
,  // measure 26
1000
0010
1000
0100
0010
0001
0100
0000
,  // measure 27
0010
0000
1000
0100
0010
0100
1000
1000
,  // measure 28
0010
0000
0100
0000
0001
0000
0001
0000
0100
0000
0010
0000
0100
0000
0000
0100
,  // measure 29
1000
0010
1000
0100
0010
0001
0011
0010
,  // measure 30
0001
0000
1000
0000
0001
0010
1000
0100
,  // measure 31
0001
0100
0010
0000
1000
0000
0100
1000
,  // measure 32
0001
1000
0100
1000
0001
0010
0100
0010
,  // measure 33
0001
1000
0100
0000
0010
0000
1000
0010
,  // measure 34
0001
0010
0100
0010
0001
1000
0100
0000
,  // measure 35
1000
0000
1100
0000
0100
0010
0001
0000
,  // measure 36
0001
1000
0000
0000
1001
0000
0000
0000
0001
0000
0010
0000
0100
0010
0000
0000
,  // measure 37
0010
0001
0000
0000
0001
1000
0000
0000
0100
0000
0010
0000
0001
0000
0000
0000
,  // measure 38
1000
0010
0000
0000
1010
0000
0000
0000
0001
0000
0100
0000
0010
0000
1000
0000
,  // measure 39
0010
0000
1000
0000
0000
0000
0000
0000
1000
0000
0000
0000
0100
0000
0000
0000
0010
0000
0000
0000
0001
0000
0000
0000
0100
0000
0000
0000
0001
0010
0000
0000
,  // measure 40
0001
0000
0000
0000
1000
0000
0100
0000
0010
0100
0000
0000
0100
1000
0000
0000
0010
0000
0000
0000
1000
0000
0010
0000
1010
0000
0000
0000
0000
0000
0000
0000
,  // measure 41
0010
0000
0100
0000
0010
0000
0000
0000
1000
0000
0010
0000
1000
0100
0000
0000
,  // measure 42
0100
0010
0000
0000
0010
0001
0000
0000
0001
0000
0100
0000
0001
0000
0000
0000
,  // measure 43
0001
0100
0000
0000
0100
0010
0000
0000
1000
0000
0001
0000
0100
0001
0000
0000
,  // measure 44
0001
0000
0010
0000
0100
0010
0000
0000
0001
0000
1000
0000
1001
0000
0000
0000
,  // measure 45
0010
0100
0000
0000
0110
0000
0000
0000
1000
0000
0001
0000
1000
0000
0100
0000
,  // measure 46
0010
0000
0100
0000
0000
0000
0000
0000
0010
0000
0000
0000
0001
0000
0000
0000
1000
0000
0000
0000
0100
0000
0000
0000
1100
0000
0000
0000
1000
0001
0000
0000
,  // measure 47
0010
0000
0000
0000
1000
0000
0010
0000
0001
0010
0000
0000
0010
0100
0000
0000
1000
0000
0000
0000
0010
0000
0100
0000
0110
0000
0000
0000
0000
0000
0000
0000
,  // measure 48
0010
0000
1000
0000
0010
0000
0000
0000
0010
0000
0100
0000
0001
0010
0000
0000
,  // measure 49
0010
0100
0000
0000
0100
1000
0000
0000
1000
0001
0000
0000
1001
0000
0000
0000
,  // measure 50
0001
0000
0101
0000
0100
0001
0000
1000
,  // measure 51
0010
0100
0000
0010
0100
0000
0110
0010
,  // measure 52
1000
0000
1010
0000
1000
0010
0100
0001
,  // measure 53
1000
0001
0000
1000
0001
0000
1001
0000
,  // measure 54
0110
0000
0100
0000
0001
0010
1000
0001
,  // measure 55
0100
1000
0000
0100
1000
0000
1100
0000
,  // measure 56
0101
0000
0001
0000
1000
0000
0001
0100
,  // measure 57
0010
1000
0000
0010
1000
0200
0000
0000
,  // measure 58
0000
0000
0000
0300
;

//---------------dance-single - ----------------
#NOTES:
     dance-single:
     X-Scale 9:
     Medium:
     7:
     0.442243,0.526318,0.139356,0.169218,0.019908,311.000000,297.000000,14.000000,17.000000,0.000000,0.000000,0.442243,0.526318,0.139356,0.169218,0.019908,311.000000,297.000000,14.000000,17.000000,0.000000,0.000000:
0000
0000
0000
1000
,
1000
0000
0000
0001
,
0001
0000
0000
0010
,
0010
0000
0000
0100
,
0100
1000
1000
1100
,
1000
0000
0001
0000
1000
0010
0100
0001
,
0010
0100
0000
0010
0100
0000
0010
0000
,
0001
0000
1000
0000
0100
0001
0100
1000
,
0100
0010
0000
0100
0010
0000
0001
0000
,
1000
0000
0001
0000
1000
0100
0010
0100
,
1000
0001
0000
1000
0001
0000
0100
0000
,
0001
0000
0010
0000
0100
1000
0001
1000
,
0100
0010
0000
0100
0010
0000
0001
0000
,
0100
0000
0001
0000
0010
1000
0010
0001
,
0010
0100
0000
0010
0100
0000
1000
0000
,
0001
0000
1000
0000
0100
1000
0001
0010
,
0100
1000
0000
0100
1000
0000
0020
0000
,
1000
0000
0230
0000
0300
0001
0002
0000
,
0013
0001
0002
0000
1003
0001
2000
0000
,
3100
1000
2000
0000
3010
1000
0200
0000
,
0310
0100
0200
0000
0310
0001
0010
0000
,
0010
0000
0001
0000
0100
0000
0010
1000
,
0010
1000
0010
0000
0100
0000
0001
0000
,
1000
0001
1000
0010
,
1000
0100
0001
0100
0010
0001
0010
0000
,
0010
0000
0100
0000
0010
0000
0001
1000
,
0001
0100
0010
1000
,
1000
0010
0001
0100
,
1000
0100
0010
0100
1000
0001
1000
0000
,
0000
0000
0001
0100
0010
1000
1100
0000
,
0100
0000
0010
0000
0001
0000
1000
0010
,
0001
0100
1000
0000
0100
0000
1000
0000
,
0100
0000
0010
0000
0001
0000
1000
0010
,
0001
0010
0100
0000
0010
0000
1000
0000
,
0001
0000
0010
0000
0100
0010
0001
0000
,
1000
0000
0001
0000
0010
0100
0110
0000
,
1001
0000
0110
0000
1000
0010
1010
0000
,
0001
0010
0000
0001
0010
0100
1100
0000
,
0101
0000
0011
0000
1000
0010
1010
0000
,
0100
0010
0000
0100
0010
0000
1000
0010
,
0100
0000
0001
0100
0001
0000
0010
0000
0100
0000
1000
0100
2100
0000
0000
0000
,
3100
0010
0200
0000
1300
0100
0020
0000
,
0130
0010
0002
0000
1003
0001
1001
0000
,
0100
0000
0100
0000
0010
0100
0001
0000
,
0010
0100
0000
0010
0100
1000
0001
0000
,
1000
0000
0010
0000
0100
0001
0010
0000
,
0100
1000
0000
0100
1000
0001
1001
1000
,
0100
0000
0001
0100
1000
0000
0100
0000
1000
0000
0010
0100
0002
0000
0000
0000
,
0013
0100
2000
0000
3001
1000
0200
0000
,
1300
0100
0020
0000
0031
0000
0011
0000
,
0001
1000
0100
1000
,
0010
0100
0000
0010
0100
0000
0001
0000
,
1000
0100
1000
0001
,
0010
0100
0000
0010
0100
0000
1000
0000
,
0001
1000
0001
0010
,
0100
0010
0000
0100
0010
0000
0001
0000
,
1000
0100
1000
0001
,
0100
0010
0000
0100
0010
0200
0000
0000
,
0000
0000
0000
0300
;

//---------------dance-single - ----------------
#NOTES:
     dance-single:
     X-Scale 7:
     Easy:
     5:
     0.382519,0.429267,0.029862,0.000000,0.019908,269.000000,266.000000,3.000000,0.000000,0.000000,0.000000,0.382519,0.429267,0.029862,0.000000,0.019908,269.000000,266.000000,3.000000,0.000000,0.000000,0.000000:
0000
0000
0000
0001
,
0000
0010
0000
0100
,
0000
1000
0000
0001
,
0000
1000
0000
0010
,
0000
0100
0000
0110
,
0010
0100
0001
1000
,
0100
1000
0000
0100
1000
0000
0001
0000
,
0100
0001
0010
0100
,
0010
0001
0000
0010
0001
0000
1000
0000
,
0010
0100
1000
0100
,
0010
0100
0000
0010
0100
0000
0001
0000
,
0010
0001
1000
0010
,
0100
0001
0000
0100
0001
0000
0010
0000
,
0100
1000
0010
1000
,
0100
1000
0000
0100
1000
0000
0010
0000
,
0100
0010
1000
0001
,
0010
0001
0000
0010
0001
0000
1000
0000
,
0010
0000
1000
0000
0100
0010
0100
0000
,
0010
0001
0010
0000
0001
0000
1000
0000
,
0100
0010
0100
0000
0010
0001
0010
0000
,
0001
1000
0001
0000
0010
0100
1000
0000
,
1000
0001
0010
0100
,
0010
0100
0000
0010
0100
0000
1000
0000
,
0010
1000
0100
0010
,
0001
0010
0000
0001
0010
0000
0001
0000
,
1000
0010
1000
0100
,
0010
0100
0000
0010
0100
0000
1000
0000
,
0010
1000
0010
0100
,
0001
0010
0000
0001
0010
0000
0100
0000
,
0000
0010
0001
0011
,
0001
0010
0100
1000
,
0010
1000
0000
0010
1000
0000
0100
0000
,
0010
0001
0100
0010
,
1000
0001
0000
1000
0001
0000
0010
0000
,
0100
0010
0001
1000
,
0010
0100
0000
0010
0100
0000
0110
0000
,
0001
0000
1000
0000
0001
0010
0100
0000
,
0010
0000
0001
0000
1000
0100
0010
0000
,
0100
0000
1000
0000
0001
0100
0001
0000
,
0010
0000
0100
0000
1000
0010
1000
0000
,
0001
0000
0010
0001
0010
0000
0000
0000
0100
0000
1000
0100
1000
0000
0000
0000
,
0010
0100
0010
0000
1000
0010
1000
0000
,
0001
0010
0001
0000
0100
0001
0100
0000
,
0010
0000
1000
0000
0100
0010
0001
0000
,
0100
0000
0010
0000
1000
0100
0010
0000
,
0100
0000
1000
0000
0001
0010
0100
0000
,
0010
0000
0001
0000
0001
0010
0100
0000
,
1000
0000
0010
1000
0010
0000
0000
0000
0100
0000
0001
0010
0001
0000
0000
0000
,
0010
0100
0010
0000
0001
0010
0001
0000
,
1000
0010
1000
0000
0100
0010
0100
0000
,
0010
0001
1000
0001
,
0010
0100
0000
0010
0100
0000
1000
0000
,
0010
1000
0100
0010
,
0001
0100
0000
0001
0100
0000
0010
0000
,
1000
0100
1000
0001
,
0010
0100
0000
0010
0100
0000
1000
0000
,
0010
1000
0100
0010
,
0001
1000
0000
0001
1000
0000
0000
0000
;

//---------------dance-single - ----------------
#NOTES:
     dance-single:
     X-Scale 2:
     Beginner:
     2:
     0.160686,0.200325,0.019908,0.000000,0.000000,113.000000,111.000000,2.000000,0.000000,0.000000,0.000000,0.160686,0.200325,0.019908,0.000000,0.000000,113.000000,111.000000,2.000000,0.000000,0.000000,0.000000:
0000
0000
0000
0000
,
0000
0000
0000
0000
,
0000
0000
0000
0000
,
0000
0000
0000
0000
,
0000
0000
0000
1100
,
0000
0100
0000
1000
,
0000
0001
0000
0010
,
0000
0100
0000
1000
,
0000
0001
0000
0100
,
0000
0010
0000
0100
,
0000
0001
0000
0010
,
0000
0100
0000
1000
,
0000
0100
0000
1000
,
0000
0001
0000
0010
,
0000
0100
0000
0010
,
0000
0100
0000
1000
,
0000
0001
0000
1000
,
0000
0100
0000
0010
,
0000
0010
0000
0100
,
0000
0100
0000
1000
,
0000
0001
0000
1000
,
0000
0001
0000
0010
,
0000
0100
0000
1000
,
0000
0001
0000
0100
,
0000
0010
0000
1000
,
0000
0100
0000
1000
,
0000
0001
0000
0010
,
0000
0100
0000
0010
,
0000
0001
0000
0100
,
0000
0000
0000
1001
,
0000
0000
0010
0000
0000
0001
0000
0001
,
0000
1000
0000
0100
,
0000
0000
1000
0000
0000
0010
0000
0010
,
0000
0100
0000
0001
,
0000
0000
0010
0000
0000
0100
0000
0100
,
0000
1000
0000
1000
,
0000
0010
0000
0100
,
0000
0001
0000
1000
,
0000
0100
0000
0010
,
0000
0001
0000
0001
,
0000
0000
0000
1000
,
0000
0100
0000
0010
,
0000
0001
0000
1000
,
0000
0010
0000
0100
,
0000
0001
0000
0010
,
0000
0100
0000
1000
,
0000
0001
0000
0100
,
0000
0000
0000
1000
,
0000
0001
0000
0010
,
0000
0001
0000
0100
,
0000
0000
0100
0000
0000
0001
0000
0001
,
0000
1000
0000
0001
,
0000
0000
0010
0000
0000
0100
0000
0100
,
0000
1000
0000
0001
,
0000
0000
1000
0000
0000
0100
0000
0100
,
0000
0010
0000
0001
,
0000
0000
1000
0000
0000
0001
0000
0001
,
0000
0010
0010
0000
;
