#TITLE:Guyliner;
#SUBTITLE:;
#ARTIST:Dorian Electra;
#TITLETRANSLIT:;
#SUBTITLETRANSLIT:;
#ARTISTTRANSLIT:;
#GENRE:Electropop;
#CREDIT:;
#BANNER:Guyliner-bn.png;
#BACKGROUND:Guyliner-bg.png;
#LYRICSPATH:;
#CDTITLE:cdtitle.png;
#MUSIC:Guyliner.ogg;
#OFFSET:-0.005000;
#SAMPLESTART:34.754120;
#SAMPLELENGTH:14.750000;
#SELECTABLE:YES;
#DISPLAYBPM:65.500000:131.000000;
#BPMS:0.000000=65.500000
,4.000000=131.000000
,34.000000=65.500000
,42.000000=131.000000
,54.000000=65.500000
,56.000000=131.000000
,58.000000=262.000000
,59.500000=131.000000
,59.750000=65.500000
,60.000000=131.000000
,108.000000=65.500000
,124.000000=131.000000
,156.000000=65.500000
,170.000000=131.000000
,233.000000=262.000000
,234.000000=131.000000
;
#STOPS:33.500000=0.916000,
58.000000=0.057000,
58.250000=0.057000,
58.500000=0.057000,
58.750000=0.057000,
170.000000=1.374000,
233.000000=0.057000,
233.250000=0.057000,
233.500000=0.057000,
233.750000=0.057000
;
#BGCHANGES:0.000=Guyliner.avi=1.000=1=0=0=StretchNoLoop==CrossFade==,
99999=-nosongbg-=1.000=0=0=0 // don't automatically add -songbackground-
;
#KEYSOUNDS:;
#ATTACKS:;

//---------------dance-single - ----------------
#NOTES:
     dance-single:
     X-Scale 12:
     Hard:
     8:
     0.539067,0.698351,0.184447,0.422690,0.457274,491.000000,467.000000,24.000000,55.000000,0.000000,0.000000,0.539067,0.698351,0.184447,0.422690,0.457274,491.000000,467.000000,24.000000,55.000000,0.000000,0.000000:
// measure 0
0000
0000
0000
0000
,  // measure 1
1100
0000
0000
1000
0100
0000
1000
0000
0001
0000
0000
0000
0010
0000
0100
0000
,  // measure 2
0010
0000
0000
0001
0020
0000
0100
0000
0130
0000
0000
0000
0010
0000
0001
0000
,  // measure 3
1000
0000
0000
0010
0100
0000
0001
0000
1000
0000
0010
0000
1000
0000
0000
0000
,  // measure 4
0100
0000
0000
1000
0001
0000
0100
0000
0010
0000
0000
0000
0100
0000
0001
0000
,  // measure 5
1000
0000
0000
0100
1000
0000
0010
0000
1000
0000
0000
0000
0100
0000
0000
0000
,  // measure 6
0010
0000
0000
0010
0002
0000
1000
0000
1003
0000
0000
0000
0100
0000
0010
0000
,  // measure 7
0001
0000
0000
1000
0010
0000
0100
0000
0001
0000
0000
0000
0001
0000
0010
0000
,  // measure 8
0011
0000
0000
0000
0000
0000
0110
0000
0000
0000
0000
0000
1001
0000
0000
0000
0002
0000
0003
2000
0000
3000
0020
0000
0000
0000
0000
0000
0130
0000
0010
0000
,  // measure 9
2000
0000
3000
0200
0000
0300
0020
0000
0000
0000
0000
0000
0031
0000
0010
0100
0020
0000
0030
0002
0000
0003
2000
0000
0000
0000
0000
0000
3010
0000
1000
0000
,  // measure 10
0002
0000
0003
0200
0000
0300
0020
0000
0000
0000
0000
0000
1030
0000
0001
0000
1000
0000
0000
0000
0000
0000
0100
0000
1000
0000
0000
0000
0001
0000
0000
0000
,  // measure 11
0100
0000
0000
0000
0010
0000
0100
0000
0001
0000
0000
1000
0001
0000
0010
0000
,  // measure 12
0100
0000
0000
0000
1000
0000
0010
0000
1000
0000
0000
0001
0010
0000
0001
0000
,  // measure 13
0100
0000
0000
0000
0000
0000
0000
0000
0010
0000
0000
0000
1000
0000
0000
0000
1001
0000
0000
1000
0000
0000
0020
0000
0000
0030
0200
0000
0300
0000
0000
0000
,  // measure 14
0001
0000
0000
1000
0000
1000
0100
0000
0010
0001
0010
0001
0020
0000
0030
0000
,  // measure 15
0021
0000
0000
0000
0130
0000
0020
0000
0000
0030
0002
0000
1003
0001
0000
0000
,  // measure 16
0010
0000
0100
0000
1000
0100
0000
0000
1000
0000
0010
0000
0001
0000
0010
0000
,  // measure 17
2000
0000
0000
0000
3010
0000
0200
0000
0301
0000
0002
0000
1003
0001
0000
0000
,  // measure 18
1000
0100
0001
0010
0001
0100
1000
0010
,  // measure 19
1000
0000
0000
0000
0100
0000
0000
1000
0100
0000
0010
0000
0100
0000
1000
0000
,  // measure 20
0001
0000
1000
0000
0100
1000
0000
0000
0001
0000
1000
0000
0020
0000
0000
0000
,  // measure 21
0001
0000
0000
0000
0130
0000
0000
0010
1000
0000
0001
0000
0010
0000
1000
0000
,  // measure 22
0010
0000
0001
0000
0100
0010
0000
0000
1000
0000
0001
0000
0200
0000
0000
0000
,  // measure 23
1000
0000
0000
0000
0301
0000
0001
1000
0000
0000
0010
0000
1000
0001
1000
0000
,  // measure 24
0010
0000
0100
0000
0010
0100
0000
0000
0001
0000
0010
0000
0200
0000
0000
0000
,  // measure 25
0001
0000
0010
0000
1300
0001
0100
0001
1000
0000
0001
0000
0010
0100
0000
0000
,  // measure 26
1000
0000
0010
0000
0100
0010
0100
0001
0010
0000
0000
0000
0100
0000
0000
0000
,  // measure 27
1100
0000
1000
0010
0100
1000
0100
0010
0110
0000
0001
0000
0001
1000
0100
1000
,  // measure 28
1100
0000
0001
0000
1000
0100
0010
0001
0102
0000
0003
2000
0001
3000
0002
0000
,  // measure 29
0103
0000
0001
0010
0110
0000
1000
0001
1001
0000
0001
1000
0010
0001
0010
2000
,  // measure 30
0001
3002
2003
0000
3010
1000
0001
2000
0100
0000
0010
3000
1100
0000
0100
0010
,  // measure 31
0201
0000
0300
0002
0000
0003
0100
0000
0020
0000
0030
2000
0000
3000
0100
0000
,  // measure 32
0020
0000
0030
0200
0000
0300
1000
0000
0001
0000
0200
0000
0300
0000
0001
0000
,  // measure 33
0010
0000
0200
0000
0000
0000
0310
0000
0200
0000
0300
2000
0000
3000
0010
0000
,  // measure 34
2000
0000
3001
0000
1000
0010
0100
0001
,  // measure 35
0101
0100
0001
0100
1000
0100
0001
0010
,  // measure 36
1000
0010
0001
0010
0100
1000
0001
0100
,  // measure 37
0010
0000
0000
1000
0000
0000
0100
0000
0000
1000
0000
0000
0001
0000
0100
0000
0010
0000
0100
0000
0001
0000
0010
0000
,  // measure 38
0100
1000
0100
1000
0100
1000
0100
1000
0400
4000
0000
0000
0000
0000
0000
3000
,  // measure 39
1300
0000
0000
0100
0000
0000
0020
0000
0000
0000
0030
0000
0000
0000
0001
0000
0100
0000
0000
0010
0000
0000
2000
0000
0000
0000
3000
0000
0000
0000
0100
0010
,  // measure 40
0001
0000
0000
1000
0000
0000
0020
0000
0000
0000
0030
0000
0000
0000
0100
0000
0010
0000
0000
1000
0000
0000
0002
0000
0000
0000
0003
0000
0000
0000
1000
0000
,  // measure 41
1100
0000
0000
0100
0010
0000
0100
0000
1000
0000
0000
0000
1001
0000
0001
0000
0100
0000
0000
0010
0100
0000
0001
0000
0010
0000
0000
0000
0011
0000
0010
0000
,  // measure 42
0100
0000
0000
1000
0001
0000
1000
0000
0100
0000
0000
0000
0110
0000
0010
0000
0101
0000
0000
0000
0000
0000
0000
0000
1001
0000
0000
0000
0000
0000
0000
0000
,  // measure 43
1100
0000
0000
0001
1000
0000
0001
0000
0010
0001
0000
0000
1000
0000
0010
0000
,  // measure 44
0001
0010
0100
0010
1000
0100
1100
0000
,  // measure 45
0101
0000
0000
0001
0100
0000
0001
0000
1000
0000
0200
0000
0010
0000
0310
0000
,  // measure 46
0000
0100
0000
0000
1000
0000
0001
0000
0200
0000
0000
0000
0310
0000
0100
0000
,  // measure 47
0001
1000
0100
0001
0100
1000
0001
0100
,  // measure 48
0010
0001
0010
1000
0200
0000
0010
0000
,  // measure 49
0310
0000
0000
0100
1000
0000
0001
0000
0100
0000
0010
0000
2000
0000
0100
0000
,  // measure 50
0000
0001
0000
0000
3200
0000
0000
0000
0001
0000
0000
0000
1300
0000
0100
0000
,  // measure 51
0010
0000
0001
0010
0000
0000
0001
0000
1000
0001
0000
0000
0100
0000
0010
0000
,  // measure 52
1000
0100
1000
0000
0100
0000
0001
0000
0100
0000
0010
0000
0001
0000
0100
0000
,  // measure 53
0001
0000
0000
0100
0010
0000
0100
0000
0001
0010
0000
0000
0100
0000
1000
0000
,  // measure 54
0001
0100
0010
0100
0001
0000
1000
0000
0010
0000
0100
0000
0001
0000
1000
0000
,  // measure 55
0010
0000
0000
1000
0001
0000
1000
0000
0100
0010
0000
0000
0001
0000
0010
0000
,  // measure 56
0001
0100
0001
0000
0100
0000
0010
0000
2000
0000
0000
0000
3100
0000
1000
0000
,  // measure 57
0100
1000
0000
0001
0100
0000
0001
0000
1000
0000
0010
0000
1000
0000
0100
0000
,  // measure 58
1000
0001
0000
0000
0100
0001
1000
0001
0200
0000
0300
0000
0000
0000
0000
0000
;

//---------------dance-single - ----------------
#NOTES:
     dance-single:
     X-Scale 9:
     Medium:
     6:
     0.413907,0.495604,0.161391,0.468802,0.207502,377.000000,356.000000,21.000000,61.000000,0.000000,0.000000,0.413907,0.495604,0.161391,0.468802,0.207502,377.000000,356.000000,21.000000,61.000000,0.000000,0.000000:
0000
0000
0000
0000
,
1100
0100
1000
0000
0001
0000
0100
0001
,
0010
0001
1000
0000
0100
0000
0010
0100
,
1000
0001
0100
0000
0010
0000
0100
0001
,
0010
0100
1000
0000
0001
0000
1000
0100
,
0001
0000
0100
0010
0001
0000
1000
0000
,
0001
0010
0001
0000
0100
0000
0010
0000
,
0100
0001
0010
0000
0100
1000
0001
1000
,
1100
0000
0000
0110
0000
0000
0101
0000
0001
0000
0100
0000
0010
0000
1000
0000
,
0100
0001
0100
1000
0001
0100
0010
0100
,
1000
0000
0100
0000
0010
0000
1000
0000
0100
0000
0000
1000
0000
0000
0002
0000
,
0100
0000
0000
0000
1003
0000
0010
0000
1000
0000
0000
0100
0000
0000
0020
0000
,
0001
0000
0000
0000
1030
0000
0010
0000
0001
0000
0000
0100
0000
0000
0020
0000
,
0001
0000
0000
0000
1030
0000
0010
0000
1010
0000
0000
2000
3000
0200
0300
0000
,
1000
0000
0000
1000
0000
0000
1000
0000
0002
0000
0000
0000
2003
0000
3000
0000
,
2001
0000
0000
3200
0000
0320
0031
0000
,
0010
0100
1000
0000
0001
0100
0010
0100
,
0002
0000
0000
2003
0000
3200
0310
0100
,
1000
0000
0100
0001
1000
0001
0100
0001
,
2000
0000
0000
3200
0000
0320
0031
0000
,
0010
0100
1000
0001
0100
0010
2000
0000
,
3002
0000
0000
0023
0000
0032
0103
0002
,
0000
0000
1000
0000
0003
1000
0000
0000
1000
0000
0100
0000
0020
0000
0000
0000
,
0001
0000
0030
0000
0010
0000
0000
0001
0000
0000
2000
0000
3010
0000
2000
0000
,
0000
0000
0100
0000
3000
0100
0000
0000
0100
0000
0010
0000
0002
0000
0000
0000
,
0010
0000
0000
0000
1003
0001
1000
0001
0000
0000
0010
0000
0000
0100
0000
0000
,
1000
0000
0001
0000
0000
0001
0000
0010
0001
0000
0000
0000
1000
0000
0000
0000
,
1001
0000
0110
0000
1010
1000
1001
0000
,
0011
0000
0010
0000
0110
0000
0000
0000
2002
0000
3003
0220
0000
0330
2002
0000
,
3003
0000
1000
0100
1000
0000
0100
0020
0000
0030
0001
0010
1000
0010
0100
2000
,
0000
3100
2000
0000
3000
0100
0010
0002
0000
0000
1000
0000
1003
0000
0001
0000
,
1001
1000
0010
0100
,
0001
0010
0100
0010
,
0001
1000
0010
0001
,
0010
1000
0100
0010
,
0012
0000
0103
0200
0000
0310
0100
0002
,
0000
0013
0100
2000
0000
3100
0010
0200
,
1000
0000
0000
0000
1300
0000
0001
0000
0100
0000
0000
0001
0000
0000
1000
0000
,
0200
0010
2300
0010
,
3001
0000
0000
1000
0000
0000
0002
0000
0000
0000
0003
0000
0000
0000
0010
0000
0100
0000
0000
1000
0000
0000
0002
0000
0000
0000
0003
0000
0000
0000
0100
0001
,
0100
0000
0000
0010
0000
0000
2000
0000
0000
0000
3000
0000
0000
0000
0001
0000
0100
0000
0000
0001
0000
0000
0020
0000
0000
0000
0030
0000
0000
0000
0000
0000
,
0101
0001
0100
0010
1000
0100
0010
0100
,
1000
0001
0100
0001
0101
0000
2100
0000
,
0000
0000
3002
0000
0000
0000
0203
0000
0301
0100
0000
0000
0101
0000
0001
0000
,
1000
0100
0001
0100
0010
0001
2000
0000
,
0100
0000
3200
0000
0000
0000
2300
0000
3001
1000
0000
0000
0100
0000
0010
0000
,
0001
1000
0010
0100
0002
0000
0013
0000
,
0001
0000
0000
1000
0000
0000
0001
0000
0100
0000
0001
0000
1000
0000
0100
0000
,
0000
0010
0000
0000
0001
0000
0100
0000
0002
0000
0000
0000
0010
0000
0000
0000
,
1003
0000
0000
0100
0000
0000
1000
0000
0001
0000
0100
0000
0020
0000
0000
0000
,
0130
0020
0001
0000
1030
0000
0010
1000
,
0001
0000
0100
0001
0000
0000
1000
0000
0001
1000
0000
0000
0010
0000
1000
0000
,
0100
1000
0000
0000
0001
0000
0000
0000
0100
0000
0001
0000
1000
0000
0100
0000
,
0010
0000
0000
0100
1000
0000
0001
0000
0100
0001
0000
0000
0010
0000
0100
0000
,
0000
0010
0000
0000
0001
0000
1000
0000
0001
0000
0000
0000
0100
0000
0000
0000
,
0001
0000
0000
0010
0001
0000
1000
0000
0010
1000
0000
0000
0001
0000
0100
0000
,
0010
0100
0000
0000
0001
0000
0010
0000
0200
0000
0000
0000
0010
0000
0010
0000
,
0310
0100
0000
1000
0000
0000
0010
0000
1000
0000
0001
0000
0200
0000
0300
0002
,
0000
0003
2000
0000
0100
0000
0000
0000
3200
0000
0300
0000
0000
0000
0000
0000
;

//---------------dance-single - ----------------
#NOTES:
     dance-single:
     X-Scale 5:
     Easy:
     3:
     0.254712,0.269753,0.030741,0.215188,0.000000,232.000000,228.000000,4.000000,28.000000,0.000000,0.000000,0.254712,0.269753,0.030741,0.215188,0.000000,232.000000,228.000000,4.000000,28.000000,0.000000,0.000000:
0000
0000
0000
0000
,
1000
0010
0100
0010
,
1000
0001
1000
0000
0100
0000
0010
0000
,
0001
0100
0001
0010
,
0100
0010
0100
0000
1000
0000
0001
0000
,
0100
0010
0100
0001
,
1000
0010
1000
0000
0100
0000
0010
0000
,
0001
0100
0001
0010
,
0100
0000
0000
0100
0110
0000
0010
0000
,
0001
0100
0001
1000
,
0010
0100
0001
0010
,
0100
0010
0001
1000
,
0010
1000
0001
0100
,
0010
1000
2001
0000
,
3002
0000
0000
0000
2003
0000
0000
3000
,
1001
0010
0001
0100
,
0010
1000
0001
0100
,
0001
1000
0010
0100
,
0010
1000
0100
0010
,
0001
1000
0001
0010
,
0100
0010
0001
1000
,
0010
1000
0001
0100
,
0010
0000
0100
0000
0001
0010
0200
0000
,
0010
0000
1300
0000
0001
0000
0100
0002
,
1000
0000
0013
0000
0100
0010
0002
0000
,
1000
0013
0100
1000
,
0001
0100
0010
1000
,
0001
1000
0001
1000
,
0100
0010
0100
0010
,
0001
0100
0001
0100
,
0010
1000
0010
1000
,
0001
0000
0010
0000
,
0001
0000
1000
0000
,
0100
0000
0010
0000
,
0001
0000
1000
0000
,
0001
0100
0010
0100
,
0001
0010
0100
0010
,
0001
1000
0100
1000
,
0002
0000
0203
0000
,
0310
0000
0100
0000
,
0001
0000
0010
0000
,
0100
1000
0001
1000
,
0100
1000
0001
1001
,
0100
1000
0001
0100
,
0001
0000
0010
0100
1000
0010
1000
0000
,
0100
0010
0100
1000
,
0001
0100
0000
0010
1000
0000
0100
0000
,
0010
0000
0001
0010
0001
1000
0010
0000
,
1000
0000
0100
0010
0002
0000
0010
0000
,
0103
0000
0001
0000
0010
0100
2000
0000
,
3001
2000
0000
0000
0100
0000
3002
0000
,
0000
0023
0000
0032
1003
0002
0000
0000
,
0103
0001
1000
0200
,
0000
0320
0030
0200
2300
0000
0000
3001
,
1000
0002
0013
0000
0001
0000
2000
0000
,
0000
3020
0030
2000
0000
3000
0010
0000
,
1000
0100
0010
0100
2000
0000
0002
0000
,
3000
0023
0030
0002
0000
0003
0010
0000
,
0100
0020
0031
0000
;

//---------------dance-single - ----------------
#NOTES:
     dance-single:
     X-Scale 3:
     Beginner:
     2:
     0.128454,0.157356,0.000000,0.000000,0.000000,117.000000,117.000000,0.000000,0.000000,0.000000,0.000000,0.128454,0.157356,0.000000,0.000000,0.000000,117.000000,117.000000,0.000000,0.000000,0.000000,0.000000:
0000
0000
0000
0000
,
0000
0001
0000
1000
,
0000
0001
0000
1000
,
0000
0100
0000
0010
,
0000
0100
0000
0010
,
0000
0001
0000
0100
,
0000
0001
0000
0100
,
0000
0010
0000
1000
,
0000
0000
0001
0000
,
0010
0000
0100
0000
,
1000
0000
0001
0000
,
1000
0000
0010
0000
,
1000
0000
0001
0000
,
1000
0000
0100
0000
,
0000
0000
0000
0000
,
0000
1000
0000
0001
,
0000
0100
0000
0010
,
0000
0100
0000
0001
,
0000
0010
0000
0100
,
0000
1000
0000
0100
,
0000
0010
0000
0001
,
0000
0100
0000
0001
,
0000
1000
0000
0001
,
0000
0100
0000
0010
,
0000
0100
0000
0001
,
0000
1000
0000
0100
,
0000
0010
0000
0001
,
0001
0000
1000
0000
,
0010
0000
1000
0000
,
0001
0000
0100
0000
,
0001
0000
1000
0000
,
0100
0000
0010
0000
,
0001
0000
0010
0000
,
0100
0000
1000
0000
,
0001
0000
0100
0000
,
0001
0000
1000
0000
,
0100
0000
0010
0000
,
0001
0000
0100
0000
,
0001
0000
1000
0000
,
0001
0000
1000
0000
,
0010
0000
1000
0000
,
0100
0000
0010
0000
,
0001
0000
1000
0000
,
1000
0000
0001
0000
,
1000
0000
0010
0000
,
1000
0000
0001
0000
,
0010
0000
0100
0000
,
0010
0000
0001
0000
,
1000
0000
0010
0000
,
1000
0000
0001
0000
,
0010
0000
0100
0000
,
1000
0000
0010
0100
,
0010
0000
1000
0000
,
0001
0000
1000
0010
,
1000
0000
0100
0000
,
0010
0001
0010
0000
,
0100
0000
1000
0010
,
1000
0000
0001
0000
,
1000
0000
1000
0000
;
