#VERSION:0.83;
#TITLE:Got Me Started;
#SUBTITLE:;
#ARTIST:Troye Sivan;
#TITLETRANSLIT:;
#SUBTITLETRANSLIT:;
#ARTISTTRANSLIT:;
#GENRE:UK Garage;
#ORIGIN:;
#CREDIT:;
#BANNER:Got Me Started-bn.png;
#BACKGROUND:Got Me Started-bg.png;
#PREVIEWVID:;
#JACKET:Got Me Started-jacket.png;
#CDIMAGE:;
#DISCIMAGE:;
#LYRICSPATH:;
#CDTITLE:cdtitle.png;
#MUSIC:Got Me Started.ogg;
#OFFSET:-0.001000;
#SAMPLESTART:45.355000;
#SAMPLELENGTH:15.118000;
#SELECTABLE:YES;
#BPMS:0.000=127.000,
158.000=63.500,
174.000=127.000;
#STOPS:30.000=0.472,
93.000=0.472;
#DELAYS:;
#WARPS:;
#TIMESIGNATURES:0.000=4=4;
#TICKCOUNTS:0.000=4;
#COMBOS:0.000=1;
#SPEEDS:0.000=1.000=0.000=0;
#SCROLLS:0.000=1.000;
#FAKES:;
#LABELS:0.000=Song Start;
#BGCHANGES:0.000=Got Me Started.avi=1.000=1=0=0=StretchNoLoop==CrossFade==,
99999=-nosongbg-=1.000=0=0=0 // don't automatically add -songbackground-
;
#KEYSOUNDS:;
#ATTACKS:
;

//---------------dance-single - ----------------
#NOTEDATA:;
#CHARTNAME:X-Scale 6;
#STEPSTYPE:dance-single;
#DESCRIPTION:;
#CHARTSTYLE:;
#DIFFICULTY:Easy;
#METER:4;
#RADARVALUES:0.280714,0.320503,0.029328,0.080653,0.000000,268.000000,264.000000,4.000000,11.000000,0.000000,0.000000,0.000000,0.000000,0.000000,0.280714,0.320503,0.029328,0.080653,0.000000,268.000000,264.000000,4.000000,11.000000,0.000000,0.000000,0.000000,0.000000,0.000000;
#CREDIT:iamthek3n;
#NOTES:
0000
0000
0000
0000
,
0000
0000
0000
0000
,
0000
0000
0000
0000
,
0000
0000
0000
0000
,
0200
0001
0000
0310
,
2000
0100
0000
3001
,
0020
0100
0000
0001
0001
0000
0030
1000
,
0000
0001
0001
0000
0000
0000
1001
0000
,
1000
0000
0000
0010
1000
0000
0000
0001
,
0100
0000
0010
0000
0100
0000
0000
0001
,
0000
1000
1000
0000
0001
0100
0000
0010
,
0010
1000
0001
1000
,
0100
0000
0000
0010
0001
0000
0000
1000
,
0001
0000
0100
0000
0001
0000
0010
0100
,
0000
1000
1000
0000
0000
0001
0000
0100
,
0100
0001
1000
1001
,
0000
0000
0000
0100
,
0000
0010
0000
1000
,
0000
0000
0000
0001
,
0000
0010
0000
0100
,
0000
0000
0000
1000
,
0000
0100
0000
0010
,
0000
0000
0000
0001
,
0000
0000
1001
1000
,
0010
1000
0010
0000
0100
0010
0100
0000
,
0001
0000
0010
0000
0100
1000
0000
1000
,
0001
0000
0100
0010
0000
0010
1000
0000
,
0001
1000
0001
0010
,
0100
0010
0100
0000
1000
0010
1000
0000
,
0001
0000
1000
0000
0100
0010
0000
0010
,
0001
0000
1000
0010
0000
0010
0100
0000
,
0001
0000
0100
0000
0002
0000
0003
0001
,
1000
0000
0100
0000
2000
0000
3000
1000
,
0001
0000
1000
0000
0020
0000
0030
0010
,
1000
0000
0100
0000
0020
0000
0030
0010
,
0001
1000
0001
0010
0002
0000
0003
0001
,
1000
0000
0010
0000
0200
0000
0300
0100
,
0010
0000
1000
0000
0002
0000
0003
0001
,
0010
0000
0100
0000
2000
0000
3000
1000
,
0001
0100
0001
1000
0001
0000
0000
0010
,
0001
1000
0010
1000
0001
0000
0000
0000
,
0100
0000
0000
0000
0010
0000
0000
1000
,
0100
0010
0100
1000
0001
0000
0000
0000
,
0100
0000
0101
0001
,
1000
0001
0010
0100
,
0010
0001
1000
0010
,
0100
0010
1000
0100
,
0010
0100
1000
0001
,
0100
0001
1000
0010
,
1000
0001
0010
0100
,
1000
0010
0100
0010
,
1000
0000
0100
0000
0010
0000
0001
0010
,
0001
0000
0100
0000
0001
0000
1000
0010
,
1000
0000
0001
0000
0100
0000
0010
0100
,
0010
1000
0001
0100
,
0001
0100
0001
0100
0001
0000
0010
0100
,
1000
0000
0010
0000
0100
0000
0001
0100
,
0001
0000
0010
0000
0100
0000
1000
0001
,
0100
0001
1000
0010
,
1000
0100
0010
0100
1000
0000
0001
0000
,
0100
0001
0100
0000
0010
0000
0100
0000
,
0001
0010
0001
0000
1000
0000
0010
0000
,
1000
0010
1000
0000
0100
0000
0010
0000
,
0001
0010
0001
0000
1000
0000
0001
0000
,
0010
0100
0010
0000
0001
0000
1000
0000
,
0010
0100
0010
0000
1000
0000
0100
0000
,
0010
0001
0010
0000
0100
0000
1000
0000
,
0001
1000
0001
0000
0000
0000
0000
0000
;

//---------------dance-single - ----------------
#NOTEDATA:;
#CHARTNAME:X-Scale 10;
#STEPSTYPE:dance-single;
#DESCRIPTION:;
#CHARTSTYLE:;
#DIFFICULTY:Medium;
#METER:7;
#RADARVALUES:0.403264,0.420288,0.036660,0.183302,0.161306,385.000000,380.000000,5.000000,25.000000,0.000000,0.000000,0.000000,0.000000,0.000000,0.403264,0.420288,0.036660,0.183302,0.161306,385.000000,380.000000,5.000000,25.000000,0.000000,0.000000,0.000000,0.000000,0.000000;
#CREDIT:iamthek3n;
#NOTES:
0000
0000
0000
0000
,
0000
0000
0000
0000
,
0000
0000
0000
0000
,
0000
0000
0000
0000
,
0002
0000
0000
0000
0013
0000
0100
0000
1000
0000
0000
0000
0001
0000
0000
0200
,
0000
0000
0000
0000
0310
0000
0100
0000
0001
0000
0000
1000
0001
0000
0000
0200
,
0000
0001
0300
0001
0100
0000
0001
1000
,
0000
0100
0100
0000
0000
0000
1001
0000
,
1000
0000
0010
1000
0001
0000
0010
0100
,
1000
0000
0000
0000
0001
0000
0100
0001
0000
0000
0001
0000
1000
0000
0010
0000
,
0000
0010
0100
0000
0001
0010
0000
0100
,
0100
0000
0000
0000
1000
0000
0000
1000
0001
0000
0100
0000
0001
0000
0000
0000
,
0010
0000
1000
0010
0001
0000
1000
0001
,
0100
0000
0000
0000
0001
0000
1000
0100
0000
0000
1000
0000
0001
0000
0100
0000
,
0000
0100
0010
0000
1000
0001
0000
0010
,
0010
0000
0000
0000
0100
0000
0000
0100
1000
0000
0000
0000
1001
0000
0100
0000
,
0000
0001
0000
0000
0010
0000
0000
0100
0000
0000
1000
0000
0000
0000
0100
0000
,
0010
0000
0000
0000
0001
0000
0100
0001
0000
0000
1000
0000
0001
0000
0000
0000
,
0010
0000
0100
0000
1000
0000
0000
0001
0000
0000
0100
0000
0000
0000
0010
0000
,
0100
0000
0000
0000
0001
0000
1000
0100
0000
0000
1000
0000
0001
0000
0100
0000
,
1000
0000
0100
0000
0010
0000
0000
1000
0000
0000
0002
0000
0000
0000
0103
0000
,
0020
0000
0000
0000
1030
0000
0002
1000
0000
0000
0003
0000
0101
0000
0000
0000
,
0001
0000
0000
0000
0000
0000
0000
1000
0000
0000
0001
0000
0200
0000
0000
0000
,
0010
0300
0000
0000
1100
0000
1000
0100
,
0010
0000
0000
0100
0000
0000
1000
0000
0001
0000
0000
0000
0100
0000
0001
0000
,
0010
0000
0000
0100
0000
0000
1000
0000
0001
0000
0100
0000
0000
0000
0100
0000
,
0010
0000
1000
0100
0000
0100
0010
0000
,
0001
0100
1000
0100
0001
0000
1000
0001
,
0100
0000
0000
0010
0000
0000
1000
0000
0001
0000
0000
0000
0010
0000
0100
0000
,
1000
0000
0000
0001
0000
0000
0100
0000
0001
0000
0010
0000
0000
0000
0010
0000
,
0100
1000
0000
0001
0000
0100
0100
0000
,
0001
0100
1000
0100
0002
0000
0103
0001
,
1000
0000
0000
0000
0100
0000
0010
0002
0000
0000
0000
0000
0103
0000
0001
0000
,
1000
0000
0000
0000
0100
0000
0010
0002
0000
0000
1000
0000
0003
0000
1000
0000
,
0010
0000
1000
0000
0001
0000
0010
0200
0000
0000
1000
0000
1300
0000
0100
0000
,
0010
0000
0001
0000
1000
0001
1000
0002
0000
0000
0000
0000
0103
0000
0001
0000
,
0010
0000
0000
0000
0100
0000
1000
0020
0000
0000
0000
0000
0130
0000
0010
0000
,
0001
0000
0010
0000
1000
0000
0001
0200
0000
0000
0001
0000
0300
0000
0001
0000
,
0100
0000
0010
0000
0100
0000
0001
2000
0000
0000
0010
0000
3010
0000
1000
0000
,
0100
0001
1000
0010
0001
0000
0000
0100
,
0001
0000
0000
0000
0000
0000
0000
0000
0010
0000
0000
0000
0100
0000
0000
0000
1000
0000
0000
0001
0000
0000
0000
0000
0000
0000
0000
0000
0000
0000
0000
0000
,
0010
0000
0000
0000
0100
0000
0000
1000
,
0001
0000
0000
0000
0000
0000
0000
0000
0100
0000
0000
0000
0001
0000
0000
0000
0010
0000
0000
0100
0000
0000
0000
0000
0000
0000
0000
0000
0000
0000
0000
0000
,
2000
0000
0000
3001
1002
0000
0103
0001
,
0010
0000
0100
0000
1000
0000
0001
0200
0000
0000
0000
0000
0310
0000
0100
0000
,
0001
0000
1000
0000
0100
0000
1000
0002
0000
0000
0000
0000
0013
0000
0100
0000
,
1000
0000
0001
0000
0100
0000
0010
0200
0000
0000
0000
0000
1300
0000
0100
0000
,
0001
0000
1000
0000
0001
0000
0100
0001
0200
0000
0000
0000
1300
0000
0100
0000
,
0001
0000
1000
0000
0001
0000
0010
0200
0000
0000
0000
0000
1300
0000
0001
0000
,
1000
0000
0100
0000
0010
0000
0100
2000
0000
0000
0000
0000
3001
0000
1000
0000
,
0010
0000
0100
0000
0001
0000
0010
0200
0000
0000
0000
0000
0310
0000
0100
0000
,
1000
0000
0010
1000
0001
0000
0100
0001
,
1000
0000
0000
0100
0000
0000
0010
0000
0100
0000
0000
0000
1000
0000
0001
0000
,
0100
0000
0000
0001
0000
0000
0010
0000
0100
0000
0000
0000
1000
0000
0000
0000
,
0001
0000
0010
0000
0100
0000
0000
0000
0010
0001
0000
0000
1000
0000
0010
0000
,
0001
0010
0100
0010
1000
0000
0100
0010
,
0001
0000
0000
1000
0000
0000
0010
0000
1000
0000
0000
0000
0100
0000
0010
0000
,
0001
0000
0000
0100
0000
0000
0001
1000
0000
0000
0001
0000
0100
0000
0000
0000
,
0010
0100
1000
0100
0010
0000
1000
0100
,
0001
1000
0010
0100
2000
0000
0010
0000
,
3001
0010
0100
0000
1000
1000
1000
0000
,
0001
0100
0001
0000
0100
0000
0010
0000
,
1000
0100
1000
0000
0001
0000
0100
0000
,
0010
0100
0010
0000
1000
0000
0100
0000
,
0010
0100
0010
0000
0001
0000
1000
0100
,
0010
0000
0000
0000
0100
0000
0000
1000
0100
0000
0000
0000
1000
0000
0000
0000
,
0001
0100
0001
0000
1000
0000
0100
0000
,
0010
0000
0100
0000
0010
0000
0100
0010
0000
0000
0000
0000
0000
0000
0000
0000
;

//---------------dance-single - ----------------
#NOTEDATA:;
#CHARTNAME:X-Scale 11;
#STEPSTYPE:dance-single;
#DESCRIPTION:;
#CHARTSTYLE:;
#DIFFICULTY:Hard;
#METER:8;
#RADARVALUES:0.477632,0.519180,0.051325,0.351940,0.216296,456.000000,449.000000,7.000000,48.000000,0.000000,0.000000,0.000000,0.000000,0.000000,0.477632,0.519180,0.051325,0.351940,0.216296,456.000000,449.000000,7.000000,48.000000,0.000000,0.000000,0.000000,0.000000,0.000000;
#CREDIT:iamthek3n;
#NOTES:
// measure 0
0000
0000
0000
0000
,  // measure 1
0000
0000
0000
0000
,  // measure 2
0000
0000
0000
0000
,  // measure 3
0000
0000
0000
0000
,  // measure 4
1200
0000
0000
0000
1300
0000
0001
0000
0100
0000
0000
0000
0001
0000
1000
0020
,  // measure 5
0000
0000
0000
0000
0031
0000
0010
0000
0100
0000
0000
0000
0001
0000
1000
0200
,  // measure 6
0000
0000
0000
0000
0310
0000
0100
0000
1000
0000
0000
0000
0001
0000
0100
0002
,  // measure 7
0000
1003
0000
0110
,  // measure 8
0010
0000
1000
0001
0100
0000
0001
0000
,  // measure 9
0010
0000
0100
0010
0001
0000
1000
0010
,  // measure 10
0000
0100
0100
0001
1000
0100
0000
0010
,  // measure 11
0010
0000
0000
0000
0001
0000
0000
0001
0100
0000
0001
0000
1000
0000
0000
0000
,  // measure 12
0010
0000
1000
0100
0010
0000
0100
0000
,  // measure 13
1000
0000
0001
1000
0010
0000
0100
0001
,  // measure 14
0000
1000
1000
0001
0100
0010
0000
0100
,  // measure 15
0100
0000
0000
0000
0001
0000
0000
0010
0100
0000
0000
0000
2100
0000
0000
0000
,  // measure 16
0001
0000
0000
0010
0010
0000
3001
0010
,  // measure 17
0100
0000
0000
0000
1000
0000
0001
0100
0001
0000
1000
0000
0200
0000
0000
0000
,  // measure 18
0001
0000
0000
0010
0010
0000
1300
0100
,  // measure 19
0010
0000
0000
0000
0001
0000
0010
0100
0010
0000
0001
0000
0002
0000
0000
0000
,  // measure 20
1000
0000
0000
0100
0100
0000
1003
0001
,  // measure 21
0100
0000
0000
0000
0001
0000
0010
0100
0010
0000
0001
0000
0200
0000
0000
0000
,  // measure 22
0001
0000
0001
0320
,  // measure 23
1000
0000
0030
0000
0001
0100
1000
0100
,  // measure 24
0002
0000
0000
0023
0000
0030
0001
0100
0010
0000
0001
0000
0010
0000
1000
0000
,  // measure 25
0002
0000
0000
0203
0000
0300
0010
0100
0001
0000
0100
0000
0010
0000
0001
0000
,  // measure 26
1000
0000
0100
0000
0020
0000
0000
0000
1030
0001
0000
0000
1000
0000
0100
0000
,  // measure 27
0001
0100
0001
0100
1000
0010
0100
0001
,  // measure 28
0020
0000
0000
2030
0000
3000
0010
0001
1000
0000
0001
0000
1000
0000
0100
0000
,  // measure 29
0020
0000
0000
0032
0000
0003
1000
0010
0000
0000
0100
0000
0010
0000
0001
0000
,  // measure 30
1000
0100
0010
1000
2000
0010
3010
0100
,  // measure 31
0001
0000
1000
0000
1000
0001
0100
0000
0002
0000
0000
0000
0013
0000
0100
0000
,  // measure 32
1000
0000
0001
0000
0010
0000
0100
0010
0002
0000
0000
0000
1003
0000
0100
0000
,  // measure 33
0001
0000
0100
0000
0010
0000
0001
0010
0200
0000
0000
0000
0301
0000
0100
0000
,  // measure 34
1000
0000
0001
0000
0100
0000
1000
0100
0002
0000
0000
0000
0103
0000
0001
0000
,  // measure 35
1000
0000
0001
0000
0100
0010
0100
0010
0200
0000
0000
0000
0301
0000
0100
0000
,  // measure 36
0010
0000
0100
0000
0001
0000
1000
0100
0020
0000
0000
0000
0031
0000
0010
0000
,  // measure 37
1000
0000
0010
0000
0100
0000
1000
0100
0020
0000
0000
0000
1030
0000
0010
0000
,  // measure 38
0001
0000
0100
0000
0001
0000
0010
0100
2000
0000
0000
0000
3001
0000
0100
0000
,  // measure 39
1000
0100
1000
0100
0002
0003
0000
2000
,  // measure 40
3020
0000
0000
0000
0130
0000
0000
0000
0110
0000
0000
0000
0001
0000
0000
0000
2000
0000
0000
3002
0000
0003
0000
0000
0000
0000
0000
0000
0000
0000
0000
0000
,  // measure 41
0011
0000
0000
0000
2000
3001
0000
0002
,  // measure 42
0023
0000
0000
0000
0130
0000
0000
0000
1100
0000
0000
0000
2000
0000
0000
0000
3002
0000
0000
0203
0000
0300
0010
0000
0000
0000
0010
0000
0100
0000
0001
0000
,  // measure 43
0000
0001
0010
0100
0000
0100
0000
0000
1001
0000
1000
0000
0010
0000
1000
0000
,  // measure 44
0001
0000
0010
0000
0100
0000
1000
0100
1000
0000
1000
0000
1000
0000
0001
0000
,  // measure 45
0100
0000
0010
0000
0001
0000
0010
0100
0001
0000
1000
0000
0100
0000
0001
0000
,  // measure 46
0100
0000
0010
0000
0001
0000
1000
0001
0100
0000
0010
0000
0100
0000
0001
0000
,  // measure 47
0010
0000
1000
0000
0010
0100
0000
0100
1000
0000
0100
0000
0001
0000
0100
0000
,  // measure 48
1000
0000
0001
0000
0100
0000
0010
0100
0001
0000
0001
0000
0001
0000
1000
0000
,  // measure 49
0001
0000
0010
0000
0001
0000
0100
0010
0001
0000
0010
0000
0100
0000
0001
0000
,  // measure 50
0010
0000
0100
0000
0010
0000
0001
0010
0100
0000
1000
0000
0001
0000
1000
0000
,  // measure 51
0010
0000
1000
0000
0001
0000
1000
0100
1000
0000
0100
0000
0001
0000
0100
0000
,  // measure 52
2000
0000
0000
3200
0000
0300
0010
0100
1000
0000
1000
0000
0100
0000
0010
0000
,  // measure 53
0002
0000
0000
0203
0000
0300
1000
0100
0001
0000
0100
0000
0010
0000
0001
0000
,  // measure 54
1000
0000
0100
0000
0010
0000
1000
0000
0001
1000
0000
0000
0001
0000
0010
0000
,  // measure 55
1000
0010
1000
0010
0001
0100
1000
0100
,  // measure 56
0002
0000
0000
2003
0000
3000
0010
0100
0001
0000
0001
0000
0010
0000
1000
0000
,  // measure 57
0020
0000
0000
0230
0000
0300
1000
0001
0000
0000
0100
0000
0010
0000
0001
0000
,  // measure 58
1000
0000
0100
0000
0010
0000
1000
0000
0001
1000
0000
0000
0001
0000
0100
0000
,  // measure 59
1000
0100
1000
0100
0002
0000
0100
0000
,  // measure 60
1003
0010
0100
0000
0001
0001
0001
1000
,  // measure 61
0000
0000
0100
0000
0010
0100
0010
0000
0001
0000
1000
0000
0000
0000
0001
0000
,  // measure 62
0010
1000
0010
0001
1000
0001
0100
0000
,  // measure 63
0100
0000
0000
0000
0001
0010
0000
0010
0200
0000
0000
0000
0010
0000
0000
0000
,  // measure 64
1300
0100
0010
0000
0001
0001
0001
0100
,  // measure 65
1000
0000
0100
0000
0010
0000
0000
1000
0010
0000
1000
0000
0001
0000
0000
0000
,  // measure 66
0100
0000
0010
0000
1000
0000
0000
0000
0100
0010
0100
0000
1000
0000
0000
0000
,  // measure 67
0001
0000
0100
0000
0010
0000
0100
0001
0000
0000
0000
0000
0000
0000
0000
0000
;

//---------------dance-single - ----------------
#NOTEDATA:;
#CHARTNAME:X-Scale 3;
#STEPSTYPE:dance-single;
#DESCRIPTION:;
#CHARTSTYLE:;
#DIFFICULTY:Beginner;
#METER:2;
#RADARVALUES:0.112076,0.147925,0.007332,0.000000,0.000000,107.000000,106.000000,1.000000,0.000000,0.000000,0.000000,0.000000,0.000000,0.000000,0.112076,0.147925,0.007332,0.000000,0.000000,107.000000,106.000000,1.000000,0.000000,0.000000,0.000000,0.000000,0.000000,0.000000;
#CREDIT:iamthek3n;
#NOTES:
0000
0000
0000
0000
,
0000
0000
0000
0000
,
0000
0000
0000
0000
,
0000
0000
0000
0000
,
0001
0000
0000
0000
,
0010
0000
0000
0000
,
0100
0000
0000
0000
,
1000
0000
0000
0001
,
0000
0000
0000
0100
,
0000
0001
0000
0100
,
0000
0000
0000
0010
,
0000
0000
0000
1000
,
0000
0000
0000
0001
,
0000
0010
0000
0001
,
0000
0000
0000
1000
,
0000
0000
0000
0100
,
0000
0000
0000
0010
,
0000
0100
0000
0010
,
0000
0000
0000
0001
,
0000
0000
0000
1000
,
0000
0000
0000
0010
,
0000
0100
0000
0010
,
0000
0000
0000
1000
,
0000
0000
0000
0001
,
0000
0001
0000
1000
,
0000
1000
0000
0010
,
0000
0010
0000
0100
,
0000
0100
0000
0001
,
0000
0001
0000
0010
,
0000
0010
0000
0100
,
0000
0100
0000
0100
,
0000
0000
1001
0000
,
1000
0000
0001
0000
,
0100
0000
0001
0000
,
1000
0000
0100
0000
,
0010
0000
0100
0000
,
1000
0000
0001
0000
,
0010
0000
0001
0000
,
1000
0000
0010
0000
,
1000
0000
0001
0000
,
0010
0000
0100
0000
,
1000
0000
0010
0000
,
0100
0000
0001
0000
,
1000
0000
0001
0000
,
0010
0000
0001
0000
,
0010
0000
0100
0000
,
1000
0000
0100
0000
,
1000
0000
0001
0000
,
0100
0000
0001
0000
,
0100
0000
0010
0000
,
1000
0000
0010
0000
,
1000
0000
0001
0000
,
1000
0000
0010
0000
,
1000
0000
0001
0000
,
0010
0000
0100
0000
,
0010
0000
0001
0000
,
1000
0000
0100
0000
,
1000
0000
0001
0000
,
0100
0000
0010
0000
,
0100
0000
0001
0000
,
0000
0000
1000
0000
,
0001
0000
1000
0000
,
0000
0000
0100
0000
,
0000
0000
0010
0000
,
0000
0000
0001
0000
,
0100
0000
0001
0000
,
0000
0000
1000
0000
,
0000
0001
0000
0000
;
