#TITLE:Gossip;
#SUBTITLE:;
#ARTIST:Breathe Carolina;
#TITLETRANSLIT:;
#SUBTITLETRANSLIT:;
#ARTISTTRANSLIT:;
#GENRE:Electro;
#CREDIT:;
#BANNER:Gossip-bn.png;
#BACKGROUND:Gossip-bg.png;
#LYRICSPATH:;
#CDTITLE:cdtitle.png;
#MUSIC:Gossip.ogg;
#OFFSET:-0.002000;
#SAMPLESTART:60.915001;
#SAMPLELENGTH:14.779000;
#SELECTABLE:YES;
#BPMS:0.000000=130.000000
;
#STOPS:
;
#BGCHANGES:;
#KEYSOUNDS:;
#ATTACKS:;

//---------------dance-single - ----------------
#NOTES:
     dance-single:
     X-Scale 12:
     Hard:
     8:
     0.550958,0.636805,0.089691,0.336340,0.306444,516.000000,504.000000,12.000000,45.000000,0.000000,0.000000,0.550958,0.636805,0.089691,0.336340,0.306444,516.000000,504.000000,12.000000,45.000000,0.000000,0.000000:
// measure 0
0000
0000
0000
0000
,  // measure 1
0000
0000
0000
0000
,  // measure 2
0000
0000
0000
0000
,  // measure 3
0000
0000
0000
0000
,  // measure 4
0001
0000
0010
0000
0100
0000
0010
0000
0001
0000
1000
0000
0000
0010
0000
0000
,  // measure 5
1000
0100
0001
0100
1000
0010
0200
0000
,  // measure 6
0301
0000
0100
0000
0010
0000
0100
0000
0001
0000
1000
0000
0000
0010
0000
0000
,  // measure 7
1000
0000
0100
0000
0001
0000
0100
0000
1000
0100
0000
1000
0000
0001
1000
0000
,  // measure 8
1001
0000
0001
0000
2000
0000
0000
0000
3010
1000
0001
0100
0010
1000
0001
0100
,  // measure 9
0010
1000
0001
2000
0100
0000
3001
1000
,  // measure 10
0100
0000
0010
0000
0002
0000
0000
0000
1003
0001
0010
0100
1000
0001
0010
0100
,  // measure 11
1000
0000
0001
0000
0100
0010
0000
1000
0000
0001
0000
0010
0001
0000
1000
0000
,  // measure 12
0010
0000
0100
0000
0002
0000
0000
0000
1003
0001
0100
0010
1000
0001
0100
0010
,  // measure 13
1000
0001
0010
0200
1000
0000
0310
0100
,  // measure 14
1000
0000
0001
0000
0200
0000
0000
0000
0310
0100
0001
1000
0010
0100
0001
1000
,  // measure 15
0010
0000
1000
0000
0100
0000
0010
0000
0001
0000
1000
0000
0010
1000
0010
0000
,  // measure 16
0001
0000
0010
0000
0200
0000
0000
0000
0301
0100
0010
1000
0001
0100
0010
1000
,  // measure 17
0001
0000
0100
0000
0010
0000
1000
0000
0001
0000
0010
0001
0000
1000
0001
0000
,  // measure 18
0010
0000
0100
0000
2000
0000
0000
0000
3010
1000
0001
0100
0010
1000
0001
0100
,  // measure 19
0010
0000
0100
0000
0001
0000
0010
0000
0100
0000
1000
0001
0000
1000
0010
0000
,  // measure 20
1000
0100
0010
0001
2000
0000
3100
0010
,  // measure 21
0002
0000
1003
0001
0200
0000
0310
2000
,  // measure 22
0001
0000
0000
0000
0100
0000
0000
0000
3001
0000
1000
0100
0000
0010
0001
0000
,  // measure 23
1000
0010
0001
1000
0100
0001
1000
0001
,  // measure 24
0010
0001
0100
0010
2000
0000
3001
0100
,  // measure 25
0020
0000
1030
0001
0020
0000
0130
2000
,  // measure 26
0001
0010
0100
0010
,  // measure 27
3001
0000
1000
0000
0100
0000
1000
0000
0001
0000
0010
0100
0000
0010
0100
0000
,  // measure 28
2000
0000
0000
0000
3001
0000
2000
0000
3000
0000
0010
0000
0000
1000
0020
0000
,  // measure 29
1030
0000
0100
0000
0001
0000
0100
0000
1000
0000
0001
0100
0000
0001
1000
0000
,  // measure 30
0200
0000
0000
0000
0310
0000
0002
0000
0003
0000
1000
0001
0010
0001
1000
0000
,  // measure 31
0010
0100
1000
0100
0001
0100
0010
0100
,  // measure 32
0002
0000
0000
0000
0000
0000
0000
0000
0000
0000
0000
0000
0000
0000
0000
0003
,  // measure 33
1001
1000
0200
0000
0320
0000
0031
0010
,  // measure 34
0100
0010
1000
0010
0100
0010
0001
1000
,  // measure 35
0100
0000
2000
0000
3001
0002
0103
0001
,  // measure 36
0000
1000
0100
0010
0001
0100
0010
1000
,  // measure 37
0001
0000
1000
0100
0001
0000
1000
0010
,  // measure 38
0001
0000
1000
0100
0000
0100
0001
1000
,  // measure 39
0001
0000
1000
0010
1000
0000
0001
0010
,  // measure 40
0001
1000
0100
0010
0001
0000
1000
0020
,  // measure 41
0001
0000
0000
0000
0100
0000
0000
0000
1000
0000
1000
0000
0030
1000
0000
0000
,  // measure 42
0001
0010
0100
1000
0000
0001
0000
1000
,  // measure 43
0010
0000
0000
1000
0000
0000
0001
0000
0100
0000
0010
0000
1000
0000
0001
0000
,  // measure 44
1001
0000
0000
0000
1000
0000
0100
0000
0000
1000
0100
0010
0001
1000
0100
0010
,  // measure 45
0001
0000
0001
0000
0100
0001
0100
0000
0010
0000
1000
0010
0000
1000
0001
0000
,  // measure 46
1001
0000
1000
0000
0010
0100
0010
0000
1000
0000
0001
0010
0000
0100
1000
0000
,  // measure 47
1001
0000
0100
0000
1000
0000
0001
0000
0100
0000
0010
0100
0000
0001
1000
0000
,  // measure 48
0001
0000
1000
0000
0100
0010
0100
0000
1000
0000
0001
0010
0000
0001
1000
0000
,  // measure 49
0100
0000
1000
0000
0001
0100
0001
0000
0010
0000
0100
1000
0000
0001
0100
0000
,  // measure 50
0010
0000
0100
0000
0001
0010
0001
0000
1000
0000
0100
0010
0000
0001
1000
0000
,  // measure 51
0010
0001
0010
0100
0010
1000
0001
0001
,  // measure 52
1001
1000
0000
0001
0000
1000
0000
0100
,  // measure 53
1100
0000
1000
0000
0000
0000
0001
0000
0000
0001
0010
0100
1000
0001
0010
0100
,  // measure 54
1000
0100
0001
0100
1000
0000
0001
0100
,  // measure 55
1000
0100
0010
0100
0001
0001
0001
0010
,  // measure 56
0100
1000
0010
0100
0001
0000
1000
0010
,  // measure 57
0001
0010
0100
0010
1000
1000
1000
0001
,  // measure 58
0100
0000
0000
0000
0020
0000
0000
0030
2000
0000
0000
3000
0000
0000
0002
0000
,  // measure 59
0000
0003
1000
0000
0100
0000
0010
0000
0002
0000
0000
0003
2000
0000
0000
3000
,  // measure 60
0010
0000
0000
0000
0200
0000
0000
0300
0020
0000
0000
0030
0000
0000
2000
0000
,  // measure 61
0000
3000
0001
0000
1000
0000
0010
0000
0100
0000
0001
0000
2000
0000
0000
3000
,  // measure 62
1010
0000
0001
0000
0020
0000
0000
0000
0032
0000
0000
0000
1003
0001
1000
0001
,  // measure 63
1000
0000
0010
0000
0100
0000
0001
0000
2000
0000
0000
0000
3100
1000
0001
1000
,  // measure 64
0100
0000
0000
0000
0020
0000
0000
0000
0032
0000
0000
0000
1003
0001
0100
0001
,  // measure 65
1000
0000
0010
0000
0001
0000
0010
0000
0100
0000
0010
0000
1000
0010
0100
0010
,  // measure 66
1000
0001
1001
1000
1100
0000
0110
0010
,  // measure 67
0011
0000
1000
0010
0000
0010
0001
1000
,  // measure 68
0001
0000
0100
0010
0100
0000
0001
0010
,  // measure 69
0001
1000
0010
0100
0002
0000
1003
0200
,  // measure 70
0020
0030
0000
0000
,  // measure 71
0300
0000
0000
0000
;

//---------------dance-single - ----------------
#NOTES:
     dance-single:
     X-Scale 8:
     Medium:
     6:
     0.401473,0.477603,0.044845,0.455928,0.044845,376.000000,370.000000,6.000000,61.000000,0.000000,0.000000,0.401473,0.477603,0.044845,0.455928,0.044845,376.000000,370.000000,6.000000,61.000000,0.000000,0.000000:
// measure 0
0000
0000
0000
0000
,  // measure 1
0000
0000
0000
0000
,  // measure 2
0000
0000
0000
0000
,  // measure 3
0000
0000
0000
0000
,  // measure 4
1000
0000
0000
0000
0001
0000
0000
0000
1000
0000
0100
0000
0000
0100
0000
0000
,  // measure 5
0100
0000
0010
0000
0100
1000
0002
0000
,  // measure 6
0103
0000
0000
0000
0010
0000
0000
0000
1000
0000
0001
0000
0000
0001
0000
0000
,  // measure 7
0001
0000
0000
0000
0100
0000
0000
0000
0010
0100
0000
0100
0000
0100
0001
0000
,  // measure 8
1001
0000
2000
0000
3200
0000
0310
0100
,  // measure 9
1000
0002
0003
2000
0001
0000
3100
1000
,  // measure 10
0001
0100
0020
0000
2030
0000
3001
0010
,  // measure 11
0100
1000
0001
0200
0010
0000
0301
0100
,  // measure 12
0010
1000
0002
0000
2003
0000
3010
1000
,  // measure 13
0001
0200
0300
0002
0010
0000
1003
0001
,  // measure 14
1000
0100
0020
0000
0032
0000
1003
0001
,  // measure 15
0010
1000
0010
0002
1000
0000
0103
0001
,  // measure 16
1000
0000
0020
0000
0230
0000
1300
0100
,  // measure 17
0001
2000
3000
0200
0001
0000
1300
0100
,  // measure 18
0010
0100
2000
0000
3002
0000
0103
0001
,  // measure 19
0010
1000
0010
0002
1000
0000
0103
0001
,  // measure 20
1000
0000
0001
0100
1000
0000
1000
0100
,  // measure 21
0001
0000
1000
0100
0010
0000
0001
1000
,  // measure 22
0010
1000
0001
1000
0000
0010
0100
0001
,  // measure 23
0000
1000
0100
0010
0000
0001
0000
2000
,  // measure 24
0001
0010
0100
0010
,  // measure 25
3001
0000
1000
0100
0010
0000
0001
0100
,  // measure 26
0010
1000
0001
1000
0000
0100
0010
0001
,  // measure 27
0000
1000
0010
0100
0001
1000
0000
0010
,  // measure 28
0100
0000
0001
0020
0000
0032
0000
2003
,  // measure 29
0000
0000
3010
1000
0001
1000
0010
0100
,  // measure 30
0001
0000
1000
0200
0000
2300
0000
3002
,  // measure 31
0000
0103
0001
1000
0000
0020
0000
0000
,  // measure 32
1000
0000
0000
0000
0000
0000
0000
0000
0000
0000
0000
0000
0000
0000
0000
0030
,  // measure 33
0110
0000
0200
0000
0302
0000
1003
0100
,  // measure 34
0000
1000
0001
0100
0002
0000
2003
0000
,  // measure 35
3001
0000
2000
0000
3010
2000
0000
3001
,  // measure 36
0000
0010
0100
1000
0001
1000
0200
0000
,  // measure 37
0310
0000
0001
0100
1000
0000
0001
0010
,  // measure 38
1000
0000
0001
0010
0000
0100
1000
0001
,  // measure 39
1000
0000
0001
0010
0001
0000
1000
0010
,  // measure 40
1000
0001
0010
0100
1000
0000
0010
2000
,  // measure 41
0001
0000
0000
0000
0000
0000
0000
0000
0000
0000
0010
0000
0000
0010
0000
0000
,  // measure 42
3010
0000
1000
0002
0000
0203
0000
0302
,  // measure 43
1000
0000
0003
1000
0000
0000
1000
0000
0000
0000
0010
0000
0000
0010
0000
0000
,  // measure 44
0010
0000
0100
0002
0000
2003
3000
2000
,  // measure 45
3200
0000
0300
0000
0100
0000
1000
0000
0001
0000
0010
0001
0000
0010
0001
0000
,  // measure 46
1000
0000
0000
0000
0010
0000
0100
0000
0001
0000
1000
0100
0000
1000
0100
0000
,  // measure 47
0010
0100
1000
0001
1000
0010
0100
0001
,  // measure 48
1000
0001
0010
1000
0010
0100
1000
1000
,  // measure 49
1000
0010
0100
1000
0100
0010
1000
1000
,  // measure 50
1000
0001
0100
0001
1000
0100
0010
0001
,  // measure 51
0011
0000
1000
0000
0001
0000
1000
1000
,  // measure 52
1100
0000
0000
0000
0000
0000
0000
0001
,  // measure 53
0101
0000
0000
2000
,  // measure 54
3100
1000
0001
1000
0010
0000
0100
0010
,  // measure 55
1000
0001
0010
0100
1000
0000
0001
0100
,  // measure 56
1000
0100
0010
0100
0001
0000
1000
0100
,  // measure 57
0010
0001
0100
0010
1000
0000
0001
0100
,  // measure 58
0002
0000
0000
0000
,  // measure 59
2003
0000
3200
0000
,  // measure 60
0320
1000
0032
0000
,  // measure 61
2003
0010
3002
0100
,  // measure 62
1003
0001
2000
0000
3200
0000
0310
0001
,  // measure 63
0000
1000
0001
0100
0020
0000
2030
0000
,  // measure 64
3001
0000
0020
0000
0130
0200
0300
2000
,  // measure 65
0000
3001
0010
1000
0010
0100
1000
0000
,  // measure 66
1001
0000
0001
0010
1000
0000
0001
0100
,  // measure 67
1000
0000
0001
0010
0000
0100
1000
0001
,  // measure 68
1000
0000
0001
0010
0001
0000
1000
0010
,  // measure 69
1000
0001
0010
0100
1000
0000
0001
2000
,  // measure 70
0010
0000
0000
0000
,  // measure 71
3000
0000
0000
0000
;

//---------------dance-single - ----------------
#NOTES:
     dance-single:
     X-Scale 6:
     Easy:
     4:
     0.300037,0.340078,0.052320,0.231701,0.000000,281.000000,274.000000,7.000000,31.000000,0.000000,0.000000,0.300037,0.340078,0.052320,0.231701,0.000000,281.000000,274.000000,7.000000,31.000000,0.000000,0.000000:
// measure 0
0000
0000
0000
0000
,  // measure 1
0000
0000
0000
0000
,  // measure 2
0000
0000
0000
0000
,  // measure 3
0000
0000
0000
0000
,  // measure 4
0100
1000
0100
1000
,  // measure 5
0001
0100
0001
0100
,  // measure 6
0010
1000
0010
1000
,  // measure 7
0100
0010
0100
0010
,  // measure 8
0011
1000
0001
1000
,  // measure 9
0100
2000
0000
3002
0000
0000
0103
0000
,  // measure 10
0001
1000
0100
1000
,  // measure 11
0001
0010
0100
2000
0000
0000
3001
1000
,  // measure 12
0001
0100
0010
1000
,  // measure 13
0100
0020
0000
0032
0000
0000
1003
0000
,  // measure 14
0001
0010
0100
1000
,  // measure 15
0001
0100
0010
2000
0000
0000
3001
1000
,  // measure 16
0001
0100
0010
0100
,  // measure 17
0001
2000
0000
3200
0000
0000
0301
0100
,  // measure 18
1000
0010
1000
0001
,  // measure 19
1000
0100
0010
0002
0000
0000
1003
0001
,  // measure 20
1000
0000
0010
0100
0010
0000
0010
0100
,  // measure 21
0010
0000
1000
0000
0001
0000
1000
0100
,  // measure 22
1000
0001
1000
0001
,  // measure 23
0010
0100
0010
0100
,  // measure 24
1000
0000
0100
0010
0100
0000
0100
0010
,  // measure 25
0100
0000
1000
0000
0001
0000
0100
0001
,  // measure 26
0100
0010
0100
0010
,  // measure 27
1000
0001
1000
0001
,  // measure 28
0020
0000
0130
2000
0000
3002
0000
2003
,  // measure 29
0000
3100
1000
0001
,  // measure 30
0200
0000
0310
2000
0000
3002
0000
0023
,  // measure 31
0100
0031
0010
0100
,  // measure 32
1000
0000
0000
0000
,  // measure 33
1100
0001
1000
0001
,  // measure 34
0100
0000
0010
0100
0001
0000
1000
0000
,  // measure 35
0100
0010
0001
1000
,  // measure 36
0001
0000
0100
0000
0010
0100
0001
0000
,  // measure 37
1000
0010
0200
0310
,  // measure 38
0200
0000
0301
0000
1000
0000
0001
0100
,  // measure 39
0001
0000
0001
0100
0001
0000
0001
0100
,  // measure 40
0001
0000
1000
0000
0010
0000
1000
0002
,  // measure 41
0000
0000
0000
0000
0000
1000
0000
0000
,  // measure 42
0013
0000
0000
0002
0000
2003
0000
3002
,  // measure 43
1000
0003
0000
0000
0000
0100
0000
0000
,  // measure 44
1100
0000
0000
0001
0000
2000
0000
0000
,  // measure 45
3010
0000
0000
0000
0000
1000
0000
1000
,  // measure 46
1000
0000
0000
0000
0000
0001
0000
0001
,  // measure 47
0001
0000
0100
0000
0010
0000
0100
0010
,  // measure 48
1000
0000
0001
0000
1000
0000
0100
0010
,  // measure 49
0001
0000
1000
0000
0001
0000
0100
0010
,  // measure 50
1000
0000
0001
0000
0100
0000
0001
0010
,  // measure 51
0100
0000
1000
0000
0001
0000
1000
1000
,  // measure 52
1100
0000
0000
0000
,  // measure 53
0101
0000
0000
0000
,  // measure 54
0110
0000
0100
0000
0010
0000
1000
0100
,  // measure 55
0010
0000
0001
0000
1000
0000
0001
0100
,  // measure 56
0010
0000
1000
0000
0001
0000
0010
0100
,  // measure 57
1000
0000
0001
0000
1000
0000
0010
0100
,  // measure 58
0001
0000
0000
0000
,  // measure 59
1000
0000
0100
0000
,  // measure 60
1000
0000
0000
0000
,  // measure 61
0001
0000
0100
0000
,  // measure 62
0101
0200
0320
1030
,  // measure 63
0001
0000
0100
0010
2000
0000
3002
0000
,  // measure 64
0103
0020
0230
0301
,  // measure 65
1000
0000
0100
0000
0010
0001
2000
0000
,  // measure 66
3001
0000
0100
0010
0100
0000
0100
0010
,  // measure 67
0100
0000
0001
0000
1000
0000
0001
0010
,  // measure 68
0001
0000
0001
0010
0001
0000
0001
0010
,  // measure 69
0001
1000
0010
1000
,  // measure 70
0001
0000
0000
0000
;

//---------------dance-single - ----------------
#NOTES:
     dance-single:
     X-Scale 2:
     Beginner:
     1:
     0.124926,0.156959,0.007474,0.007474,0.000000,117.000000,116.000000,1.000000,1.000000,0.000000,0.000000,0.124926,0.156959,0.007474,0.007474,0.000000,117.000000,116.000000,1.000000,1.000000,0.000000,0.000000:
// measure 0
0000
0000
0000
0000
,  // measure 1
0000
0000
0000
0000
,  // measure 2
0000
0000
0000
0000
,  // measure 3
0000
0000
0000
0000
,  // measure 4
0001
0000
0100
0000
,  // measure 5
0001
0000
0100
0000
,  // measure 6
0010
0000
1000
0000
,  // measure 7
0010
0000
1000
0000
,  // measure 8
0001
0000
0010
0000
,  // measure 9
0001
0000
0010
0000
,  // measure 10
0100
0000
1000
0000
,  // measure 11
0100
0000
1000
0000
,  // measure 12
0001
0000
1000
0000
,  // measure 13
0001
0000
0100
0000
,  // measure 14
0010
0000
0100
0000
,  // measure 15
0010
0000
1000
0000
,  // measure 16
0100
0000
1000
0000
,  // measure 17
0100
0000
0010
0000
,  // measure 18
0001
0000
0010
0000
,  // measure 19
0001
0000
1000
0000
,  // measure 20
0001
0000
0100
0000
,  // measure 21
0100
0000
0010
0000
,  // measure 22
1000
0000
0100
0000
,  // measure 23
0010
0000
0001
0000
,  // measure 24
1000
0000
0100
0000
,  // measure 25
0100
0000
0010
0000
,  // measure 26
0001
0000
1000
0000
,  // measure 27
0010
0000
0100
0000
,  // measure 28
0001
0000
0010
0000
,  // measure 29
0100
0000
1000
0000
,  // measure 30
0001
0000
0100
0000
,  // measure 31
0020
0000
0000
0000
,  // measure 32
0030
0000
0000
0000
,  // measure 33
1001
0000
1000
0000
,  // measure 34
0001
0000
1000
0000
,  // measure 35
0100
0000
0010
0000
,  // measure 36
0001
0000
0100
0000
,  // measure 37
0001
0000
1000
0000
,  // measure 38
0100
0000
0010
0000
,  // measure 39
0001
0000
1000
0000
,  // measure 40
0001
0000
1000
0000
,  // measure 41
0010
0000
0000
0000
,  // measure 42
1000
0000
0000
0000
,  // measure 43
0001
0000
0000
0000
,  // measure 44
0010
0000
0000
0000
,  // measure 45
0001
0000
0000
0000
,  // measure 46
1000
0000
0000
0000
,  // measure 47
0001
0000
0100
0000
,  // measure 48
0001
0000
0100
0000
,  // measure 49
0010
0000
1000
0000
,  // measure 50
0010
0000
1000
0000
,  // measure 51
0100
0000
0010
0000
,  // measure 52
0001
0000
0000
0000
,  // measure 53
1000
0000
0000
0000
,  // measure 54
0001
0000
0010
0000
,  // measure 55
0100
0000
1000
0000
,  // measure 56
0001
0000
0100
0000
,  // measure 57
0010
0000
1000
0000
,  // measure 58
0001
0000
0000
0000
,  // measure 59
1000
0000
0100
0000
,  // measure 60
1000
0000
0000
0000
,  // measure 61
0010
0000
0100
0000
,  // measure 62
0010
0000
0000
0000
,  // measure 63
1000
0000
0000
0000
,  // measure 64
0100
0000
0000
0000
,  // measure 65
0010
0000
0000
0000
,  // measure 66
0001
0000
0100
0000
,  // measure 67
0010
0000
1000
0000
,  // measure 68
0001
0000
1000
0000
,  // measure 69
0010
0000
0100
0000
,  // measure 70
0001
0000
0000
0000
;
