#TITLE:Good Feeling;
#SUBTITLE:;
#ARTIST:More Plastic & imallryt;
#TITLETRANSLIT:;
#SUBTITLETRANSLIT:;
#ARTISTTRANSLIT:;
#GENRE:Electro House;
#CREDIT:;
#BANNER:Good Feeling-bn.png;
#BACKGROUND:Good Feeling-bg.png;
#LYRICSPATH:;
#CDTITLE:cdtitle.png;
#MUSIC:Good Feeling.ogg;
#OFFSET:-0.001000;
#SAMPLESTART:58.223000;
#SAMPLELENGTH:14.222000;
#SELECTABLE:YES;
#DISPLAYBPM:135.000000;
#BPMS:0.000000=135.000000
,127.000000=67.500000
,128.000000=135.000000
,130.000000=270.000000
,130.500000=135.000000
,130.750000=67.500000
,131.000000=270.000000
,131.500000=67.500000
,131.750000=135.000000
,134.000000=270.000000
,134.500000=135.000000
,134.750000=67.500000
,135.000000=270.000000
,135.500000=67.500000
,135.750000=135.000000
,138.000000=270.000000
,138.500000=135.000000
,138.750000=67.500000
,139.000000=270.000000
,139.500000=67.500000
,139.750000=135.000000
,142.000000=270.000000
,142.500000=67.500000
,142.750000=135.000000
,146.000000=270.000000
,146.500000=135.000000
,146.750000=67.500000
,147.000000=270.000000
,147.500000=67.500000
,147.750000=135.000000
,150.000000=270.000000
,150.500000=135.000000
,150.750000=67.500000
,151.000000=270.000000
,151.500000=67.500000
,151.750000=135.000000
,154.000000=270.000000
,154.500000=135.000000
,154.750000=67.500000
,155.000000=270.000000
,155.500000=67.500000
,155.750000=135.000000
,158.000000=270.000000
,158.500000=67.500000
,158.750000=135.000000
,170.000000=270.000000
,170.500000=135.000000
,170.750000=67.500000
,171.000000=270.000000
,171.500000=67.500000
,171.750000=135.000000
,174.000000=270.000000
,174.500000=67.500000
,174.750000=135.000000
,178.000000=270.000000
,178.500000=135.000000
,178.750000=67.500000
,179.000000=270.000000
,179.500000=67.500000
,179.750000=135.000000
,182.000000=270.000000
,182.500000=135.000000
,182.750000=67.500000
,183.000000=270.000000
,183.500000=67.500000
,183.750000=130.000000
,184.000000=135.000000
,186.000000=270.000000
,186.500000=135.000000
,186.750000=67.500000
,187.000000=270.000000
,187.500000=67.500000
,187.750000=135.000000
,190.000000=270.000000
,190.500000=67.500000
,190.750000=130.000000
,191.000000=135.000000
;
#STOPS:
;
#BGCHANGES:;
#KEYSOUNDS:;
#ATTACKS:;

//---------------dance-single - ----------------
#NOTES:
     dance-single:
     X-Scale 13:
     Hard:
     9:
     0.540673,0.631464,0.311339,0.301609,0.214045,389.000000,357.000000,32.000000,31.000000,0.000000,0.000000,0.540673,0.631464,0.311339,0.301609,0.214045,389.000000,357.000000,32.000000,31.000000,0.000000,0.000000:
// measure 0
0000
0000
0000
0000
,  // measure 1
0000
0000
0000
0000
,  // measure 2
0000
0000
0000
0000
,  // measure 3
0000
0000
0000
0000
,  // measure 4
0000
0000
0000
0002
,  // measure 5
0000
0100
0000
2003
0000
0100
3200
0000
,  // measure 6
0000
0001
0000
0000
0000
0000
2300
0000
,  // measure 7
0000
0010
0000
3002
0000
0000
0023
0000
,  // measure 8
0000
0000
0130
0010
0001
1000
0020
0000
,  // measure 9
0230
0000
0000
0001
0301
0100
0020
0000
,  // measure 10
2030
0000
3100
0001
0100
1000
0020
0000
,  // measure 11
0031
0010
1000
0010
0200
0000
0302
0000
,  // measure 12
0003
0000
1000
0100
0001
0100
2000
0000
,  // measure 13
3002
0000
0000
0100
0103
0010
2000
0000
,  // measure 14
3200
0000
0301
0100
1000
0010
0200
0000
,  // measure 15
0302
0000
0013
0100
2000
0000
3200
0300
,  // measure 16
0000
0000
0001
0100
0010
1000
2001
0000
,  // measure 17
3100
1000
0000
0010
1000
0001
0200
0000
,  // measure 18
0301
1000
0000
0010
1000
0100
0020
0000
,  // measure 19
0031
0100
0001
1000
0020
0000
2030
0000
,  // measure 20
3001
0100
0000
0001
0010
0100
2000
0000
,  // measure 21
3100
0010
0000
0010
0001
1000
0020
0000
,  // measure 22
0130
0001
0000
0010
0100
1000
0002
0000
,  // measure 23
0103
0001
0010
0100
2000
0000
3020
0000
,  // measure 24
1030
0000
0001
0010
0001
0000
0011
0000
,  // measure 25
1000
0000
0010
1000
0010
0000
1010
0000
,  // measure 26
1000
0000
0000
0000
0001
0000
1000
0000
0001
0000
0000
0000
0110
0000
0100
0010
,  // measure 27
0100
0000
0001
0000
0010
0000
0001
0000
1000
0000
0000
0000
1010
0000
0010
1000
,  // measure 28
0010
0100
0001
1000
0100
0000
1000
0010
,  // measure 29
0001
0010
1000
0100
0001
0100
1000
0010
,  // measure 30
0100
0001
0010
0100
1000
0001
1000
1000
,  // measure 31
0010
0010
0100
0100
0001
0001
1001
0000
,  // measure 32
0001
0000
0010
0100
0010
0000
0001
0000
0011
0000
0000
0000
1001
0000
0000
1000
,  // measure 33
0010
0000
1000
0000
0001
0000
0010
0000
0011
0000
0000
0000
1010
0000
0000
1000
,  // measure 34
0001
0000
1000
0000
0100
0010
0100
0000
1010
0000
0000
0000
0110
0000
0000
0100
,  // measure 35
0001
0000
0010
0000
0001
0000
1000
0000
1001
0000
0000
0010
1000
0000
0001
0010
,  // measure 36
0000
0001
1000
0000
0100
0000
0010
0000
0011
0000
0000
0000
1100
0000
0000
1000
,  // measure 37
0001
0000
0010
0000
0001
0000
0100
0000
0101
0000
0000
0000
1010
0000
0000
1000
,  // measure 38
0100
0000
1000
0000
0001
0000
0100
0000
0110
0000
0000
0000
1001
0000
0000
0100
,  // measure 39
0001
0000
0010
0000
0001
0000
0100
0000
0110
0000
0000
0010
1000
0000
0100
1000
,  // measure 40
0000
0000
0010
0000
1000
0000
0100
0000
1100
0000
0000
0000
1000
0000
0000
0001
,  // measure 41
0010
0000
0001
0000
1000
0000
0100
0000
0010
0000
0000
0000
0001
0000
0000
1000
,  // measure 42
0100
0000
1000
0000
0001
1000
0001
0000
1001
0000
0000
0000
0011
0000
0000
0010
,  // measure 43
0001
0000
1000
0000
0010
0000
0100
0000
1001
0000
0000
0001
1000
0000
0010
0100
,  // measure 44
0000
0001
1000
0000
0001
0000
0100
0000
0101
0000
0000
0000
1100
0000
0000
0100
,  // measure 45
1000
0000
0001
0000
0010
0000
0001
0000
0101
0000
0000
0000
0110
0000
0000
0010
,  // measure 46
1000
0000
0001
0000
0100
0001
0100
0000
0101
0000
0000
0000
1100
0000
0000
0100
,  // measure 47
1000
0000
0010
0000
0001
0000
0010
0000
1000
0000
0000
0001
0010
0000
0100
1000
,  // measure 48
0000
0010
0100
0001
1001
1000
0010
0100
,  // measure 49
0010
0000
1000
0001
1000
0000
0100
0000
0010
0000
1000
0000
0010
0000
0001
0000
,  // measure 50
1000
0000
0001
0100
0001
0000
0010
0000
0100
0000
1000
0000
0001
0000
1000
0000
,  // measure 51
0100
0000
0010
0001
0010
0000
0001
0000
0100
0000
0010
0000
0100
0000
0001
0000
,  // measure 52
1000
0000
0010
1000
0010
0000
0100
0000
0001
0000
0010
0100
1000
0000
0001
0100
,  // measure 53
0010
0100
0000
0010
1000
0000
0001
0000
0100
0000
0010
0100
0010
0000
1000
0100
,  // measure 54
1000
0001
0000
0010
0100
0000
0010
0000
0001
0000
1000
0010
1000
0000
0001
0000
,  // measure 55
0100
0000
0010
0100
0010
0000
1000
0000
0100
0000
0000
0000
1100
0000
1000
0000
,  // measure 56
0001
0000
0000
0001
0100
0000
0010
0100
0000
0000
0000
0000
0000
0000
0000
0000
;

//---------------dance-single - ----------------
#NOTES:
     dance-single:
     X-Scale 10:
     Medium:
     7:
     0.421141,0.492547,0.107023,0.116752,0.107023,303.000000,292.000000,11.000000,12.000000,0.000000,0.000000,0.421141,0.492547,0.107023,0.116752,0.107023,303.000000,292.000000,11.000000,12.000000,0.000000,0.000000:
0000
0000
0000
0000
,
0000
0000
0000
0000
,
0000
0000
0000
0000
,
0000
0000
0000
0000
,
0000
0000
0000
1000
,
0000
0000
0000
0001
0000
0000
0100
0000
,
0000
0001
0000
0000
0000
0000
1000
0000
,
0000
0000
0000
0100
0000
0000
1000
0000
,
0000
0000
0001
0100
0010
0100
0002
0000
,
2003
0000
0000
3010
0000
0000
1000
0000
,
0000
0000
0001
0010
1000
0010
0001
0000
,
1000
0010
0100
0001
0020
0000
0230
0000
,
0300
0000
1000
0010
0001
0010
2000
0000
,
3002
0000
0000
0013
0000
0000
0100
0000
,
0000
0000
1000
0010
0100
0001
0020
0000
,
2030
0000
3001
0100
2000
0000
3010
0000
,
0000
0100
0000
0101
,
0001
0000
1000
0001
0010
0001
1000
0000
,
0100
0010
0100
1000
,
0010
0000
0100
0001
0010
0001
0100
0000
,
0001
1000
0100
0001
,
0100
0000
1000
0010
0001
0010
1000
0000
,
0001
0100
0010
1000
,
0100
0000
1000
0100
0001
0100
1000
0000
,
0001
0000
0100
0001
2000
0000
3010
0000
,
1000
0000
0100
0010
0002
0000
1003
0000
,
0010
0000
0100
0001
0020
0000
1030
0000
,
0010
0001
1000
0010
0100
0000
0001
0000
,
0010
0100
1000
0001
0100
0000
0001
0010
,
0100
1000
0001
0010
0100
1000
0001
0100
,
0010
1000
0001
0100
0010
1000
0100
0001
,
0100
1000
0100
0001
0100
0010
0001
0000
,
0000
0000
0000
0000
1000
0000
0100
0000
0011
0000
0000
0000
0001
0000
0000
0100
,
0010
0000
0100
0000
0001
0000
1000
0000
0100
0000
0000
0000
1000
0000
0000
0010
,
1000
0000
0001
0000
0010
0000
0001
0000
0100
0000
0000
0000
0010
0000
0000
1000
,
0100
0000
1000
0000
0001
0000
0100
0000
0001
0000
0000
0000
0010
0000
0000
0001
,
0000
0000
0001
0000
1000
0000
0001
0000
1001
0000
0000
0000
1000
0000
0000
0010
,
0100
0000
0010
0000
0001
0000
0010
0000
0100
0000
0000
0000
0001
0000
0000
0010
,
0001
0000
1000
0000
0100
0000
1000
0000
0010
0000
0000
0000
0100
0000
0000
0001
,
0010
0000
0001
0000
1000
0000
0100
0000
1000
0000
0000
0000
1010
0000
0000
0101
,
0000
0000
0011
0000
0001
0000
1000
0000
1001
0000
0000
0000
1000
0000
0000
1000
,
0000
0000
0001
0000
0100
0000
0001
0000
1000
0000
0000
0000
0100
0000
0000
0100
,
0000
0000
0010
0000
0001
0000
1000
0000
1010
0000
0000
0000
0101
0000
0000
0001
,
0000
0000
1000
0000
0100
0000
1000
0000
0010
0000
0000
0100
0010
0000
0100
0001
,
0000
0010
0100
0000
1000
0000
0001
0000
1000
0000
0000
0000
0100
0000
0000
0100
,
0000
0000
0010
0000
0100
0000
1000
0000
0001
0000
0000
0000
0010
0000
0000
0010
,
0000
0000
0001
0000
1000
0000
0010
0000
1000
0000
0000
0000
0001
0000
0000
0100
,
0001
0000
1000
0000
0010
0000
1000
0000
0001
0000
0000
0010
0100
0000
0010
0001
,
0000
0001
0100
0010
1000
0000
0010
1000
,
0001
0000
0100
0000
0001
0000
0010
0100
,
1000
0000
0000
0001
1000
0000
0001
0000
0100
0000
0000
0000
0010
0000
1000
0000
,
0100
0000
0010
0000
0001
0000
1000
0001
,
0100
0000
0000
0010
0100
0000
0001
0000
0010
0000
0000
0000
0100
0000
1000
0000
,
0001
0100
0010
0100
0001
0000
0010
0100
,
1000
0000
0000
0001
0100
0000
0001
0000
1000
0000
0000
0000
0100
0000
0010
0000
,
0001
1000
0010
0100
0001
0000
1001
0000
,
1000
1010
0000
0000
;

//---------------dance-single - ----------------
#NOTES:
     dance-single:
     X-Scale 5:
     Easy:
     4:
     0.261302,0.328365,0.019459,0.000000,0.000000,188.000000,186.000000,2.000000,0.000000,0.000000,0.000000,0.261302,0.328365,0.019459,0.000000,0.000000,188.000000,186.000000,2.000000,0.000000,0.000000,0.000000:
0000
0000
0000
0000
,
0000
0000
0000
0000
,
0000
0000
0000
0000
,
0000
0000
0000
0000
,
0000
0000
0000
0001
,
0000
0000
0000
1000
,
0000
0000
0000
0100
,
0000
0000
0000
1000
,
0000
0000
0000
0001
,
0000
0000
0000
1000
0000
0000
0010
0000
,
0000
0000
0000
0100
,
0000
0000
0000
0001
0000
0000
0010
0000
,
0000
0000
0000
0001
,
0000
0000
0000
1000
0000
0000
0100
0000
,
0000
0000
0000
0010
,
0000
0000
0000
0100
0000
0000
1000
0000
,
0000
0000
0000
0001
,
0010
0001
0100
0001
,
0010
0001
0100
0010
,
1000
0100
0010
0100
,
1000
0100
0010
0001
,
1000
0001
0100
0001
,
1000
0001
0010
0100
,
1000
0010
0100
0001
,
1000
0100
0010
1001
,
0001
0100
0001
1000
,
0100
1000
0010
0100
,
0001
0010
0001
1000
,
0100
1000
0001
0010
,
0100
0010
0001
1000
,
0010
0100
0001
0010
,
0100
1000
0001
1000
,
0000
0000
1001
1000
,
0100
0000
1000
0100
1000
0000
0001
0000
,
0100
0000
0001
0100
0001
0000
0010
0000
,
0100
0000
1000
0100
1000
0000
0001
0000
,
0100
0000
0001
0010
0100
0000
0100
0000
,
1000
0000
0001
0100
0001
0000
1000
0000
,
0010
0000
1000
0010
1000
0000
0100
0000
,
0010
0000
0001
0010
0001
0000
1000
0000
,
0000
1000
0010
0100
0001
0000
0010
0000
,
0100
1000
0010
0100
,
0001
0000
1000
0100
1000
0000
0100
0000
,
0010
0000
0001
0100
0001
0000
0010
0000
,
0000
0001
0100
0010
1000
0000
0001
0000
,
0100
0001
1000
0100
,
0010
0000
0001
0100
0001
0000
1000
0000
,
0010
0000
0100
0001
0100
0000
0010
0000
,
0000
1000
0001
0010
0100
0000
1000
0000
,
0001
1000
0100
0010
,
0100
1000
0001
0100
,
0001
1000
0010
0100
,
0010
1000
0001
0100
,
0001
1000
0100
0010
,
0001
0100
0010
1000
,
0001
0010
0001
1000
,
0000
1000
0000
0000
;

//---------------dance-single - ----------------
#NOTES:
     dance-single:
     X-Scale 2:
     Beginner:
     2:
     0.090344,0.164182,0.029188,0.000000,0.000000,65.000000,62.000000,3.000000,0.000000,0.000000,0.000000,0.090344,0.164182,0.029188,0.000000,0.000000,65.000000,62.000000,3.000000,0.000000,0.000000,0.000000:
0000
0000
0000
0000
,
0000
0000
0000
0000
,
0000
0000
0000
0000
,
0000
0000
0000
0000
,
0000
0000
0000
1000
,
0000
0000
0000
0000
,
0000
0000
0000
0001
,
0000
0000
0000
0000
,
0000
0000
0000
0100
,
0000
0000
0000
0000
,
0000
0000
0000
0001
,
0000
0000
0000
0000
,
0000
0000
0000
1000
,
0000
0000
0000
0000
,
0000
0000
0000
0001
,
0000
0000
0000
0000
,
0000
0000
0000
0100
,
0000
0000
0000
0001
,
0000
0000
0000
1000
,
0000
0000
0000
0001
,
0000
0000
0000
0010
,
0000
0000
0000
0100
,
0000
0000
0000
1000
,
0000
0000
0000
0001
,
0000
0000
0000
1000
,
0000
0000
0000
0100
,
0000
0000
0000
0010
,
0000
0000
0000
0001
,
0000
0000
0000
1000
,
0000
0001
0000
0010
,
0000
0001
0000
1000
,
0000
0001
0000
0010
,
0000
0000
1001
0000
,
1000
0000
0100
0000
,
1000
0000
0001
0000
,
0010
0000
0001
0000
,
0100
0000
0010
0000
,
0100
0000
0001
0000
,
0010
0000
0100
0000
,
0010
0000
0001
0000
,
0000
0000
1000
0000
,
0000
0000
0001
0000
,
0000
0000
1001
0000
,
1000
0000
0010
0000
,
1000
0000
0001
0000
,
0010
0000
0001
0000
,
1000
0000
0001
0000
,
0100
0000
0001
0000
,
0000
0000
1001
0000
,
0000
0000
1000
0000
,
0000
0000
0001
0000
,
0000
0000
0100
0000
,
0000
0000
0010
0000
,
0000
0000
1000
0000
,
0000
0000
0001
0000
,
0000
0000
0000
0010
,
0000
0010
0000
0000
;
