#VERSION:0.83;
#TITLE:God;
#SUBTITLE:;
#ARTIST:bladee & Mechatok;
#TITLETRANSLIT:;
#SUBTITLETRANSLIT:;
#ARTISTTRANSLIT:;
#GENRE:Drain House;
#ORIGIN:;
#CREDIT:;
#BANNER:God-bn.png;
#BACKGROUND:God-bg.png;
#PREVIEWVID:;
#JACKET:God-jacket.png;
#CDIMAGE:;
#DISCIMAGE:;
#LYRICSPATH:;
#CDTITLE:cdtitle.png;
#MUSIC:God.ogg;
#OFFSET:0.329000;
#SAMPLESTART:42.560001;
#SAMPLELENGTH:14.889000;
#SELECTABLE:YES;
#BPMS:0.000=67.500,
48.000=135.000,
112.000=67.500,
144.000=135.000;
#STOPS:47.000=0.889;
#DELAYS:;
#WARPS:;
#TIMESIGNATURES:0.000=4=4;
#TICKCOUNTS:0.000=4;
#COMBOS:0.000=1;
#SPEEDS:0.000=1.000=0.000=0;
#SCROLLS:0.000=1.000;
#FAKES:;
#LABELS:0.000=Song Start;
#BGCHANGES:0.500=God.avi=1.000=1=0=0=StretchNoLoop==CrossFade==,
99999=-nosongbg-=1.000=0=0=0 // don't automatically add -songbackground-
;
#KEYSOUNDS:;
#ATTACKS:
;

//---------------dance-single - ----------------
#NOTEDATA:;
#CHARTNAME:X-Scale 11;
#STEPSTYPE:dance-single;
#DESCRIPTION:;
#CHARTSTYLE:;
#DIFFICULTY:Hard;
#METER:8;
#RADARVALUES:0.431521,0.520578,0.062210,0.393997,0.269577,437.000000,428.000000,9.000000,57.000000,0.000000,0.000000,0.000000,0.000000,0.000000,0.431521,0.520578,0.062210,0.393997,0.269577,437.000000,428.000000,9.000000,57.000000,0.000000,0.000000,0.000000,0.000000,0.000000;
#CREDIT:iamthek3n;
#NOTES:
// measure 0
0000
0000
0000
0000
,  // measure 1
0000
0000
0000
0000
,  // measure 2
0000
0000
0000
0000
,  // measure 3
0000
0000
0000
0000
,  // measure 4
0000
0000
0000
0000
0000
0000
0000
0000
1001
0000
0000
0000
0000
0000
0000
0000
0000
0000
0000
0000
0000
0000
0000
0000
0001
0000
0000
0000
0000
0000
0010
0001
,  // measure 5
0010
1000
0010
0100
2000
0000
3100
0010
0002
0000
0000
0000
1003
0000
0000
0010
,  // measure 6
0100
0000
0010
0000
0001
0000
0010
0000
0200
0000
0000
0000
0301
0000
1000
0000
0020
0000
0000
0000
0000
0000
0000
0000
1030
0000
0000
0000
0000
0000
0100
0010
,  // measure 7
0100
0000
1000
0000
0001
0000
0100
0000
0020
0000
0000
0000
0031
0000
0010
0000
0200
0000
0000
0000
0000
0000
0000
0000
0301
0000
0000
0001
0000
0000
1000
0000
,  // measure 8
0000
1000
0000
0000
0000
0000
0000
0000
2000
0000
0000
0000
0000
0000
3000
0000
0002
0000
0000
0000
0000
0000
0003
0000
0020
0000
0000
0000
0000
0000
0030
0000
,  // measure 9
0200
0000
0320
0000
0032
0000
0000
0003
2000
0000
0000
3000
0020
0000
0000
0030
,  // measure 10
0200
0302
0023
0030
0200
2300
0001
3000
,  // measure 11
2000
3200
0320
0030
2000
3020
0032
0003
,  // measure 12
1001
1000
0010
0000
0100
0001
1000
0100
,  // measure 13
0000
0000
0100
0000
0001
0000
1000
0001
0000
0000
0100
0000
0010
0000
0100
0000
,  // measure 14
0010
1000
0001
0000
0010
0100
1000
0010
,  // measure 15
0000
0000
0010
0000
0001
0000
1000
0010
0000
0000
0100
0000
0001
0000
0100
0000
,  // measure 16
0001
0010
0001
0000
1000
0001
1000
0010
,  // measure 17
0000
0000
0010
0000
0001
0000
0010
0100
0000
0000
1000
0000
0010
0000
1000
0000
,  // measure 18
0010
0100
0001
0000
1000
0100
0001
0100
,  // measure 19
1000
0000
0000
1000
0010
0000
1000
0000
0001
0000
0100
0000
0001
0000
0010
0000
,  // measure 20
0110
0100
1000
0001
0100
0010
1000
0100
,  // measure 21
0010
0000
0100
0000
1000
0000
0001
1000
0001
0000
0100
0000
0010
0000
0100
0000
,  // measure 22
0001
0010
1000
0010
0100
1000
0001
0100
,  // measure 23
0010
0000
0100
0000
0001
0000
0010
0100
0000
0000
1000
0000
0001
0000
0001
0000
,  // measure 24
0001
0100
0010
0100
1000
0100
0001
0100
,  // measure 25
0010
0000
1000
0000
0100
0000
1000
0001
1000
0000
0010
0000
0100
0000
0010
0000
,  // measure 26
1000
0001
0010
0100
0010
0001
1000
0100
,  // measure 27
0020
0000
0000
0030
0020
0000
0000
0030
,  // measure 28
0101
0000
0000
0000
0000
0000
0000
0000
0000
0000
0000
0000
1000
0000
0100
0000
0000
0000
0100
0000
0001
0000
0000
0001
0000
0000
0001
0000
0010
0000
0100
0000
,  // measure 29
1000
0000
0010
0000
1000
0000
0000
0000
0001
0000
0000
0000
1000
0000
0100
0000
0000
0000
0100
0000
0001
0000
0000
0001
0000
0000
0100
0000
0010
0000
0001
0000
,  // measure 30
0010
0000
0100
0000
0001
0000
0000
0000
0001
0000
0000
0000
1000
0000
0010
0000
0000
0000
0010
0000
0001
0000
0000
0001
0000
0000
1000
0000
0100
0000
1000
0000
,  // measure 31
0001
0000
0010
0000
0100
0000
0000
0000
1000
0000
0000
0000
0001
0000
0100
0000
0000
0000
0100
0000
1000
0000
0000
1000
0000
0000
0100
0000
1000
0000
0001
0000
,  // measure 32
0100
0000
0010
0100
0002
0000
1003
0100
0020
0000
0031
0002
2000
0003
3100
0200
,  // measure 33
0000
0000
0300
0000
0010
0000
0100
0000
2000
0000
0000
0000
3002
0000
0000
0000
0103
0001
0000
0000
1000
0000
0100
0000
0020
0000
0000
0000
1030
0000
0010
0000
,  // measure 34
0002
0000
0103
0001
2000
0000
3010
1000
0002
0000
0103
0200
0020
0300
1030
2000
,  // measure 35
0000
0000
3000
0000
0100
0000
1000
0000
0002
0000
0000
0000
0103
0000
0000
0000
0001
0010
0000
0000
0100
0000
0010
0000
0002
0000
0000
0000
0003
0000
0000
0000
,  // measure 36
2001
0100
3020
0001
,  // measure 37
0230
0000
1000
0000
0301
0010
0100
0010
,  // measure 38
0200
0001
2300
0100
,  // measure 39
3020
0000
0001
0000
1030
0100
0010
0100
,  // measure 40
0020
0000
1000
0000
0031
0000
1000
0010
,  // measure 41
0001
0000
0010
0000
1000
0000
0010
1000
0000
0000
0100
0000
0010
0000
0100
0000
,  // measure 42
0010
0001
1000
0010
0010
0010
0010
0010
,  // measure 43
1000
0000
0000
1000
0100
0000
1000
0000
0001
0000
0100
0000
0001
0000
0001
0000
,  // measure 44
0011
0010
0100
0000
1100
0000
1000
0010
,  // measure 45
0001
0000
0010
0000
1000
0000
0100
0010
0001
0000
1000
0000
0001
0000
0100
0000
,  // measure 46
0010
0100
0001
0000
0101
0000
0100
0010
,  // measure 47
1000
0000
0001
0000
0010
0000
0000
0100
0010
0000
0001
0000
1000
0000
1000
0000
,  // measure 48
1000
0001
0100
0000
1001
0000
1000
0100
,  // measure 49
0001
0000
0100
0000
1000
0000
0010
1000
0001
0000
0100
0000
1000
0000
0100
0000
,  // measure 50
0001
1000
0010
0100
0100
0100
0100
0100
,  // measure 51
0001
0000
0000
0010
0001
0000
1000
0000
0010
0000
1000
0010
0000
0010
0000
0000
,  // measure 52
0100
0001
0010
0000
0001
1000
0100
1000
,  // measure 53
0020
0000
0100
0000
0100
0000
0130
0010
0000
0000
0100
0000
0001
0000
1000
0000
,  // measure 54
0001
0010
0100
0000
1000
0000
0001
1000
,  // measure 55
0010
0000
0000
0100
0010
0000
1000
0000
0001
0000
0010
0100
0000
0100
0000
0000
,  // measure 56
1000
0000
0100
0000
0010
0100
0000
0000
2000
0000
0000
0000
3100
0010
0000
0000
,  // measure 57
0002
0000
0013
0200
0000
1000
0300
1000
,  // measure 58
0100
0010
0001
0000
1000
0000
0001
0100
,  // measure 59
0001
0000
0000
1000
0010
0000
1000
0000
0001
0000
0100
0000
0002
0000
0003
0002
,  // measure 60
0000
0003
0002
0000
0003
0000
0000
0000
0000
0000
0000
0000
0000
0000
0000
0000
;

//---------------dance-single - ----------------
#NOTEDATA:;
#CHARTNAME:X-Scale 9;
#STEPSTYPE:dance-single;
#DESCRIPTION:;
#CHARTSTYLE:;
#DIFFICULTY:Medium;
#METER:6;
#RADARVALUES:0.313026,0.437285,0.027649,0.207367,0.100227,317.000000,313.000000,4.000000,30.000000,0.000000,0.000000,0.000000,0.000000,0.000000,0.313026,0.437285,0.027649,0.207367,0.100227,317.000000,313.000000,4.000000,30.000000,0.000000,0.000000,0.000000,0.000000,0.000000;
#CREDIT:iamthek3n;
#NOTES:
0000
0000
0000
0000
,
0000
0000
0000
0000
,
0000
0000
0000
0000
,
0000
0000
0000
0000
,
0000
0000
0000
0000
1100
0000
0000
0000
0000
0000
0000
0000
1000
0000
0000
0001
,
0000
0000
0000
0000
1000
0000
0000
0000
0000
0000
0000
0000
0100
0000
0000
0010
,
0000
0000
0000
0000
0001
0000
0000
0000
0000
0000
0000
0000
0010
0000
0000
0100
,
0000
0000
0000
0000
1000
0000
0000
0000
0000
0000
0000
0000
0010
0000
0000
1000
,
0000
0001
0010
1000
,
0100
0001
1000
0000
0010
0000
0001
0000
,
0100
1000
0001
0000
0010
0002
0000
0003
,
1000
0100
0010
0000
0001
0010
0100
0000
,
1001
0000
1000
0000
0001
0100
1000
0100
,
0002
0000
0010
0000
1003
0100
0010
0100
,
0010
0000
0001
0000
1000
0010
0001
0010
,
2000
0000
0100
0000
3001
0010
0100
0010
,
0100
0000
1000
0000
0001
0100
1000
0100
,
0002
0000
0010
0000
1003
0100
0010
0100
,
0010
0000
0001
0000
1000
0010
0001
0010
,
2000
0000
3002
0000
,
0103
0000
0001
0000
0010
0100
1000
0100
,
0010
0000
0000
0000
0001
0000
0000
0001
0000
0000
1000
0000
0010
0000
1000
0000
,
0001
0000
0100
0000
0010
0100
1000
0100
,
0010
0000
0000
0000
1000
0000
0000
1000
0000
0000
0010
0000
1000
0000
0001
0000
,
0010
0000
0001
0000
1000
0100
0001
0100
,
1000
0000
0000
0000
0010
0000
0000
0010
0000
0000
0100
0000
0001
0000
0010
0000
,
0100
0000
1000
0000
0001
0100
1000
0100
,
0002
0000
2003
0000
,
3010
0000
0000
0000
0000
0000
1000
0100
1000
0000
0000
0000
0001
0000
0000
0000
,
1000
0000
0100
0010
0001
0000
0100
0001
1000
0010
0001
0010
1000
0000
0000
0000
,
0100
0000
1000
0100
0010
0000
0010
0100
1000
0000
0000
0000
0001
0000
0000
0000
,
1000
0000
0001
0100
0010
0000
0000
0000
0100
0001
0010
0001
1000
0000
0100
0000
,
0010
0000
0001
0000
1000
0000
0001
0000
0100
0000
0010
0100
0010
0000
0100
0010
,
0100
0000
0001
0000
1000
0000
0100
0000
0001
0000
0100
0000
1000
0100
1000
0000
,
0001
0100
0001
0000
0010
0000
1000
0000
0010
0000
0100
1000
0100
0000
0100
0010
,
0100
1000
0001
0100
0001
1000
0100
0000
,
2001
0100
3020
0001
,
2030
0100
3002
0023
,
0230
0001
2300
0100
,
3002
0010
1003
0100
,
0020
0031
0010
0200
,
0001
1300
0010
1000
,
0002
0000
0013
0001
1000
0001
0010
0001
,
2000
3000
2000
3000
1000
0100
0010
0000
,
0101
0000
0001
0000
1000
0000
0001
0010
,
0000
0000
0001
0000
1000
0000
0000
1000
0000
0000
0010
0000
1000
0000
0001
0000
,
0100
0010
1000
0000
0100
0000
0010
0001
,
0000
0000
1000
0000
0001
0000
0000
0001
0000
0000
0010
0000
0001
0000
1000
0000
,
0010
1000
0001
0000
0100
0000
0010
1000
,
0000
0000
0001
0000
0100
0000
0000
0100
0000
0000
0001
0000
0010
0000
0100
0000
,
1000
0010
1000
0000
0001
0000
0010
0001
,
2000
3000
2000
3000
1000
0010
0100
0000
,
0010
0100
0001
0000
0000
0000
0000
1000
,
0000
0000
0010
0000
1000
0000
0000
1000
0000
0000
0100
0000
1000
0000
0001
0000
,
0010
0000
0001
0000
0000
0000
0000
0100
,
0002
0003
0002
0003
0001
0010
0100
0000
,
1000
0010
1000
0000
0000
0000
0100
0010
,
0000
0000
0010
0000
0001
0000
0000
0001
0000
0000
0100
0000
0001
0000
1000
0000
,
0010
0000
1000
0000
0001
0000
0010
0001
,
2000
0000
3000
0000
2000
0000
3000
0000
1000
0000
0100
0000
0020
0000
0030
0020
,
0000
0030
0020
0000
0030
0000
0000
0000
0000
0000
0000
0000
0000
0000
0000
0000
;

//---------------dance-single - ----------------
#NOTEDATA:;
#CHARTNAME:X-Scale 5;
#STEPSTYPE:dance-single;
#DESCRIPTION:;
#CHARTSTYLE:;
#DIFFICULTY:Easy;
#METER:3;
#RADARVALUES:0.201442,0.248322,0.027649,0.089859,0.000000,204.000000,200.000000,4.000000,13.000000,0.000000,0.000000,0.000000,0.000000,0.000000,0.201442,0.248322,0.027649,0.089859,0.000000,204.000000,200.000000,4.000000,13.000000,0.000000,0.000000,0.000000,0.000000,0.000000;
#CREDIT:iamthek3n;
#NOTES:
0000
0000
0000
0000
,
0000
0000
0000
0000
,
0000
0000
0000
0000
,
0000
0000
0000
0000
,
0000
0110
0000
0000
,
0000
0010
0000
0000
,
0000
1000
0000
0000
,
0000
0001
0000
0000
,
0000
1000
0100
1000
,
0000
0001
0100
0001
,
0000
0000
0010
0000
0100
2000
0000
3000
,
0001
1000
0020
0000
0130
0010
2000
0000
,
3100
1000
0010
0001
,
0100
0000
1000
0000
0100
1000
0001
1000
,
0100
0010
0001
0100
,
1000
0000
0010
0000
0001
0100
0010
0100
,
0001
1000
0010
0001
,
0100
0000
1000
0000
0001
0010
0100
0010
,
0001
1000
0010
0100
,
0001
0000
1000
0000
,
1001
0000
0001
0000
0100
0000
0001
0010
,
0000
0010
0100
0000
1000
0100
0000
1000
,
0000
0100
0010
0000
0001
0000
1000
0100
,
0000
0100
0010
0000
0100
0000
1000
0010
,
1000
0000
0001
0000
0010
0000
0001
1000
,
0000
1000
0010
0000
0100
0001
0000
0100
,
0000
0001
0010
0000
0100
0000
1000
0000
,
0001
0000
1000
0000
,
1001
0000
1000
0100
,
1000
0000
0001
0100
,
0001
0000
0100
0010
,
0100
0000
0001
0010
,
0001
0000
0100
0000
,
0001
0000
0010
0000
,
0100
0000
1000
0000
,
0010
0000
0100
0000
,
0021
0000
0000
0030
0002
0000
0000
0003
,
2000
0000
0000
3000
0010
0000
1000
0000
,
0200
0000
0000
0300
2000
0000
0000
3000
,
0002
0000
0000
0003
0010
0000
0100
0000
,
2000
0000
0000
3000
0010
0000
0200
0000
,
0000
0300
0001
0010
,
0200
0300
1000
0100
,
0020
0000
0030
0000
0001
1000
0010
1000
,
0001
0000
0010
0000
0001
0000
1000
0100
,
0000
0100
0010
0000
0100
1000
0000
0001
,
0000
1000
0010
0000
1000
0000
0001
0010
,
0000
0010
0100
0000
0010
0000
0001
0010
,
0001
0000
1000
0000
0001
0000
0010
0100
,
0000
0100
1000
0000
0001
0100
0000
0001
,
0000
0100
0010
0000
1000
0000
0000
0001
,
0000
0100
0000
0001
0000
0000
0000
0000
,
1000
0100
0010
0000
0000
0000
0000
0001
,
0000
0010
0001
0000
0000
1000
0000
0100
,
0000
1000
0010
0000
0000
0000
0000
0100
,
0000
0001
0000
1000
0000
0001
0000
0000
,
0010
0100
1000
0000
0000
0000
0000
0001
,
0000
0010
0001
0000
0000
1000
0000
0010
,
0000
1000
0001
0000
0000
0000
0000
0010
,
0000
0100
0000
0100
0000
0100
1000
0001
;

//---------------dance-single - ----------------
#NOTEDATA:;
#CHARTNAME:X-Scale 1;
#STEPSTYPE:dance-single;
#DESCRIPTION:;
#CHARTSTYLE:;
#DIFFICULTY:Beginner;
#METER:1;
#RADARVALUES:0.090847,0.142738,0.027649,0.000000,0.000000,92.000000,88.000000,4.000000,0.000000,0.000000,0.000000,0.000000,0.000000,0.000000,0.090847,0.142738,0.027649,0.000000,0.000000,92.000000,88.000000,4.000000,0.000000,0.000000,0.000000,0.000000,0.000000,0.000000;
#CREDIT:iamthek3n;
#NOTES:
0000
0000
0000
0000
,
0000
0000
0000
0000
,
0000
0000
0000
0000
,
0000
0000
0000
0000
,
0000
1001
0000
0000
,
0000
0001
0000
0000
,
0000
0100
0000
0000
,
0000
0010
0000
0000
,
0000
1000
0000
0000
,
0000
0100
0000
0000
,
0000
0010
0000
0000
,
0000
0001
0000
0000
,
0001
0000
1000
0000
,
0001
0000
0100
0000
,
0001
0000
1000
0000
,
0100
0000
0010
0000
,
0001
0000
0100
0000
,
0001
0000
1000
0000
,
0010
0000
1000
0000
,
0001
0000
0000
0000
,
1001
0000
1000
0000
,
0100
0000
0010
0000
,
0001
0000
0100
0000
,
0001
0000
0010
0000
,
0100
0000
1000
0000
,
0001
0000
0100
0000
,
0001
0000
1000
0000
,
0001
0000
0000
0000
,
1001
0000
0000
0000
,
0100
0000
0000
0000
,
0010
0000
0000
0000
,
0001
0000
0000
0000
,
0100
0000
0000
0000
,
0010
0000
0000
0000
,
1000
0000
0000
0000
,
0001
0000
0000
0000
,
1000
0000
0100
0000
,
1000
0000
0001
1000
,
0001
0000
0010
0000
,
0100
0000
1000
0100
,
1000
0000
0100
0000
,
0010
0000
0001
0010
,
0001
0000
1000
0010
,
1000
0000
0000
0000
,
1001
0000
1000
0000
,
0010
0000
1000
0000
,
0001
0000
0100
0000
,
0001
0000
0010
0000
,
0100
0000
0010
0000
,
0001
0000
1000
0000
,
0010
0000
1000
0000
,
0001
0000
0000
0000
,
0010
0000
0000
0000
,
0100
0000
0000
0000
,
1000
0000
0000
0000
,
0001
0000
0000
0000
,
1000
0000
0000
0000
,
0010
0000
0000
0000
,
1000
0000
0000
0000
,
0001
0000
0000
0000
;

//---------------dance-single - DANCERUSH Special----------------
#NOTEDATA:;
#CHARTNAME:X-Scale 14;
#STEPSTYPE:dance-single;
#DESCRIPTION:DANCERUSH Special;
#CHARTSTYLE:;
#DIFFICULTY:Challenge;
#METER:9;
#RADARVALUES:0.415722,0.696235,0.006912,0.145157,0.390541,421.000000,420.000000,1.000000,21.000000,187.000000,0.000000,0.000000,0.000000,0.000000,0.415722,0.696235,0.006912,0.145157,0.390541,421.000000,420.000000,1.000000,21.000000,187.000000,0.000000,0.000000,0.000000,0.000000;
#CREDIT:iamthek3n;
#NOTES:
0000
0000
0000
0000
,
0000
0000
0000
0000
,
0000
0000
0000
0000
,
0000
0000
0000
0000
,
0000
0000
0000
0000
0000
0000
0000
0000
1000
0000
0100
0000
1000
0000
0100
0000
0010
0000
0001
0000
0010
0000
0001
0000
0100
0000
0010
0000
0100
0000
0010
1000
,
0001
0010
1000
0010
0100
1000
0100
1000
0001
0100
0001
0100
0010
1000
0010
1000
,
0100
0000
0001
0000
0100
0000
0010
0000
0001
0000
0100
0000
0001
0000
0100
0000
0010
0000
1000
0000
0010
0000
1000
0000
0100
0000
0010
0000
0100
0000
0010
0001
,
1000
0010
0001
0010
1000
0001
1000
0001
0010
0100
0010
0100
1000
0010
1000
0010
,
0100
0000
0001
0000
0100
0000
0001
0000
0010
0000
0100
0000
0000
0100
0000
0000
1000
0000
0010
0000
0000
0010
0000
0000
0100
0000
0001
0000
0000
0001
0000
0000
,
0010
0000
0000
0000
0100
0000
0000
0000
1000
0000
0001
0000
0000
0001
0000
0000
0100
0000
0010
0000
0000
0010
0000
0000
1000
0000
0100
0000
0000
0100
0000
0000
,
0010
0000
0000
0000
0100
0000
0000
0000
1000
0000
0001
0000
0000
0001
0000
0000
0010
0000
0100
0000
0000
0100
0000
0000
0010
0000
0001
0000
0000
0001
0000
0000
,
0010
0000
0000
0000
0100
0000
0000
0000
1000
0000
0100
0000
0000
0100
0000
0000
0010
0000
0000
0000
0100
0000
0000
0000
1000
0000
0000
0000
0000
0000
0000
0000
,
1000
MMMM
1000
MMMM
1000
0010
0001
0010
,
0100
0000
0010
0000
1000
0000
0000
1000
0010
0000
1000
0000
0100
0000
1000
0000
,
0001
MMMM
0001
MMMM
0001
0100
1000
0100
,
0010
0000
0100
0000
0001
0000
0000
0001
0100
0000
0010
0000
1000
0000
0001
0000
,
1000
MMMM
1000
MMMM
1000
0100
0001
0100
,
0010
0000
0001
0000
1000
0000
0000
1000
0010
0000
0100
0000
0001
0000
1000
0000
,
0001
MMMM
0001
MMMM
0001
0010
1000
0010
,
0002
0100
2003
0010
,
3001
MMMM
0001
MMMM
0001
MMMM
0001
MMMM
,
0001
0000
0010
0000
0100
0000
0000
0100
1000
0000
0001
0000
0100
0000
0001
0000
,
1000
MMMM
1000
MMMM
1000
MMMM
1000
MMMM
,
1000
0000
0010
0000
0100
0000
0000
0100
0001
0000
1000
0000
0001
0000
0001
0000
,
0001
MMMM
0001
MMMM
0001
MMMM
0001
MMMM
,
0001
0000
1000
0000
0100
0000
0000
0100
0010
0000
0001
0000
0100
0000
0010
0000
,
1000
MMMM
1000
MMMM
1000
MMMM
1000
MMMM
,
2000
0100
3002
0010
,
0203
0000
0000
0000
0000
0000
0000
0000
0000
0000
0000
0000
0000
0000
0001
0000
0300
0000
0001
0000
1000
0000
0000
0100
1000
0000
0010
0000
0100
0000
0001
0000
,
0000
0000
0001
0000
1000
0000
0000
0000
0100
0000
0000
0000
1000
0000
0100
0000
0000
0000
1000
0000
0001
0000
0000
0010
0100
0000
0010
0000
0001
0000
1000
0000
,
0000
0000
0010
0000
1000
0000
0000
0000
0100
0000
0000
0000
0010
0000
0001
0000
0000
0000
0001
0000
1000
0000
0000
0100
1000
0000
0001
0000
0010
0000
0001
0000
,
0000
0000
0100
0000
0010
0000
0000
0000
1000
0000
0000
0000
0001
0000
0010
0000
0000
0000
0010
0000
0100
0000
0000
1000
0100
0000
1000
0000
0001
0000
0100
0000
,
0010
0000
1000
0000
0100
0000
0000
0000
1000
0000
0000
0000
0001
0000
0100
0000
0000
0000
0100
0000
0010
0000
0000
0100
0001
0000
1000
0000
0001
0000
0100
0000
,
0010
0000
1000
0000
0100
0000
0000
0000
1000
0000
0000
0000
0001
0000
0100
0000
0000
0000
0001
0000
1000
0000
0000
0100
1000
0000
0100
0000
0001
0000
0100
0000
,
0010
0000
0001
0000
0100
0000
0000
0000
0001
0000
0000
0000
0010
0000
0100
0000
0000
0000
0100
0000
1000
0000
0000
0010
1000
0000
0001
0000
0010
0000
0001
0000
,
0100
0000
0010
0000
1000
0000
0000
0000
0100
0000
0000
0000
0010
0000
0001
0000
0000
0000
0001
0000
1000
0000
0000
0100
2000
0000
0000
0000
3000
0000
0000
0000
,
1001
MMMM
1000
MMMM
1000
0000
0100
0010
,
0M00
0000
0010
0000
1000
0000
0000
1000
0001
0000
1000
0000
0010
0000
0100
0000
,
0001
MMMM
0001
MMMM
0001
0000
1000
0100
,
00M0
0000
0100
0000
0001
0000
0000
0001
0010
0000
0100
0000
1000
0000
0001
0000
,
1000
MMMM
1000
MMMM
1000
0000
0001
0100
,
00M0
0000
0100
0000
1000
0000
0000
1000
0010
0000
0100
0000
0001
0000
0010
0000
,
0001
MMMM
0001
MMMM
0001
0010
0100
1000
,
0020
0001
0230
1000
,
0301
MMMM
0001
MMMM
0001
MMMM
0001
MMMM
,
0001
0000
1000
0000
0010
0000
0000
0010
1000
0000
0001
0000
0010
0000
0001
0000
,
1000
MMMM
1000
MMMM
1000
MMMM
1000
MMMM
,
1000
0000
0010
0000
1000
0000
0000
1000
0001
0000
0010
0000
1000
0000
0010
0000
,
0001
MMMM
0001
MMMM
0001
MMMM
0001
MMMM
,
0001
0000
1000
0000
0010
0000
0000
0010
0100
0000
0001
0000
0010
0000
0100
0000
,
1000
MMMM
1000
MMMM
1000
0010
0001
0010
,
2000
0100
3002
0010
,
0103
0001
1000
0000
0000
0000
0010
1000
,
0020
0000
2030
0000
3100
0010
0001
1000
,
0020
0000
0230
0000
0000
0310
0100
0001
,
0020
0000
0000
0230
0000
0000
0000
0000
,
1300
0000
0000
0000
0001
0100
0000
0000
0002
0000
0000
0000
1003
0010
0000
0000
,
2000
0000
3100
0010
0002
0000
0103
0001
,
1000
0020
0000
0230
,
0000
0300
0000
0000
;
