#VERSION:0.83;
#TITLE:Glow feat. Nikon;
#SUBTITLE:;
#ARTIST:Paris & Simo;
#TITLETRANSLIT:;
#SUBTITLETRANSLIT:;
#ARTISTTRANSLIT:;
#GENRE:Tropical House;
#ORIGIN:;
#CREDIT:;
#BANNER:Glow feat. Nikon-bn.png;
#BACKGROUND:Glow feat. Nikon-bg.png;
#PREVIEWVID:;
#JACKET:Glow feat. Nikon-jacket.png;
#CDIMAGE:;
#DISCIMAGE:;
#LYRICSPATH:;
#CDTITLE:cdtitle.png;
#MUSIC:Glow feat. Nikon.ogg;
#OFFSET:-0.006000;
#SAMPLESTART:51.435001;
#SAMPLELENGTH:17.150000;
#SELECTABLE:YES;
#BPMS:0.000=112.000;
#STOPS:;
#DELAYS:;
#WARPS:;
#TIMESIGNATURES:0.000=4=4;
#TICKCOUNTS:0.000=4;
#COMBOS:0.000=1;
#SPEEDS:0.000=1.000=0.000=0;
#SCROLLS:0.000=1.000;
#FAKES:;
#LABELS:0.000=Song Start;
#BGCHANGES:;
#KEYSOUNDS:;
#ATTACKS:
;

//---------------dance-single - ----------------
#NOTEDATA:;
#CHARTNAME:X-Scale 11;
#STEPSTYPE:dance-single;
#DESCRIPTION:;
#CHARTSTYLE:;
#DIFFICULTY:Hard;
#METER:8;
#RADARVALUES:0.461176,0.478700,0.038091,0.590414,0.390435,339.000000,335.000000,4.000000,62.000000,0.000000,0.000000,0.000000,0.000000,0.000000,0.461176,0.478700,0.038091,0.590414,0.390435,339.000000,335.000000,4.000000,62.000000,0.000000,0.000000,0.000000,0.000000,0.000000;
#CREDIT:;
#NOTES:
// measure 0
0000
0000
0000
0000
,  // measure 1
0000
0000
0000
0000
,  // measure 2
0000
0000
0000
0000
,  // measure 3
0000
0000
0000
0000
,  // measure 4
1000
0000
0000
0010
0000
0000
0001
0000
0000
0010
0000
0000
1000
0000
0000
0000
,  // measure 5
0001
0100
0010
1000
0020
0000
2030
0000
,  // measure 6
3001
0000
0000
1000
0000
0000
0001
0000
0000
0100
0000
0000
0010
0000
0000
0001
,  // measure 7
0000
0000
0010
0000
0000
1000
0000
0000
0001
0000
0000
1000
0001
1000
0001
0000
,  // measure 8
1001
0000
0000
0001
0100
0000
0001
0000
0100
0000
1000
0000
0100
0000
0010
0000
,  // measure 9
0200
0000
0301
0100
0010
1000
0100
0010
,  // measure 10
0001
0000
1000
0100
0000
1000
0000
0001
1000
0000
0000
0100
1000
0000
0100
0000
,  // measure 11
1000
0010
0100
0100
0001
1000
0100
0010
,  // measure 12
0001
0000
0100
0001
0000
0000
0100
0001
0100
0000
0001
0000
0010
0000
0001
0000
,  // measure 13
0010
0000
0100
0010
0000
0000
0010
0000
0001
0000
1000
0000
0100
0000
1000
0000
,  // measure 14
0010
0000
0100
0010
0100
0000
0010
0000
0002
0000
0003
0000
0001
0000
0010
0000
,  // measure 15
0100
0000
0100
0000
0010
0000
0010
0000
1000
0000
1000
0100
1000
0100
1000
0000
,  // measure 16
1000
0000
0000
1000
0001
0000
0100
0000
0000
0001
0000
0001
0100
0000
0100
0000
,  // measure 17
0010
0001
0010
1000
0002
0000
2003
0000
,  // measure 18
3020
0000
0000
1000
0000
0000
0001
0000
0000
1000
0000
0000
1030
0000
0010
0000
,  // measure 19
1000
0100
1000
0001
0020
0000
0032
0000
,  // measure 20
0023
0000
0000
0100
0030
0000
0010
0000
0001
0000
0010
0000
0100
0000
0010
0000
,  // measure 21
0002
0000
1000
0000
0000
0010
0000
0000
1003
0000
0001
0000
1000
0000
0001
0000
,  // measure 22
0020
0000
0230
0000
2300
0000
3002
0000
0023
0000
0000
0030
0200
0000
2300
0000
,  // measure 23
3002
0023
0230
0000
0000
0000
0310
0100
,  // measure 24
0110
0000
0000
0010
0001
0000
0010
0000
0001
1000
0000
1000
0100
0000
1000
0000
,  // measure 25
0002
0000
0000
0103
0002
0000
0000
0103
0002
0000
0000
0103
0001
0000
0010
0000
,  // measure 26
0001
0000
0000
0100
0010
0000
1000
0000
0010
0100
0000
0100
0010
0000
1000
0001
,  // measure 27
2000
0000
0000
3001
2000
0000
0000
3001
2000
0000
0000
3001
1000
0000
1000
0000
,  // measure 28
0010
0000
0001
0000
0010
0000
0100
0000
0010
0000
0000
0100
0010
0000
0100
0000
,  // measure 29
0002
0000
0000
1003
0002
0000
0000
1003
0002
0000
0000
1003
0001
0000
0100
0000
,  // measure 30
0010
0000
1000
0001
1000
0000
0001
0000
1000
0100
0000
1000
0100
0000
1000
0000
,  // measure 31
0020
0030
0020
0030
0010
0000
0100
0000
0001
0000
1000
0001
0000
0000
0010
0000
,  // measure 32
0011
0000
0001
0100
0001
0000
0100
0000
0010
0100
0000
0100
0001
0000
0001
1000
,  // measure 33
0002
0000
0000
1003
0002
0000
0000
1003
0002
0000
0000
1003
0001
0000
0010
0000
,  // measure 34
0100
0000
1000
0010
1000
0000
0100
0000
0010
0000
0001
0010
0001
0000
0100
0000
,  // measure 35
0020
0000
0000
1030
0020
0000
0000
1030
0020
0000
0000
1030
0010
0000
0100
0000
,  // measure 36
0001
0000
0010
0001
0010
0000
0001
0000
1000
0100
0000
0100
0010
0000
0100
0000
,  // measure 37
0020
0000
0000
0031
0020
0000
0000
0031
0020
0000
0230
0000
0320
0000
0230
0000
,  // measure 38
2300
0000
3200
0000
0320
0000
0230
0000
2300
0000
0000
3100
2000
0000
3020
0000
,  // measure 39
0230
0000
0302
0000
0023
0000
0000
0030
0010
0000
0000
0001
0100
0000
0001
0000
,  // measure 40
0101
0000
0000
0010
0001
0000
1000
0000
0000
0001
0000
0000
1000
0000
0000
0010
,  // measure 41
2000
0000
0000
3001
2000
0000
0000
3100
2000
0000
0000
3001
0000
0000
0001
0000
,  // measure 42
1000
0000
0100
0000
1000
0000
0010
0000
0000
0100
0000
0000
0001
0000
0000
1000
,  // measure 43
0002
0000
0103
1000
0200
0000
0301
0100
,  // measure 44
0001
0000
0010
0000
0100
0000
0010
0000
0010
0000
0000
0000
0001
0000
0000
1000
,  // measure 45
0200
0000
0000
0310
0200
0000
0000
1300
0200
0000
0000
0310
0000
0000
0001
0000
,  // measure 46
0100
0000
0001
0000
0010
0000
0100
0000
0000
1000
0000
0000
0001
0000
0000
0100
,  // measure 47
0000
0000
0010
0000
0000
0100
0000
0000
0001
0000
0000
1000
0000
0000
0001
0000
;

//---------------dance-single - ----------------
#NOTEDATA:;
#CHARTNAME:X-Scale 9;
#STEPSTYPE:dance-single;
#DESCRIPTION:;
#CHARTSTYLE:;
#DIFFICULTY:Medium;
#METER:6;
#RADARVALUES:0.367308,0.387519,0.038091,0.380912,0.199979,270.000000,266.000000,4.000000,40.000000,0.000000,0.000000,0.000000,0.000000,0.000000,0.367308,0.387519,0.038091,0.380912,0.199979,270.000000,266.000000,4.000000,40.000000,0.000000,0.000000,0.000000,0.000000,0.000000;
#CREDIT:;
#NOTES:
0000
0000
0000
0000
,
0000
0000
0000
0000
,
0000
0000
0000
0000
,
0000
0000
0000
0000
,
0002
0000
0000
1000
0003
0000
2000
0000
0000
0001
3000
0000
0002
0000
0000
0000
,
0013
0001
1000
0001
0200
0000
0320
0000
,
2030
0000
0000
0001
3000
0000
0002
0000
0000
1000
0003
0000
2000
0000
0000
0000
,
3200
0000
0001
0000
0000
0010
0000
0000
1000
0000
0000
0000
0000
0000
1300
0000
,
1100
0000
0000
0100
0000
0000
1000
0000
0010
0000
0100
0000
0001
0000
1000
0000
,
0002
0000
0013
0100
1000
0001
1000
0010
,
0100
0000
0001
0100
0000
0000
0010
0000
0000
1000
0000
0000
0100
0000
1000
0000
,
0001
1000
0100
0010
0001
1000
0010
0001
,
0010
0000
1000
0010
0000
0000
1000
0000
0100
0000
0001
0000
0100
0000
0010
0000
,
0001
0000
1000
0001
0000
0000
1000
0000
0010
0000
0100
0000
0010
0000
1000
0000
,
0001
0010
0100
1000
0002
0003
1000
0001
,
0100
0010
0000
2000
3000
2000
0001
0000
,
3001
0000
0000
0100
0000
0000
1000
0000
0000
0100
0000
0000
0001
0000
0000
0100
,
0001
0100
0010
1000
0002
0000
0203
0000
,
0320
0000
0000
0001
0000
0000
0100
0000
0000
1000
0030
0000
0010
0000
1000
0000
,
0001
1000
0010
0100
0002
0000
2003
0000
,
3200
0000
0000
1000
0300
0000
0100
0000
1000
0000
0001
0000
1000
0000
0010
0000
,
0200
0000
0001
0000
0000
0010
0000
0000
0001
0000
0000
0000
1000
0000
0000
0000
,
0301
0100
0001
0100
0001
0000
1000
0100
,
1000
0100
1000
0000
0000
0000
0100
0010
,
0110
0000
0000
0010
0000
0000
0001
0000
0000
1000
0000
0000
0001
0000
0000
0000
,
0200
0000
0320
0000
0230
0000
0300
1000
,
0100
0000
0010
0000
0001
0000
0100
0000
0000
0010
0000
0000
1000
0000
0000
0001
,
2000
0000
3002
0000
2003
0000
3010
1000
,
0001
0000
0010
0000
0001
0000
0010
0000
0001
0000
0000
0000
1000
0000
0000
0100
,
2000
0000
3200
0000
2300
0000
3100
0010
,
0001
0000
1000
0000
0001
0000
0100
0000
0000
0010
0000
0000
1000
0000
0000
0000
,
0100
0000
0100
0000
0100
0000
0010
0000
0001
0000
1000
0001
1000
0000
0100
0000
,
1100
0000
0000
0100
0000
0000
1000
0000
0000
0001
0000
1000
0000
0000
0010
0000
,
0100
1000
0100
0010
2000
0000
3002
0000
,
2003
0000
0000
0000
3100
0000
0010
0000
0001
0000
0000
0100
0001
0000
1000
0000
,
0010
0001
0010
1000
0020
0000
0130
0010
,
1000
0001
1000
0100
0010
0001
1000
0001
,
0200
0000
0000
0000
0301
0100
0001
0100
,
0010
1000
0010
1000
0010
0000
0100
0010
,
0100
0010
0100
0000
0001
0000
1000
0001
,
1001
0000
0000
0100
0000
0000
0001
0000
0000
1000
0000
0000
0100
0000
0000
0000
,
0020
0032
0023
0130
,
1000
0000
0000
0010
0000
0000
0001
0000
0000
0010
0000
0000
1000
0000
0000
0000
,
0002
0023
0032
1003
,
0010
0000
0000
0100
0000
0000
0001
0000
0000
0100
0000
0000
0010
0000
0000
1000
,
0000
0000
0001
0000
0000
1000
0000
0000
0100
0000
0000
0010
0000
0000
0001
0000
,
1000
0000
0000
0001
0000
0000
0100
0000
0000
0010
0000
0000
0100
0000
0000
0001
,
0000
0000
0010
0000
0000
0100
0000
0000
1000
0000
0000
0100
0000
0000
1000
0000
;

//---------------dance-single - ----------------
#NOTEDATA:;
#CHARTNAME:X-Scale 5;
#STEPSTYPE:dance-single;
#DESCRIPTION:;
#CHARTSTYLE:;
#DIFFICULTY:Easy;
#METER:3;
#RADARVALUES:0.262558,0.319966,0.028568,0.333298,0.000000,193.000000,190.000000,3.000000,35.000000,0.000000,0.000000,0.000000,0.000000,0.000000,0.262558,0.319966,0.028568,0.333298,0.000000,193.000000,190.000000,3.000000,35.000000,0.000000,0.000000,0.000000,0.000000,0.000000;
#CREDIT:;
#NOTES:
0000
0000
0000
0000
,
0000
0000
0000
0000
,
0000
0000
0000
0000
,
0000
0000
0000
0000
,
1000
0100
0010
0001
,
1000
0000
0010
0100
0020
0000
2030
0000
,
3002
1003
0001
0100
,
0020
0000
0000
0000
,
1030
0000
0010
0000
1000
0000
0100
0010
,
0002
0000
1003
0000
0001
0010
0100
0010
,
0001
0000
1000
0000
0001
0000
0100
0010
,
0100
0000
0001
0000
1000
0010
0100
0010
,
1000
0001
1000
0100
,
0010
0001
0010
0000
0001
0000
0100
0000
,
0010
0000
1000
0010
2000
3000
0001
0000
,
1000
0000
0100
2000
3000
2000
0000
0000
,
3001
1000
0001
1000
,
0100
0000
0010
0001
0020
0000
0032
0000
,
2003
0010
0001
3020
,
1030
0000
0001
0010
0002
0000
0203
0000
,
0320
0000
1030
0000
0001
0010
0100
1000
,
0002
1000
0100
1000
,
0103
0001
1000
0001
,
0010
0100
0000
0000
,
1100
0001
1000
0100
,
0020
0032
0023
0031
,
0100
0001
1000
0001
,
0020
0230
0320
0031
,
1000
0100
1000
0100
1000
0000
0001
0000
,
0200
0320
0230
0301
,
0010
0100
1000
0001
,
1000
0000
0010
0000
1000
0010
1000
0000
,
1010
0001
0010
0001
,
2000
3020
2030
3001
,
0100
0010
0100
0001
,
0020
0230
0320
0031
,
1000
0010
0100
0001
,
2000
3002
2003
3001
,
0010
0100
0010
0100
0010
0000
0001
0010
,
0001
0010
0001
0000
1000
0000
0010
0000
,
1010
1000
0001
1000
,
0100
0010
0001
1000
,
0001
0100
0010
1000
,
0100
0010
0001
0100
,
0010
0100
0001
0010
,
0100
1000
0001
1000
,
0010
0100
0001
1000
,
0001
1000
0002
0000
,
0003
0000
0000
0000
;

//---------------dance-single - ----------------
#NOTEDATA:;
#CHARTNAME:X-Scale 1;
#STEPSTYPE:dance-single;
#DESCRIPTION:;
#CHARTSTYLE:;
#DIFFICULTY:Beginner;
#METER:1;
#RADARVALUES:0.115634,0.159983,0.019046,0.019046,0.000000,85.000000,83.000000,2.000000,2.000000,0.000000,0.000000,0.000000,0.000000,0.000000,0.115634,0.159983,0.019046,0.019046,0.000000,85.000000,83.000000,2.000000,2.000000,0.000000,0.000000,0.000000,0.000000,0.000000;
#CREDIT:;
#NOTES:
0000
0000
0000
0000
,
0000
0000
0000
0000
,
0000
0000
0000
0000
,
0000
0000
0000
0000
,
1000
0000
0000
0000
,
0100
0000
0000
0000
,
0010
0000
0000
0000
,
0002
0000
0000
0000
,
0013
0000
0001
0000
,
1000
0000
0010
0000
,
1000
0000
0001
0000
,
1000
0000
0100
0000
,
0010
0000
0100
0000
,
1000
0000
0001
0000
,
0100
0000
0001
0000
,
1000
0000
0010
0000
,
0100
0000
0000
0000
,
0001
1000
0001
0000
,
0010
0000
0000
0000
,
0100
1000
0100
0000
,
0010
0000
0001
0010
,
0001
0000
1000
0001
,
1000
0000
0100
0000
,
0010
0000
0000
0000
,
0011
0000
0001
0000
,
1000
0000
0100
0000
,
1000
0000
0001
0000
,
0010
0000
0001
0000
,
1000
0000
0100
0000
,
0010
0000
0100
0000
,
1000
0000
0001
0000
,
1000
0000
0000
0000
,
0001
0000
1000
0000
,
0010
0000
1000
0000
,
0001
0000
1000
0000
,
0100
0000
0010
0000
,
0100
0000
1000
0000
,
0001
0000
0010
0000
,
0001
0000
1000
0000
,
0100
0000
1000
0000
,
1100
0000
1000
0000
,
0001
0000
1000
0000
,
0001
0000
0010
0000
,
0100
0000
0010
0000
,
0100
0000
1000
0000
,
0001
0000
1000
0000
,
0001
0000
0100
0000
,
0020
0000
0000
0000
,
0030
0000
0000
0000
;
