#VERSION:0.83;
#TITLE:Glow feat. Nikon;
#SUBTITLE:(Syzz Remix);
#ARTIST:Paris & Simo;
#TITLETRANSLIT:;
#SUBTITLETRANSLIT:;
#ARTISTTRANSLIT:;
#GENRE:Big Room House;
#ORIGIN:;
#CREDIT:;
#BANNER:Glow (Syzz Remix)-bn.png;
#BACKGROUND:Glow (Syzz Remix)-bg.png;
#PREVIEWVID:;
#JACKET:Glow (Syzz Remix)-jacket.png;
#CDIMAGE:;
#DISCIMAGE:;
#LYRICSPATH:;
#CDTITLE:cdtitle.png;
#MUSIC:Glow feat. Nikon (Syzz Remix).ogg;
#OFFSET:-0.009000;
#SAMPLESTART:82.509003;
#SAMPLELENGTH:15.000000;
#SELECTABLE:YES;
#BPMS:0.000=128.000,
32.000=64.000,
80.000=128.000,
124.000=64.000,
126.000=128.000;
#STOPS:;
#DELAYS:;
#WARPS:;
#TIMESIGNATURES:0.000=4=4;
#TICKCOUNTS:0.000=4;
#COMBOS:0.000=1;
#SPEEDS:0.000=1.000=0.000=0;
#SCROLLS:0.000=1.000;
#FAKES:;
#LABELS:0.000=Song Start;
#BGCHANGES:;
#KEYSOUNDS:;
#ATTACKS:
;

//---------------dance-single - ----------------
#NOTEDATA:;
#CHARTNAME:X-Scale 13;
#STEPSTYPE:dance-single;
#DESCRIPTION:;
#CHARTSTYLE:;
#DIFFICULTY:Hard;
#METER:9;
#RADARVALUES:0.582968,0.776513,0.124367,0.163231,0.586855,525.000000,509.000000,16.000000,21.000000,0.000000,0.000000,1.000000,0.000000,0.000000,0.582968,0.776513,0.124367,0.163231,0.586855,525.000000,509.000000,16.000000,21.000000,0.000000,0.000000,1.000000,0.000000,0.000000;
#CREDIT:;
#NOTES:
// measure 0
0000
0000
0000
0000
,  // measure 1
0000
0000
0000
0000
,  // measure 2
0000
0000
0000
0000
,  // measure 3
0000
0000
0000
0000
,  // measure 4
1000
0100
0000
1000
0100
0000
0020
0000
0230
0000
0320
0000
0130
1000
0100
1000
,  // measure 5
0100
0000
0000
1000
0001
0000
0010
0000
0001
0100
0000
0001
0100
0000
0010
0000
,  // measure 6
1000
0100
0000
1000
0100
0000
0010
0000
0100
0010
0000
0100
0010
0000
0001
0000
,  // measure 7
1000
0000
0000
0001
1000
0000
0001
0000
1000
0100
0000
1000
0100
0000
0010
0000
,  // measure 8
0110
0010
0001
1000
0100
1000
0001
0010
0100
1000
0001
1000
0010
0100
0010
1000
,  // measure 9
0200
0000
0001
0000
0010
0000
1000
0000
4300
0000
0000
0000
0000
0000
0000
3010
,  // measure 10
1010
1000
0100
0000
1000
0001
0100
0010
1000
0000
0100
1000
0010
0100
0001
0010
,  // measure 11
0100
0000
0000
0000
0010
0000
0100
0000
0000
0000
0010
0000
0001
0000
0000
0000
0100
0000
0001
0000
0000
0100
0000
0000
1000
0000
0000
0100
0000
0000
0001
0000
0000
0010
0000
0000
0100
0000
0000
0100
0000
0000
0010
0000
0000
0010
0000
0000
,  // measure 12
0001
0000
0000
0000
1000
0000
0001
0000
0000
0000
1000
0000
0010
0000
0000
0010
0000
0000
1000
0000
0000
0100
0000
0000
1000
0000
0000
0010
0000
0000
0001
0000
0000
0010
0000
0000
0100
0000
0000
0001
0000
0000
1000
0000
0000
0010
0000
0000
,  // measure 13
1000
1000
0001
0001
0200
0300
0100
0010
0100
0001
0100
0002
1003
0002
0000
0000
,  // measure 14
1000
0000
0010
0000
1000
0000
0100
0000
1003
0001
0010
0100
1000
0000
0010
0000
,  // measure 15
2000
0000
0100
0000
0001
0000
3020
0000
1030
0010
0001
0010
1000
0000
0100
0000
,  // measure 16
0010
0000
0100
0000
0010
0001
0010
0100
0020
0000
1000
0000
0031
0010
0001
0010
,  // measure 17
0001
1000
0001
1000
0001
0000
0100
0010
0100
0010
0100
0000
0001
0000
1000
0100
,  // measure 18
1100
0000
0000
1000
0000
0000
1000
0000
0001
0000
1000
0000
0001
0000
0000
0000
0010
0100
0010
0000
0010
0100
0010
0000
0100
0000
1000
0000
0001
0000
1000
0000
,  // measure 19
1001
0000
0000
0001
0000
0000
0001
0000
0010
0000
0001
0000
0010
0000
0000
0000
0100
1000
0100
0000
0100
1000
0100
0000
1000
0000
0000
0010
1000
0000
0010
0000
,  // measure 20
1010
0000
0000
0101
0000
0000
1001
0000
1000
0000
0001
0000
1000
0000
0000
0000
,  // measure 21
0100
0010
0100
0000
0100
0010
0100
0000
1000
0000
0001
0000
0100
0000
0001
0000
,  // measure 22
0101
0000
0000
1010
0000
0000
1001
0000
0001
0000
1000
0000
0001
0000
0000
0000
,  // measure 23
1000
0010
1000
0000
1000
0010
1000
0000
0001
0000
0100
0000
0010
0000
1000
0001
,  // measure 24
1000
0001
1000
0001
0010
0100
0010
0100
,  // measure 25
1000
0000
0010
0000
1000
0000
0010
0000
0100
0000
0010
0000
0100
0000
0001
0100
,  // measure 26
0001
0010
0001
0010
1000
0010
1000
0010
,  // measure 27
0100
0010
0100
1000
0001
1000
0001
0100
,  // measure 28
0010
0000
1000
0000
1000
0001
1000
0001
1000
0000
0001
0000
0010
0100
0010
0100
,  // measure 29
0010
0000
0001
0000
1000
0010
1000
0010
1000
0000
0100
0000
0010
0100
0010
0100
,  // measure 30
0020
0032
2003
3200
0320
0030
0002
2003
,  // measure 31
3002
0023
0230
0000
0300
0000
0110
0000
1001
0000
0000
0001
1000
0000
0100
0000
,  // measure 32
0010
0000
0100
0000
0010
0000
0000
0000
0001
0100
0001
0000
0001
0100
0001
0000
,  // measure 33
0010
0000
0100
0000
0010
0000
0001
0000
0001
0000
0000
0001
1000
0000
0010
0000
,  // measure 34
0100
0000
0010
0000
0100
0000
0000
0000
0010
1000
0010
0000
0010
1000
0010
0000
,  // measure 35
0100
0000
0001
0000
0100
0000
0100
0000
0101
0000
0000
0001
0010
0000
0100
0000
,  // measure 36
1000
0000
0100
0000
1000
0000
0000
0000
1000
0010
1000
0000
1000
0010
1000
0000
,  // measure 37
0100
0000
0010
0000
0100
0000
1000
0000
1000
0000
0000
1000
0001
0000
0100
0000
,  // measure 38
0010
0000
0100
0000
0010
0000
0000
0000
0100
0001
0100
0000
0100
0001
0100
0000
,  // measure 39
0010
0000
1000
0000
0010
0000
0000
0000
1010
0000
0000
1000
0010
0000
1000
0000
,  // measure 40
0001
0000
0100
0001
0100
0000
0001
0000
0010
0100
0010
0000
0010
0100
0010
0000
,  // measure 41
0001
1000
0000
0001
1000
0000
0010
0000
0100
0000
0000
0001
0100
0000
0010
0000
,  // measure 42
1000
0000
0100
0010
0100
0000
1000
0000
0001
1000
0001
0000
0001
1000
0001
0000
,  // measure 43
1000
0100
0000
1000
0100
0000
0100
0000
1100
0000
0000
1000
0010
0000
1000
0000
,  // measure 44
0001
0000
0010
0001
0010
0000
0100
0000
1000
0010
1000
0000
1000
0010
1000
0000
,  // measure 45
0100
1000
0000
0001
1000
0000
0001
0000
1000
0000
0000
0100
0010
0000
0100
0000
,  // measure 46
1000
0000
0001
1000
0001
0000
0010
0000
0100
0010
0100
0000
0100
0010
0100
0000
,  // measure 47
0010
0000
0001
0000
1000
0000
0000
0000
1001
0000
0000
1000
0001
0000
0010
0000
,  // measure 48
0100
0000
1000
0000
0010
0000
0000
0000
1000
0000
0000
0001
1000
0000
0010
0000
,  // measure 49
1000
0100
0000
0100
1000
0000
0001
0000
1000
0000
0000
0100
1000
0000
0001
0000
,  // measure 50
0100
0000
0000
0010
0100
0000
0001
0000
1000
0000
0000
0001
0010
0000
0001
0000
,  // measure 51
1000
0100
0000
0100
0001
0000
0010
0000
0001
0000
0000
0100
0010
0000
0100
0000
,  // measure 52
0001
0000
1000
0000
0100
0000
0000
0000
1000
0000
0000
0010
0100
0000
0010
0000
,  // measure 53
1000
0010
0000
0010
0100
0000
0010
0000
1000
0000
0000
0001
1000
0000
0001
0000
,  // measure 54
0010
0000
0000
0001
1000
0000
0100
0000
0010
0000
0000
0100
0010
0000
0100
0000
,  // measure 55
1000
0100
0000
0100
0001
0000
0200
0000
0300
0000
0000
0000
0000
0000
0000
0000
;

//---------------dance-single - ----------------
#NOTEDATA:;
#CHARTNAME:X-Scale 10;
#STEPSTYPE:dance-single;
#DESCRIPTION:;
#CHARTSTYLE:;
#DIFFICULTY:Medium;
#METER:7;
#RADARVALUES:0.457491,0.625525,0.093275,0.077729,0.237074,412.000000,400.000000,12.000000,10.000000,0.000000,0.000000,0.000000,0.000000,0.000000,0.457491,0.625525,0.093275,0.077729,0.237074,412.000000,400.000000,12.000000,10.000000,0.000000,0.000000,0.000000,0.000000,0.000000;
#CREDIT:;
#NOTES:
// measure 0
0000
0000
0000
0000
,  // measure 1
0000
0000
0000
0000
,  // measure 2
0000
0000
0000
0000
,  // measure 3
0000
0000
0000
0000
,  // measure 4
0001
0000
0000
1000
0000
0000
0002
0000
0203
0000
0302
0000
2003
0000
3000
0000
,  // measure 5
1000
0000
0000
0100
0000
0000
0010
0000
0001
1000
0000
0001
1000
0000
0001
0000
,  // measure 6
0010
0000
0000
0001
0000
0000
1000
0000
0010
0000
0000
0100
0000
0000
0001
0000
,  // measure 7
1000
0000
0000
0001
0000
0000
1000
0000
0010
1000
0000
0010
1000
0000
0001
0000
,  // measure 8
1001
1000
0001
1000
0001
0010
0001
0010
,  // measure 9
0100
0000
0010
0000
0100
0000
0010
0000
0002
0000
0000
0000
0000
0000
0000
0013
,  // measure 10
0011
0001
0000
0000
0001
0000
1000
0010
1000
0000
0100
0000
0010
0100
0010
0001
,  // measure 11
0100
0000
0010
0000
1000
0000
0001
0000
0010
0100
0010
0000
0001
1000
0010
0100
,  // measure 12
0001
0000
1000
0000
0010
0000
1000
0100
1000
0000
0001
0000
0100
1000
0100
0010
,  // measure 13
0100
0000
0001
0000
0020
0030
0100
0010
0100
0010
0100
0000
1000
0000
0100
0000
,  // measure 14
0010
0000
0100
0000
0010
0000
0100
0000
1000
0000
0010
0100
0010
0000
1000
0000
,  // measure 15
0001
0000
1000
0000
0001
0000
0010
0000
0100
0000
0100
0010
0100
0000
1000
0000
,  // measure 16
0001
0000
0100
0000
0001
0000
0010
0001
2000
0000
0100
0000
0000
0000
0010
0000
,  // measure 17
3100
1000
0100
1000
0100
0000
0010
0100
0010
0100
0010
0000
0001
0000
0010
0000
,  // measure 18
0011
0000
0000
0001
0000
0000
1000
0000
0001
0000
1000
0000
0001
0000
0000
0000
0010
0000
0100
0000
0010
0000
0100
0000
1000
0000
0001
0000
1000
0000
0000
0000
,  // measure 19
0001
0000
0000
0001
0000
0000
0001
0000
1000
0000
0001
0000
1000
0000
0000
0000
0100
0000
0010
0000
0100
0000
0010
0000
0001
0000
0010
0000
0001
0000
0000
0000
,  // measure 20
0011
0000
1100
0100
1000
0001
1000
0000
,  // measure 21
0001
0100
0001
0100
0001
0010
0100
0000
,  // measure 22
0110
0000
1001
1000
0001
1000
0001
0000
,  // measure 23
1000
0010
1000
0010
1000
0100
0010
0000
,  // measure 24
0110
0100
0010
0100
0010
0000
0001
0100
,  // measure 25
0001
0100
0001
0000
1000
0010
0100
0010
,  // measure 26
1000
0100
0001
0100
1000
0000
0010
0100
,  // measure 27
0001
0100
0010
0000
1000
0100
0010
0100
,  // measure 28
1000
0001
1000
0001
0010
0100
0010
0100
,  // measure 29
1000
0100
1000
0001
1000
0001
1000
0010
,  // measure 30
1000
0010
0100
0001
0010
0000
0001
1000
,  // measure 31
0001
1000
0001
0000
0000
0000
1001
0000
1001
0000
0000
0010
0000
0000
1000
0000
,  // measure 32
0010
0100
0001
0000
0001
0001
1000
1000
,  // measure 33
0100
0000
0010
0000
0100
0000
1000
0000
0001
0000
0000
0010
0000
0000
0001
0000
,  // measure 34
0100
0010
1000
0000
0010
0010
0100
0100
,  // measure 35
0001
0000
0100
0000
0010
0000
0000
0000
1000
0000
0000
0001
0000
0000
1000
0000
,  // measure 36
0010
0100
0001
0000
1000
1000
0010
0010
,  // measure 37
0001
0000
0010
0000
1000
0000
0100
0000
1000
0000
0000
0001
0000
0000
0010
0000
,  // measure 38
0100
0010
0100
0000
1000
0000
0001
0000
,  // measure 39
1000
0000
0001
0000
0100
0000
0000
0000
0101
0000
0000
0001
1000
0000
0001
0000
,  // measure 40
1000
0001
1000
0100
0010
0010
0100
0100
,  // measure 41
1000
0000
0001
0000
0100
0000
0001
0000
1000
0000
0000
0001
1000
0000
0001
0000
,  // measure 42
0010
0100
1000
0100
0010
0010
0001
0001
,  // measure 43
0100
0000
0010
0000
1000
0000
0100
0000
1000
0000
0000
1000
0010
0000
1000
0000
,  // measure 44
0001
1000
0001
0010
0001
0001
1000
1000
,  // measure 45
0010
0000
0100
0000
0001
0000
1000
0000
0001
0000
0000
0100
0010
0000
0100
0000
,  // measure 46
0001
0100
0001
0010
0200
0300
0020
0030
,  // measure 47
0001
0100
0001
0000
0101
0000
0001
1000
,  // measure 48
0010
0000
0100
0000
0001
0000
0000
0000
0010
0000
0000
0001
0010
0000
0001
0000
,  // measure 49
1000
0000
0000
0000
0100
0000
1000
0000
0100
0000
0000
1000
0000
0000
0001
0000
,  // measure 50
0100
0000
0000
0010
0100
0000
0010
0000
1000
0000
0000
0010
1000
0000
0010
0000
,  // measure 51
0100
0000
0000
0000
0001
0000
1000
0000
0001
0000
0000
0010
0001
0000
1000
0000
,  // measure 52
0010
0000
1000
0000
0010
0000
0000
0000
1000
0000
0000
0010
1000
0000
0010
0000
,  // measure 53
0100
0000
0000
0000
0001
0000
0010
0000
0001
0000
0000
0100
0010
0000
0100
0000
,  // measure 54
0001
0000
0000
1000
0001
0000
0100
0000
0010
0000
0000
1000
0100
0000
1000
0000
,  // measure 55
0000
0001
0000
0001
0100
0000
0002
0000
0003
0000
0000
0000
0000
0000
0000
0000
;

//---------------dance-single - ----------------
#NOTEDATA:;
#CHARTNAME:X-Scale 6;
#STEPSTYPE:dance-single;
#DESCRIPTION:;
#CHARTSTYLE:;
#DIFFICULTY:Easy;
#METER:4;
#RADARVALUES:0.319800,0.539245,0.031092,0.373100,0.046637,288.000000,284.000000,4.000000,48.000000,0.000000,0.000000,0.000000,0.000000,0.000000,0.319800,0.539245,0.031092,0.373100,0.046637,288.000000,284.000000,4.000000,48.000000,0.000000,0.000000,0.000000,0.000000,0.000000;
#CREDIT:;
#NOTES:
0000
0000
0000
0000
,
0000
0000
0000
0000
,
0000
0000
0000
0000
,
0000
0000
0000
0000
,
0001
0010
0100
1000
,
0001
0010
0100
1000
,
0001
0100
0010
1000
,
0001
0000
0100
0000
0010
0000
1000
0010
,
1020
0001
0100
1000
,
0230
0000
0302
0000
,
1003
0001
1000
0001
0010
0100
0010
0100
,
1000
0010
1000
0010
0100
0001
0100
0001
,
0010
0100
0010
0100
1000
0001
1000
0001
,
0010
0000
0000
0000
0100
0000
0000
0000
2000
0000
0000
3000
0001
0000
1000
0000
0001
0000
0010
0000
0000
0000
0200
0000
0300
0000
0200
0000
0000
0000
0000
0000
,
0000
0001
0000
1000
1300
0100
0020
0032
,
0023
1000
0000
0032
0013
0001
2000
3020
,
2030
3001
0010
0100
2000
0001
0000
0001
,
3001
0010
1000
0010
0100
1000
0001
0010
,
0011
0000
0000
0001
0100
0001
0100
0000
0020
0030
0020
0030
1000
0100
0010
0000
,
0001
0010
0100
0010
0001
0000
1000
0010
0100
0010
1000
0000
0001
0010
0002
0000
,
0013
0000
0001
0000
1000
0001
1000
0000
,
0010
0000
0100
0000
0001
0010
0001
0000
,
1000
0000
0001
0000
1000
0100
1000
0000
,
0010
0000
0100
0000
0001
0100
0001
0000
,
0010
0000
0001
0100
0010
0100
0002
0000
,
0013
0000
0100
1000
0001
1000
0020
0000
,
1030
0000
0010
0100
0001
0100
0020
0000
,
1030
0000
0001
0010
0100
0010
0002
0000
,
2003
3200
0320
0032
,
2003
3020
0230
0302
,
2003
0100
0001
0010
,
3020
0000
0000
0030
1010
0000
0001
0000
,
1000
0100
2000
0000
3001
0000
0010
0000
,
0001
0010
0200
0000
1300
0000
0001
0000
,
0100
0010
0200
0000
0301
0000
1000
0000
,
0100
0010
0002
0000
1003
0000
0001
0000
,
1000
0100
2000
0000
3010
0000
0100
0000
,
0001
0010
0200
0000
1300
0000
0001
0000
,
0100
0010
0200
0000
0301
0000
0100
0000
,
0001
0010
0200
0000
1300
0000
1100
0000
,
1000
0001
2000
0000
3010
0000
0100
0000
,
0001
0010
0200
0000
1300
0000
0100
0000
,
0010
0001
0020
0000
0130
0000
1000
0000
,
0001
0100
0020
0000
1030
0000
0001
0000
,
1000
0100
2000
0000
3100
0000
0010
0000
,
0001
0100
0020
0000
1030
0000
0010
0000
,
0100
0001
0020
0000
0031
0000
1000
0000
,
0100
0010
0002
0000
1003
0000
0001
0000
,
1000
0100
0010
0000
0001
0000
0100
0000
,
0001
0000
0010
0100
0010
0100
0010
0000
,
0001
1000
0001
0100
,
0010
0000
1000
0001
1000
0000
0100
0000
,
0010
0001
1000
0000
0010
0000
0100
0000
,
0010
0000
1000
0001
1000
0001
1000
0000
,
0010
0100
0001
1000
,
0001
0000
1000
0200
0300
0000
0000
0000
;

//---------------dance-single - ----------------
#NOTEDATA:;
#CHARTNAME:X-Scale 2;
#STEPSTYPE:dance-single;
#DESCRIPTION:;
#CHARTSTYLE:;
#DIFFICULTY:Beginner;
#METER:2;
#RADARVALUES:0.133250,0.215698,0.023319,0.000000,0.000000,120.000000,117.000000,3.000000,0.000000,0.000000,0.000000,0.000000,0.000000,0.000000,0.133250,0.215698,0.023319,0.000000,0.000000,120.000000,117.000000,3.000000,0.000000,0.000000,0.000000,0.000000,0.000000,0.000000;
#CREDIT:;
#NOTES:
0000
0000
0000
0000
,
0000
0000
0000
0000
,
0000
0000
0000
0000
,
0000
0000
0000
0000
,
1000
0000
0100
0000
,
1000
0000
0100
0000
,
0010
0000
0001
0000
,
0010
0000
0001
0000
,
0011
0000
0000
0000
,
1000
0000
0001
0000
,
1000
0100
0010
0001
,
1000
0010
0100
0001
,
1000
0100
0010
0001
,
1000
0010
0100
0001
,
0000
0001
0000
0001
0000
1000
0000
1000
,
0000
0100
0000
0100
0000
0010
0000
0010
,
0001
1000
0000
1000
0000
0010
0000
0010
,
0000
1000
0000
1000
0000
0001
0000
0001
,
0010
0000
0000
0000
,
0001
0000
0000
0000
,
1000
0000
0010
0000
,
1000
0000
0010
0000
,
0100
0000
0001
0000
,
1000
0000
0100
0000
,
0010
0000
0001
0000
,
1000
0000
0001
0000
,
1000
0000
0010
0000
,
0100
0000
0001
0000
,
0010
0000
0001
0000
,
1000
0000
0100
0000
,
1000
0000
0000
0000
,
0001
0000
1001
0000
,
0001
0000
0010
0000
,
0001
0000
0100
0000
,
0010
0000
0100
0000
,
0001
0000
1000
0000
,
0001
0000
0010
0000
,
0100
0000
0010
0000
,
0001
0000
1000
0000
,
0100
0000
1000
0000
,
0100
0000
0010
0000
,
0001
0000
1000
0000
,
0010
0000
0100
0000
,
0001
0000
0100
0000
,
0010
0000
1000
0000
,
0001
0000
1000
0000
,
0100
0000
0010
0000
,
0001
0000
0011
0000
,
0001
0000
0100
0000
,
0010
0000
1000
0000
,
0001
0000
0010
0000
,
0100
0000
1000
0000
,
0001
0000
1000
0000
,
0010
0000
0100
0000
,
0001
0000
1000
0000
,
0001
0000
1000
0000
;
