#VERSION:0.83;
#TITLE:Get Your Wish;
#SUBTITLE:;
#ARTIST:Porter Robinson;
#TITLETRANSLIT:;
#SUBTITLETRANSLIT:;
#ARTISTTRANSLIT:;
#GENRE:Synthpop;
#ORIGIN:;
#CREDIT:;
#BANNER:Get Your Wish-bn.png;
#BACKGROUND:Get Your Wish-bg.png;
#PREVIEWVID:;
#JACKET:Get Your Wish-jacket.png;
#CDIMAGE:;
#DISCIMAGE:;
#LYRICSPATH:;
#CDTITLE:cdtitle.png;
#MUSIC:Get Your Wish.ogg;
#OFFSET:-0.007000;
#SAMPLESTART:73.269997;
#SAMPLELENGTH:20.211000;
#SELECTABLE:YES;
#BPMS:0.000=95.000;
#STOPS:;
#DELAYS:;
#WARPS:;
#TIMESIGNATURES:0.000=4=4;
#TICKCOUNTS:0.000=4;
#COMBOS:0.000=1;
#SPEEDS:0.000=1.000=0.000=0;
#SCROLLS:0.000=1.000;
#FAKES:;
#LABELS:0.000=Song Start;
#BGCHANGES:0.000=Get Your Wish.avi=1.000=1=0=0=StretchNoLoop==CrossFade==,
99999=-nosongbg-=1.000=0=0=0 // don't automatically add -songbackground-
;
#KEYSOUNDS:;
#ATTACKS:
;

//---------------dance-single - ----------------
#NOTEDATA:;
#CHARTNAME:X-Scale 13;
#STEPSTYPE:dance-single;
#DESCRIPTION:;
#CHARTSTYLE:;
#DIFFICULTY:Challenge;
#METER:9;
#RADARVALUES:0.533579,0.648206,0.189517,0.181620,0.840980,473.000000,449.000000,24.000000,23.000000,10.000000,0.000000,0.000000,0.000000,0.000000,0.533579,0.648206,0.189517,0.181620,0.840980,473.000000,449.000000,24.000000,23.000000,10.000000,0.000000,0.000000,0.000000,0.000000;
#CREDIT:;
#NOTES:
// measure 0
0000
0000
0000
0000
,  // measure 1
0000
0000
0000
0000
,  // measure 2
0000
0000
0000
0000
,  // measure 3
0000
0000
0000
0000
,  // measure 4
0000
0000
0000
0000
0000
0000
0000
0000
0000
0000
0000
0000
0000
0000
1000
0001
1000
0000
0001
0000
0010
0000
0110
0000
0000
0000
1001
0000
0000
0000
0110
0000
,  // measure 5
0000
0000
0100
0010
0100
0000
0001
0000
0000
0000
0010
0000
0000
0000
0001
0000
0100
0000
1000
0000
0100
0000
0010
0000
0000
0000
0100
0000
0000
0000
0001
0000
,  // measure 6
1000
0000
0000
0000
0100
0000
1000
0000
0001
0000
1000
0000
0000
0000
0100
0010
0100
0000
0010
0000
0001
0000
1000
0000
0001
0000
1000
0000
0000
0000
0100
0000
,  // measure 7
1000
0000
0000
0000
0001
0000
0010
0000
0000
0000
0001
0000
0000
0000
1000
0001
1000
0000
0100
0000
0001
0000
0100
0000
1000
0000
0010
0000
0000
0000
0100
0000
,  // measure 8
0010
0000
0000
0000
1000
0000
0001
0000
0100
0000
0010
0000
0000
0000
1000
0010
1000
0000
0001
0000
0100
0000
0010
0000
1000
0000
0100
0000
0010
0000
0001
0000
,  // measure 9
1000
0100
0100
0000
1010
0000
0001
0010
1000
0001
0100
1000
0001
0000
1000
0000
,  // measure 10
0010
0000
0010
0000
0101
0000
0000
0100
0010
0001
0010
1000
0010
0100
0000
0001
,  // measure 11
1000
0000
0000
0100
1000
0000
0000
0000
0001
0000
0100
0000
0000
0000
0010
0000
0000
0000
1000
0000
0000
0000
0001
0000
0000
0000
0000
0000
0001
0000
0000
0000
,  // measure 12
0100
0000
0000
0010
0100
0000
0000
0000
0001
0000
0100
0000
0000
0000
1000
0000
0000
0000
0100
0000
0000
0000
0010
0100
0010
0000
1000
0000
0000
0000
1000
0000
,  // measure 13
1001
0000
0001
0000
0010
0001
1000
0001
0000
0010
0100
0010
0001
1000
0000
0001
,  // measure 14
0100
0000
0100
0000
0110
0010
0000
1000
0010
1000
0000
0100
0010
0001
1000
0000
,  // measure 15
0001
0000
0000
0000
0001
0000
0000
0000
0011
0000
0000
0000
0010
0000
0100
0010
0100
0000
1000
0000
0001
0000
1000
0000
0010
0000
0000
0000
0100
0000
0010
0000
,  // measure 16
1000
0000
0100
0000
1000
0000
1100
0000
0000
0000
0110
0000
0000
0000
0011
0000
0001
0000
1000
0000
0000
0000
0010
0000
0010
0100
0010
0000
1000
0000
0001
0000
,  // measure 17
0100
0000
0100
0000
1010
1000
0001
1000
0100
0010
0100
1000
0001
0000
0010
0000
,  // measure 18
0001
0000
0000
0000
1000
0000
0000
0000
0100
0000
1000
0000
0000
0000
0010
1000
0010
0000
1000
0000
0001
0000
0010
0000
0100
0000
0010
0000
0000
0000
0010
0000
,  // measure 19
0001
1000
0001
0000
0100
0010
0000
1000
0001
0010
1000
0010
0001
0000
1000
0000
,  // measure 20
0100
0010
0100
0000
1000
0010
0000
0100
0010
0001
0010
1000
0010
0100
0010
0000
,  // measure 21
0000
1000
0100
0001
0000
0100
0010
0001
0000
0001
0010
1000
0000
0010
0100
1000
,  // measure 22
0000
0001
0100
0010
0000
0100
0010
1000
0000
0001
1000
0010
0000
0100
0010
0001
,  // measure 23
0000
0001
0010
1000
0000
0001
0100
1000
0000
0001
0010
1000
0000
0001
1000
0100
,  // measure 24
0000
0010
0100
1000
0000
0001
1000
0010
0000
0100
0010
1000
0000
0100
0010
0001
,  // measure 25
0000
1000
0001
0100
0000
0010
0100
0001
0000
0010
0100
1000
0000
0001
1000
0010
,  // measure 26
0000
0100
0010
1000
0000
0100
0010
0001
0000
1000
0100
0001
0000
0100
0010
0001
,  // measure 27
M000
1000
0100
0001
M000
1000
0010
0001
M000
1000
0010
0100
M000
0001
0010
0100
,  // measure 28
2000
0000
0000
0000
0200
0000
0000
0300
0020
0000
0000
0030
0002
0000
0000
3003
,  // measure 29
1001
0000
0000
0000
1000
0000
0100
0000
1010
0000
0000
0000
0001
0000
0010
0100
,  // measure 30
2000
0000
0000
3000
0002
0000
0000
0003
0021
0000
0000
0030
0200
0000
0000
0300
,  // measure 31
1010
0000
0000
0000
0001
0000
0100
0000
0110
0000
0000
0000
0010
0000
0000
2000
,  // measure 32
0001
0000
0000
0000
0100
3000
0000
0000
1100
0000
0100
0000
0010
0000
0100
0000
,  // measure 33
2000
0000
3000
0002
0000
0000
0003
0000
0101
0000
1000
0000
0001
0000
0100
0000
,  // measure 34
0020
0000
1000
0030
1010
0000
0002
0000
,  // measure 35
0023
0000
0100
0030
0110
0000
2000
0000
,  // measure 36
3002
0000
0000
0000
0020
0000
0000
0030
0103
0000
0000
0001
0100
0010
1000
0000
,  // measure 37
1100
0000
1000
0000
0100
0000
0001
0000
0100
0000
1000
0000
0001
0000
0100
0001
,  // measure 38
2000
0000
0000
3100
0020
0000
0000
0031
2000
0000
0000
3010
0200
0000
0300
0000
,  // measure 39
1010
0000
0000
1000
0001
0000
0010
0000
0100
0000
0010
0100
1000
0000
0001
0000
,  // measure 40
1000
0000
0010
1000
0001
0000
0010
0001
1000
0000
0100
0000
0001
0000
0100
0000
,  // measure 41
2000
0000
3000
0002
0010
0003
0001
0000
0100
0000
1000
0000
0001
0000
0010
0000
,  // measure 42
1000
0000
0010
0100
0001
0000
1000
0001
0010
0000
0100
0010
0001
0000
1000
0000
,  // measure 43
0010
0000
0000
0100
0010
0000
1000
0001
0100
0000
0010
0100
0001
0000
0000
1000
,  // measure 44
0100
0000
0010
0100
1000
0000
0000
1000
0100
0010
0001
0000
0011
0000
0000
0000
,  // measure 45
1000
0000
0000
0100
1000
0000
0000
0000
0001
0000
0100
0000
0000
0000
0010
0000
0000
0000
1000
0000
0000
0000
0001
0000
0000
0000
0000
0000
0001
0000
0000
0000
,  // measure 46
0010
0000
0000
0100
0010
0000
0000
0000
0001
0000
1000
0000
0000
0000
0100
0000
0000
0000
0010
0000
0000
0000
0001
0000
0000
0000
1000
0000
0000
0000
0010
0000
,  // measure 47
1000
0000
0000
0001
1000
0000
0000
0000
0100
0000
0010
0000
0000
0000
0100
0000
0000
0000
1000
0000
0000
0000
0001
0000
0000
0000
0000
0000
0001
0000
0000
0000
,  // measure 48
0100
0000
0000
0010
0100
0000
0000
0000
0010
0000
0001
0000
0000
0000
0010
0000
0000
0000
1000
0000
0000
0000
0001
0000
0000
0000
1000
0000
0000
0000
0100
0000
,  // measure 49
0M00
0000
0000
M000
00M0
0000
0000
0000
0M00
0000
0000
0000
0000
0000
0000
0000
0M00
0000
0000
0000
0000
0000
0000
0000
0M00
0000
0000
0000
0000
0000
0000
0000
;

//---------------dance-single - ----------------
#NOTEDATA:;
#CHARTNAME:X-Scale 11;
#STEPSTYPE:dance-single;
#DESCRIPTION:;
#CHARTSTYLE:;
#DIFFICULTY:Hard;
#METER:8;
#RADARVALUES:0.386930,0.510708,0.150034,0.418516,0.477740,343.000000,324.000000,19.000000,53.000000,0.000000,0.000000,0.000000,0.000000,0.000000,0.386930,0.510708,0.150034,0.418516,0.477740,343.000000,324.000000,19.000000,53.000000,0.000000,0.000000,0.000000,0.000000,0.000000;
#CREDIT:;
#NOTES:
0000
0000
0000
0000
,
0000
0000
0000
0000
,
0000
0000
0000
0000
,
0000
0000
0000
0000
,
0000
0000
0000
0000
0000
0000
0000
0000
0000
0000
0000
1100
0000
0110
0000
0011
,
0000
0000
0100
0001
0000
1000
0000
0001
0010
0100
0010
0001
0000
1000
0000
0010
,
0100
0000
0001
1000
0000
0100
0000
1000
0100
0010
0001
0011
0000
0110
0000
1100
,
0000
0000
1000
0001
0000
0010
0000
0100
0010
0001
1000
0010
0000
0100
0000
0010
,
1000
0000
0001
0100
0000
0010
0000
1000
0100
1000
0001
1000
0100
0010
0000
0100
,
0000
1000
1000
0000
1100
0000
0100
0000
0010
0100
0000
0010
0100
0000
1000
0000
,
0001
0000
0001
0000
0011
0010
0000
0001
0000
1000
0000
0100
0000
0010
0000
0000
,
0001
0000
0001
0000
1000
0100
0000
1000
0000
0010
0000
0100
0000
0000
0001
0000
,
0001
0000
0001
0000
1000
0010
0000
0100
0000
0010
0000
1000
0100
1000
0000
1000
,
1100
0000
0100
0000
0010
0000
0001
1000
0000
0010
0000
1000
0000
0000
0100
0000
,
0010
0000
0010
0000
0001
0100
0000
0010
1000
0100
0000
1000
0000
0001
0000
0010
,
0002
0000
1000
0000
2003
0000
0100
0000
3200
0000
0000
0000
0320
0000
0000
0032
,
0000
0000
0000
1000
0003
1000
0000
1000
0100
0010
0000
0001
0000
0100
0000
0010
,
0110
0000
0100
0000
0001
0000
0010
0100
0000
1000
0000
0100
0000
0000
1000
0000
,
0001
0000
0001
0000
0100
0000
0010
0100
0000
0001
0000
1000
0000
0100
0000
1000
,
0002
0000
0010
0000
0023
0000
0100
0000
0230
0000
0000
0000
2300
0000
0000
3002
,
0000
0000
0000
0000
1003
0001
0000
0010
0000
0001
0000
0100
0010
0100
0000
0000
,
0002
2003
3200
0302
,
0203
0000
0000
2300
0000
3000
0001
0100
,
0020
0000
0000
0000
0230
0000
0000
0000
2300
0000
0000
3200
0000
0000
0302
0000
,
0000
0000
0000
0000
2000
0000
0003
0000
3200
0000
0000
0000
0310
0100
0000
1000
,
0000
0000
0001
0100
0000
0010
0000
0100
0000
0001
0000
0010
0000
0100
0000
1000
,
0000
0001
0100
0010
0200
0000
0301
0000
,
2002
3003
0220
0330
2002
3003
0220
0330
,
2000
0000
0100
0000
0001
0000
0010
3000
,
1020
0000
0000
0000
0130
0000
0002
0000
1000
0000
0000
0000
0103
0000
0001
0010
,
0200
0320
0032
2003
,
3200
0000
0000
0000
0310
0000
0002
0000
1000
0000
0000
0000
0023
0000
0030
0200
,
0001
0000
0000
0000
1000
0300
0000
0000
1100
0000
1000
0000
0001
0000
0100
0000
,
0020
0000
0030
2000
0000
3000
0000
0000
1001
0000
1000
0000
0100
0000
0010
0000
,
0002
0000
0010
0003
0011
0000
0020
0000
,
0230
0001
1300
0002
,
0203
0000
0000
0000
1000
0000
0000
0000
0310
0000
0000
0100
0010
0100
0010
0000
,
0110
0000
0000
0000
0100
0000
0001
0000
1000
0000
0100
0000
0010
0000
0100
1000
,
0001
0100
1000
0100
0010
0100
0001
0000
,
1000
0000
0100
1000
0001
0100
0010
0100
,
0001
0000
0100
0000
0001
1000
0010
0100
,
0001
0000
0000
1000
0100
0000
1000
0000
0001
0000
0010
0000
0100
0000
1000
0000
,
0002
0000
0000
0000
0100
0000
0000
0000
1003
0000
0000
0001
1000
0000
0100
0000
,
0020
0000
0000
0000
0001
0000
0030
0000
0010
0000
0001
1000
0100
0000
1000
0000
,
0020
0000
0000
0000
0001
0000
0030
0100
0010
0100
0010
0000
1000
0000
0001
0000
,
0100
0000
0100
0000
0010
1000
0000
0001
0000
1000
0000
0100
0000
0000
0100
0000
,
0010
0000
0010
0000
0001
1000
0000
0100
0000
1000
0000
0010
0000
0100
0000
0001
,
0010
0000
0010
0000
0100
0010
0000
0001
0000
1000
0000
0001
0000
0000
0100
0000
,
0010
0000
0010
0000
1000
0100
0000
1000
0000
0001
0000
0010
0000
0100
0000
1000
,
0001
0100
0001
0000
0001
0000
0001
0000
;

//---------------dance-single - ----------------
#NOTEDATA:;
#CHARTNAME:X-Scale 8;
#STEPSTYPE:dance-single;
#DESCRIPTION:;
#CHARTSTYLE:;
#DIFFICULTY:Medium;
#METER:5;
#RADARVALUES:0.345191,0.412495,0.094758,0.402723,0.394826,306.000000,294.000000,12.000000,51.000000,0.000000,0.000000,0.000000,0.000000,0.000000,0.345191,0.412495,0.094758,0.402723,0.394826,306.000000,294.000000,12.000000,51.000000,0.000000,0.000000,0.000000,0.000000,0.000000;
#CREDIT:;
#NOTES:
0000
0000
0000
0000
,
0000
0000
0000
0000
,
0000
0000
0000
0000
,
0000
0000
0000
0000
,
0000
0000
0000
0000
0000
0000
0000
0000
0000
0000
0000
0000
0000
0000
0000
2000
,
0000
3000
0100
0010
0000
0100
0000
0020
0000
0030
0001
1000
0000
0010
0000
2000
,
0000
3000
0001
0010
0000
0100
0000
0010
0001
0000
0000
1000
0000
1000
0000
0020
,
0000
0030
0100
0010
0000
1000
0000
0002
0000
0003
0010
0100
0000
0010
0000
0200
,
0000
0300
1000
0010
0000
0100
0000
0002
0000
0003
0100
0001
0000
1000
0000
0001
,
0000
0001
0100
0000
0101
0000
0000
1000
0000
1000
0000
1000
0000
0000
0010
0000
,
0100
0000
0010
0000
1000
0001
0000
0001
0000
0001
0000
0010
0100
0000
0010
0000
,
0001
0010
0001
0010
,
0100
0000
0000
0000
1000
0000
0000
0000
0100
1000
0000
0001
0000
1000
0000
0200
,
0000
0000
0000
0300
0110
0000
0010
0002
0000
0003
1000
0010
0000
0100
0000
0020
,
0000
0000
0030
0000
0100
0001
0000
2000
0000
0000
3000
0000
0100
0020
0000
0000
,
0032
0000
0000
0000
2003
0000
0000
0000
3020
0000
0000
0000
0230
0000
0300
0010
,
1000
0001
0100
0010
0000
0010
0000
0010
0100
0010
0000
1000
0001
1000
0000
0200
,
0000
0000
0000
0300
0010
0100
1000
0002
0000
0023
0000
0032
0000
0203
0000
0320
,
0000
0000
0000
0030
1000
0001
0000
0010
0000
0001
0000
1000
0020
0000
0000
0000
,
0230
0000
0000
0000
0302
0000
0000
0000
2003
0000
0000
0000
3200
0000
0300
0020
,
0001
0000
0001
0030
0001
0010
0000
0100
0000
0010
0000
0100
1000
0000
0001
0000
,
0200
0320
2030
3002
,
0023
0000
0130
0200
1000
0300
0100
1000
,
0002
0000
0000
0000
2003
0000
0000
0000
3200
0000
0300
0020
0000
0030
0002
0000
,
1000
0000
0000
0000
0020
0000
0003
0000
0230
0000
0000
0000
1300
0100
0000
1000
,
0000
0000
0001
0100
0000
0010
0000
0001
0000
0010
0000
1000
0000
0100
0000
0010
,
0000
0001
0100
0010
0200
0000
0301
0000
,
1000
0001
1000
0001
,
2000
0000
0100
0000
0001
0000
0010
3000
,
1100
0000
1000
0001
1001
0000
0010
0100
,
1000
0001
1001
1000
,
0010
0000
0000
0000
0100
0000
0010
0000
0110
0000
0000
0000
0001
0000
0000
2000
,
0000
0000
3100
0000
1100
1000
0001
0100
,
0020
0000
0030
0200
0000
0300
0000
0000
0110
0000
1000
0000
0001
0000
0010
0000
,
0002
0000
0100
0003
0101
0000
2000
0000
,
3200
0000
0010
0300
0110
0000
2000
0000
,
3200
0010
1300
0100
,
1100
0100
1000
0001
1000
0100
0010
0100
,
1000
0001
0100
0001
1000
0010
0100
0010
,
1000
0100
0010
0001
1000
0100
0010
0001
,
1000
0010
0100
0001
1000
0010
0100
0001
,
0010
1000
0010
0001
0010
0100
0010
0001
,
1000
0010
0100
0010
0001
0010
0100
0010
,
1000
0001
0100
0010
1000
0001
0100
0010
,
1000
0001
0010
0100
1000
0001
1001
0000
,
1000
0000
1000
0000
0000
0010
0000
0100
0000
0010
0000
1000
0000
0000
0001
0000
,
0010
0000
0010
0000
0000
0100
0000
0010
0000
0001
0000
1000
0000
0001
0000
0010
,
0100
0000
0100
0000
0000
1000
0000
0100
0000
1000
0000
0001
0000
0000
0001
0000
,
0100
0000
0100
0000
0000
0010
0000
0100
0000
0010
0000
1000
0000
0001
0000
0010
,
0000
0100
0100
0100
;

//---------------dance-single - ----------------
#NOTEDATA:;
#CHARTNAME:X-Scale 4;
#STEPSTYPE:dance-single;
#DESCRIPTION:;
#CHARTSTYLE:;
#DIFFICULTY:Easy;
#METER:3;
#RADARVALUES:0.228999,0.309544,0.102655,0.150034,0.000000,203.000000,190.000000,13.000000,19.000000,0.000000,0.000000,0.000000,0.000000,0.000000,0.228999,0.309544,0.102655,0.150034,0.000000,203.000000,190.000000,13.000000,19.000000,0.000000,0.000000,0.000000,0.000000,0.000000;
#CREDIT:;
#NOTES:
0000
0000
0000
0000
,
0000
0000
0000
0000
,
0000
0000
0000
0000
,
0000
0000
0000
0000
,
0000
0000
0000
0000
,
0000
1000
0100
1000
,
0100
0010
0001
0010
,
0001
1000
0010
1000
,
0010
0100
0001
0100
,
0001
0101
0100
0010
,
1000
1010
0001
0100
,
0001
1000
1000
1000
,
0100
0010
0010
0010
,
0011
0010
0001
0000
1000
0000
0010
0000
,
1000
0010
1000
0000
0100
0000
0010
0000
,
0001
0010
0001
0000
0100
0000
0010
0000
,
1000
0010
1000
0000
0100
0000
1000
0000
,
1100
1000
0100
0000
0010
0000
0001
0000
,
0100
0010
0100
0000
0001
0000
1000
0000
,
0010
0100
0010
0000
1000
0000
0001
0000
,
0010
0001
0010
0000
0100
0000
1000
0100
,
0010
0100
0010
0100
,
1000
0001
1000
0001
,
0100
0010
0100
0010
,
1000
0001
1000
0001
,
0010
0100
0010
0100
,
1000
0010
1000
0010
,
0200
0320
0230
0320
,
2030
0000
0000
0000
0000
0000
0000
3000
,
1001
0001
0011
1000
,
1020
0230
0302
0203
,
0310
1000
1010
0001
,
0011
0000
0010
0000
0110
0100
1000
0001
,
1000
0000
0100
0000
1100
1000
0001
0100
,
0010
0100
0110
0002
,
2003
0010
3010
0200
,
0302
0000
0003
0000
,
0011
0000
0010
0001
1000
0000
0100
0000
,
0010
0100
0010
0001
,
1000
0000
0010
1000
0001
0000
0010
0001
,
1000
0000
0010
0000
1000
0100
0010
0100
,
1000
0000
0001
0000
0100
0010
1000
0010
,
0100
0001
1000
0200
,
0320
0001
0031
2000
,
3200
0010
0320
0230
,
1300
1000
0001
1000
,
0001
0010
0100
0010
,
0100
1000
0010
1000
,
0010
0100
0001
0100
,
0001
0000
0000
0000
;

//---------------dance-single - ----------------
#NOTEDATA:;
#CHARTNAME:X-Scale 1;
#STEPSTYPE:dance-single;
#DESCRIPTION:;
#CHARTSTYLE:;
#DIFFICULTY:Beginner;
#METER:1;
#RADARVALUES:0.100399,0.154772,0.015793,0.000000,0.000000,89.000000,87.000000,2.000000,0.000000,0.000000,0.000000,0.000000,0.000000,0.000000,0.100399,0.154772,0.015793,0.000000,0.000000,89.000000,87.000000,2.000000,0.000000,0.000000,0.000000,0.000000,0.000000,0.000000;
#CREDIT:;
#NOTES:
0000
0000
0000
0000
,
0000
0000
0000
0000
,
0000
0000
0000
0000
,
0000
0000
0000
0000
,
0000
0000
0000
0000
,
0000
0001
0000
1000
,
0000
0001
0000
1000
,
0000
0010
0000
0100
,
0000
0010
0000
0100
,
0000
0001
0000
1000
,
0000
0001
0000
1000
,
0000
0100
0100
0100
,
0000
0010
0010
0010
,
0001
0000
1000
0000
,
0001
0000
1000
0000
,
0100
0000
0010
0000
,
0100
0000
0010
0000
,
0001
0000
1000
0000
,
0001
0000
1000
0000
,
0010
0000
0100
0000
,
0010
0000
0100
0000
,
0001
0000
0010
0000
,
0100
0000
1000
0000
,
0001
0000
0010
0000
,
0100
0000
1000
0000
,
0001
0000
0100
0000
,
0010
0000
0100
0000
,
0001
0000
0100
0000
,
0010
0000
0000
0000
,
0110
0000
0100
0000
,
0001
0000
1000
0000
,
0001
0000
0010
0000
,
0100
0000
1000
0000
,
0001
0000
1000
0000
,
0010
0000
0100
0000
,
0010
0000
1000
0000
,
0001
0000
0000
0000
,
1001
0000
1000
0100
,
1000
0000
0001
0100
,
0001
0000
1000
0000
,
0010
0000
1000
0000
,
0001
0000
0010
0000
,
0100
0000
0010
0000
,
0001
0000
1000
0000
,
0001
0000
1000
0000
,
0010
0000
0000
0000
,
0100
0000
0000
0000
,
0010
0000
0000
0000
,
0100
0000
0000
0000
,
0001
0000
0000
0000
;
