#TITLE:Fresh;
#SUBTITLE:;
#ARTIST:Kawai Sprite;
#TITLETRANSLIT:;
#SUBTITLETRANSLIT:;
#ARTISTTRANSLIT:;
#GENRE:Oldskool Hip-Hop;
#CREDIT:;
#BANNER:Fresh-bn.png;
#BACKGROUND:Fresh-bg.png;
#LYRICSPATH:;
#CDTITLE:cdtitle.png;
#MUSIC:Fresh.ogg;
#OFFSET:-0.010000;
#SAMPLESTART:8.010000;
#SAMPLELENGTH:16.000000;
#SELECTABLE:YES;
#BPMS:0.000000=120.000000
;
#STOPS:
;
#BGCHANGES:;
#KEYSOUNDS:;
#ATTACKS:;

//---------------dance-single - ----------------
#NOTES:
     dance-single:
     X-Scale 13:
     Hard:
     9:
     0.556962,0.720235,0.224927,0.124959,0.231175,312.000000,294.000000,18.000000,10.000000,0.000000,0.000000,0.556962,0.720235,0.224927,0.124959,0.231175,312.000000,294.000000,18.000000,10.000000,0.000000,0.000000:
// measure 0
0000
0000
0000
0000
,  // measure 1
0000
0000
0000
0000
,  // measure 2
0000
0000
0000
0000
,  // measure 3
0000
0000
0000
0000
,  // measure 4
1001
1000
0001
0000
1000
0100
0001
0100
,  // measure 5
1000
0010
1000
0000
0001
1000
0010
0100
,  // measure 6
0010
0000
0001
0000
0010
0000
1000
0000
1000
0000
0000
0000
0100
0000
0010
0100
,  // measure 7
1000
0000
0010
0000
0100
0000
0010
0000
0010
1000
0001
0000
1000
0000
1000
0100
,  // measure 8
1000
0001
0100
0001
0001
0000
0010
0100
,  // measure 9
1000
0010
0100
0010
0010
0000
1000
0100
,  // measure 10
0001
0100
1000
0001
0010
0001
0010
0100
,  // measure 11
1000
0000
1000
0000
1100
0000
0000
1001
0000
0001
0100
0000
0001
0000
0010
0000
,  // measure 12
0011
0000
0110
0000
1000
1000
1010
0000
,  // measure 13
0001
1000
0010
1000
0001
0010
0001
0000
,  // measure 14
0011
0000
1001
0000
1000
1000
0100
1000
,  // measure 15
0001
0000
0100
0000
0010
0000
0100
0000
0001
0000
1000
0000
0001
0000
0100
0001
,  // measure 16
1000
0100
0010
0001
0001
1000
0001
0200
,  // measure 17
0310
0100
1000
0100
0002
0000
2003
0000
,  // measure 18
3010
0000
1000
0100
0001
0100
1000
0002
,  // measure 19
0013
0010
0100
1000
0002
0000
0203
0000
,  // measure 20
0310
0000
0100
0000
0001
0000
1000
0100
1000
0000
1001
0000
0001
0000
0001
0000
,  // measure 21
0010
0000
1000
0000
0010
0000
0001
1000
0010
0000
1010
0000
1000
0000
1000
0000
,  // measure 22
0100
0000
1000
0000
0001
0000
1000
0010
0100
0000
0110
0000
1000
0000
0001
0000
,  // measure 23
0010
0000
0001
0000
1000
0000
0001
0010
0001
0000
1001
0000
1000
0000
0010
0000
,  // measure 24
1000
0000
0100
0000
0001
0000
0100
0010
0001
1000
0001
0000
1000
0000
0001
0000
,  // measure 25
1000
0000
0010
0000
0100
0000
0010
1000
0001
1000
0010
0000
1000
0000
0100
0000
,  // measure 26
1000
0010
0010
1000
0001
0010
0100
1000
,  // measure 27
0100
0000
0100
0000
1100
0000
0000
0101
0000
0001
0100
0000
0101
0000
1000
0000
,  // measure 28
1001
1000
0001
0010
0100
0100
1000
0000
,  // measure 29
0001
0100
1000
0100
0001
1000
0001
0000
,  // measure 30
0010
0100
0010
0001
1000
1000
0010
0000
,  // measure 31
1000
0000
0100
0000
0001
0000
0100
0000
1000
0000
0001
0000
1000
0000
0010
1000
,  // measure 32
0001
0010
0100
0100
1000
0001
0100
0001
,  // measure 33
0010
0100
0010
0001
2000
0000
3200
0000
,  // measure 34
0310
0100
1000
1000
0001
0100
0001
0010
,  // measure 35
1000
0010
0001
1000
0020
0000
2030
0000
,  // measure 36
3001
0000
0000
0000
0001
0000
0000
0000
1001
0000
0000
0000
1000
0000
0100
0000
1000
0000
0100
0000
0010
0000
0001
0010
0001
0000
0000
0000
0100
0000
0010
0000
,  // measure 37
0100
0000
0100
0010
1000
0001
0010
0001
0000
0001
1000
0100
1000
0000
0010
0100
,  // measure 38
0001
0000
0001
0000
0101
0000
0001
0010
0100
1000
0010
0100
0001
0010
0100
1000
,  // measure 39
0100
0000
0100
1000
0000
0100
0010
0000
0001
1000
0000
0001
0100
0000
0000
0000
;

//---------------dance-single - ----------------
#NOTES:
     dance-single:
     X-Scale 10:
     Medium:
     7:
     0.448069,0.546385,0.199935,0.099968,0.062480,251.000000,235.000000,16.000000,8.000000,0.000000,0.000000,0.448069,0.546385,0.199935,0.099968,0.062480,251.000000,235.000000,16.000000,8.000000,0.000000,0.000000:
// measure 0
0000
0000
0000
0000
,  // measure 1
0000
0000
0000
0000
,  // measure 2
0000
0000
0000
0000
,  // measure 3
0000
0000
0000
0000
,  // measure 4
1000
0100
1000
0000
0001
0000
0100
0000
,  // measure 5
0001
1000
0001
0000
0010
0000
0100
0000
,  // measure 6
1000
0010
0100
0001
0001
0000
0010
0000
,  // measure 7
0100
0010
0001
1000
1000
0000
0010
0000
,  // measure 8
1000
0001
0100
0001
0001
0000
0010
0001
,  // measure 9
1000
0010
0100
0001
0001
0000
0010
0100
,  // measure 10
1000
0001
0000
0010
0100
0010
0000
0010
,  // measure 11
0001
1000
0000
0010
1000
0100
0000
0010
,  // measure 12
0110
0000
0100
0000
1000
0001
1000
0000
,  // measure 13
0001
0010
1000
0010
0100
1000
0001
0000
,  // measure 14
0100
0000
0010
0000
1000
0001
1000
0000
,  // measure 15
0010
1000
0001
0010
0100
0010
0001
0000
,  // measure 16
1001
0000
1000
0100
1000
0100
0010
0001
,  // measure 17
0000
1000
0001
0100
0020
0000
2030
0000
,  // measure 18
3001
0000
0010
0001
1000
0010
0100
0001
,  // measure 19
0000
0010
0100
1000
0020
0000
2030
0000
,  // measure 20
3001
1000
0001
0000
0010
0000
0010
0010
,  // measure 21
0100
1000
0001
0000
1000
0000
1000
1000
,  // measure 22
0100
0001
0100
0010
0010
0000
0001
0010
,  // measure 23
0001
1000
0010
0100
0100
0000
0001
0100
,  // measure 24
0001
1000
0010
1000
0001
0000
1000
0100
,  // measure 25
0001
0100
0010
0001
0010
0000
0100
0010
,  // measure 26
0001
1000
1000
1000
0010
1000
0000
0001
,  // measure 27
0010
0000
0100
0000
0100
0000
0100
0000
1000
0000
0001
0000
0000
0000
0100
0001
,  // measure 28
0100
0010
1000
0001
0010
0010
0100
0000
,  // measure 29
1000
0100
0001
0100
0010
0100
1000
0000
,  // measure 30
0001
0100
0010
0100
0001
0001
1000
0000
,  // measure 31
0001
0000
0100
0000
1000
0000
0100
0000
0010
0000
0100
0000
0001
0000
1000
0001
,  // measure 32
1000
0000
0100
0010
0100
1000
0001
0100
,  // measure 33
0101
0001
1000
0100
0020
0000
0032
0000
,  // measure 34
1003
0000
0010
1000
0001
0010
0100
1000
,  // measure 35
1100
0100
0010
0001
2000
0000
3002
0000
,  // measure 36
0013
0000
0010
0000
0011
0000
0000
1001
0000
1000
0010
0000
1010
0000
0000
0000
,  // measure 37
0010
0000
0010
0000
0110
0000
0000
1001
0000
0100
1000
0000
1100
0000
0000
0000
,  // measure 38
0001
0000
0001
0000
0011
0000
0000
0110
0000
0010
1000
0000
1010
0000
0000
0000
,  // measure 39
1000
0000
1000
0000
1100
0000
0000
1001
0000
1000
0001
0000
1001
0000
0000
0000
;

//---------------dance-single - ----------------
#NOTES:
     dance-single:
     X-Scale 6:
     Easy:
     4:
     0.310613,0.322864,0.149951,0.199935,0.000000,174.000000,162.000000,12.000000,16.000000,0.000000,0.000000,0.310613,0.322864,0.149951,0.199935,0.000000,174.000000,162.000000,12.000000,16.000000,0.000000,0.000000:
0000
0000
0000
0000
,
0000
0000
0000
0000
,
0000
0000
0000
0000
,
0000
0000
0000
0000
,
0001
0000
0000
2000
0000
0000
3010
1000
,
0001
0000
0000
0020
0000
0000
0130
0010
,
0001
0000
1000
0000
0001
0000
1000
0200
,
0010
1300
0100
1000
,
0002
0000
1003
0010
1000
0000
1010
0000
,
0001
0000
0010
0001
0010
0000
0011
0000
,
0001
0100
0000
0010
0100
0001
0000
2000
,
0000
0000
0000
3002
0000
0000
0003
0000
,
1001
0000
0010
0000
0001
0000
1000
0100
,
1000
0000
0010
0000
0100
0000
0001
0010
,
0001
0000
1000
0000
0010
0000
1000
0100
,
1000
0000
0001
0000
0010
0000
0100
0010
,
0100
0000
1000
0000
0001
0100
0001
1000
,
0000
0100
1000
0001
0020
0000
0032
0000
,
1003
0000
0100
0000
1000
0001
0100
0010
,
0000
0100
0001
0010
0200
0000
2300
0000
,
3001
0000
1000
0000
0100
0000
0010
0100
,
0010
0000
0001
0000
0100
0000
0010
0100
,
0010
0000
0001
0000
1000
0000
0010
1000
,
0001
0000
0010
0000
0100
0000
1000
0100
,
0010
0000
0001
0000
0100
0000
0001
1000
,
0010
0000
0100
0000
0001
0000
0010
0001
,
1000
0000
0010
0000
1000
0000
0001
0020
,
0000
0000
0000
0032
0000
0000
0003
0000
,
0011
0000
0001
0000
1000
0001
1000
0000
,
0010
0000
1000
0000
0100
0010
0100
0000
,
1000
0000
0001
0000
0010
0100
0010
0000
,
0001
0000
1000
0000
0010
1000
0010
0000
,
0100
0000
0001
0000
1000
0100
0010
0001
,
0000
0100
0001
0010
0002
0000
2003
0000
,
3010
0000
1000
0000
0001
0010
0100
1000
,
0000
0010
1000
0001
0200
0000
0302
0000
,
0003
1001
0000
1100
,
0000
0101
0000
1001
,
0000
0110
0000
1010
,
0000
0101
0000
1001
;

//---------------dance-single - ----------------
#NOTES:
     dance-single:
     X-Scale 2:
     Beginner:
     2:
     0.142811,0.173850,0.037488,0.000000,0.000000,80.000000,77.000000,3.000000,0.000000,0.000000,0.000000,0.142811,0.173850,0.037488,0.000000,0.000000,80.000000,77.000000,3.000000,0.000000,0.000000,0.000000:
0000
0000
0000
0000
,
0000
0000
0000
0000
,
0000
0000
0000
0000
,
0000
0000
0000
0000
,
1000
0000
0000
0100
0000
0000
0000
1000
,
0000
0000
0000
0001
0000
0000
0000
0010
,
0000
0000
0000
0100
0000
0000
0000
0010
,
0000
0000
0000
0001
0000
0000
0000
0000
,
1000
0000
0000
0001
0000
0000
0000
0010
,
0000
0000
0000
0001
0000
0000
0000
1000
,
0000
0000
0000
0010
0000
0000
0000
1000
,
0000
0000
0000
0001
0000
0000
0000
0000
,
1001
0000
1000
0000
,
0001
0000
0010
0100
,
0010
0000
0001
0000
,
1000
0000
0100
0010
,
0100
0000
1000
0000
,
0001
0000
0010
0001
,
0010
0000
0100
0000
,
1000
0000
0100
0010
,
0100
0000
0000
0010
0000
0000
0000
0001
,
0000
0000
0000
1000
0000
0000
0000
0001
,
0000
0000
0000
0100
0000
0000
0000
0010
,
0000
0000
0000
0100
0000
0000
0000
0000
,
0001
0000
0000
1000
0000
0000
0000
0001
,
0000
0000
0000
0010
0000
0000
0000
0100
,
0000
0000
0000
1000
0000
0000
0000
0001
,
0000
0000
0000
0100
0000
0000
0000
0000
,
1001
0000
1000
0000
,
0100
0000
1000
0001
,
1000
0000
0010
0000
,
0100
0000
0001
0100
,
0001
0000
0010
0000
,
0100
0000
1000
0100
,
1000
0000
0001
0000
,
1000
0000
0100
0010
,
0100
0000
0000
0000
,
1000
0000
0000
0000
,
0001
0000
0000
0000
,
1000
0000
0000
1001
;
