#TITLE:Freefallin';
#SUBTITLE:;
#ARTIST:Zoƫ Badwi;
#TITLETRANSLIT:;
#SUBTITLETRANSLIT:;
#ARTISTTRANSLIT:;
#GENRE:Dance;
#CREDIT:;
#BANNER:freefallin'-bn.png;
#BACKGROUND:freefallin'-bg.png;
#LYRICSPATH:;
#CDTITLE:cdtitle.png;
#MUSIC:freefallin'.ogg;
#OFFSET:-0.002000;
#SAMPLESTART:45.001999;
#SAMPLELENGTH:30.000000;
#SELECTABLE:YES;
#BPMS:0.000000=64.000000
,48.000000=128.000000
,112.000000=64.000000
,136.000000=128.000000
,200.000000=64.000000
;
#STOPS:
;
#BGCHANGES:0.000=freefallin'.avi=1.000=1=0=0=StretchNoLoop==CrossFade==,
99999=-nosongbg-=1.000=0=0=0 // don't automatically add -songbackground-
;
#KEYSOUNDS:;
#ATTACKS:;

//---------------dance-single - ----------------
#NOTES:
     dance-single:
     X-Scale 12:
     Hard:
     8:
     0.489775,0.513699,0.037675,0.324005,0.614102,455.000000,450.000000,5.000000,43.000000,0.000000,0.000000,0.489775,0.513699,0.037675,0.324005,0.614102,455.000000,450.000000,5.000000,43.000000,0.000000,0.000000:
0000
0000
0000
0000
,
0000
0000
0000
0000
,
0000
1000
0100
0010
0001
0100
0010
1000
0000
0001
1000
0010
0200
0000
0301
2000
,
3000
0000
0000
0100
0000
0000
0010
0000
0000
0001
0000
0000
0010
0000
0000
1000
0000
0000
0010
0000
0000
0002
0000
0000
0003
0000
0000
0020
0000
0000
0030
0000
0000
0200
0000
0000
0300
0000
0000
2000
0004
0000
3000
0000
0000
0000
0000
0000
,
1003
0000
0001
0000
0010
0000
0001
0000
0200
0000
0000
0000
0310
0000
1000
0000
0010
0200
0000
0000
0000
0000
0000
0000
0000
0000
0000
0300
0000
0000
0002
0000
,
0000
0000
1003
0001
0010
0100
0010
0002
0000
0000
1000
0003
0001
0000
1000
0000
,
0100
0000
0010
0000
0001
0000
1000
0000
0001
0000
0100
0000
1000
0000
0100
0000
0002
0000
0000
0000
0000
0000
0000
0000
1003
0001
2000
0000
0000
0000
3100
0000
,
0000
0001
0100
1000
0010
1000
0100
0020
0000
0000
0000
0032
0000
0043
0000
0000
,
0031
0000
0010
0000
1000
0000
0001
0000
0100
0000
1000
0000
0001
0000
0200
0000
0000
0000
0000
0000
0310
0000
2000
0000
3000
0200
0000
0000
0300
0000
0010
0000
,
0000
1000
0001
1000
0010
0100
0010
2000
0000
0000
0000
3200
0000
0310
0002
0003
,
1000
0010
0001
0010
0100
0010
1000
0002
0003
0200
0300
0020
0030
2000
3000
0100
,
0000
1000
0100
0001
0100
0010
0001
0002
0000
0000
0003
0000
0000
1000
0200
0300
,
1100
0000
1000
0000
0001
0000
0000
0010
0001
0000
1000
0000
0001
0000
0010
0100
,
0010
0000
0001
0000
1000
0000
0000
0010
1000
0000
0001
0000
0010
0000
0100
0010
,
0100
1000
0001
0010
0000
0100
0010
0001
,
1000
0010
0100
0001
0000
0010
0100
0010
,
0100
0000
1000
0000
0001
0000
0000
0100
0001
0000
1000
0000
0010
0000
0100
0010
,
0100
0000
0001
0000
0010
0000
0000
0100
0010
0000
0001
0000
1000
0000
0010
1000
,
0010
0100
0010
1000
0000
0100
1000
0001
,
0100
0000
0010
0000
0001
0000
0010
0000
1000
0010
1000
0010
0100
0001
0100
0001
,
0010
0000
0100
0000
0010
0000
0000
0001
0010
0000
0100
0000
1000
0000
0001
0010
,
0100
0000
0010
0000
0001
0000
1000
0100
0010
0000
0100
0000
1000
0000
0001
1000
,
0010
0000
0100
0000
0001
0000
0000
1000
0010
0000
1000
0000
0001
0000
0010
0100
,
0010
0000
0001
0000
1000
0000
0000
0100
0010
0001
0010
0001
1000
0010
1000
0010
,
0100
0000
0010
0000
0100
0000
0000
0001
1000
0000
0100
0000
0010
0000
0001
0100
,
0010
0000
0100
0000
0010
0000
1000
0010
0100
0000
0010
0000
0100
0000
0001
0010
,
0100
0000
1000
0000
0001
0000
0000
1000
0010
0000
1000
0000
0001
0000
0010
0100
,
1000
0100
0020
0000
0032
4000
0003
0010
,
3020
0000
0000
0000
0000
0000
0000
2000
0000
0000
0000
0000
0000
0000
3000
1000
,
0030
0010
0000
1000
0000
0001
0000
0020
0000
0000
0000
0000
0000
0000
0000
0030
,
0120
0000
0000
0100
0000
0000
0200
0000
0000
0000
0000
0000
0330
0000
0020
0000
0000
0000
0031
0010
0100
1000
0000
0010
1000
0000
0010
1000
0000
0010
1000
0000
,
0000
0000
0001
0000
0000
0000
0010
0000
0000
0000
0100
0000
0000
0000
0200
0000
0000
0000
0000
0010
0000
0000
1000
0000
1000
0000
0010
0000
2300
0000
3000
0000
,
1100
0000
0000
1000
0000
0000
0001
0000
0100
0000
0000
0010
0000
0000
0100
0000
0001
0000
0000
0010
0000
0000
0100
0000
1000
0000
0000
0001
0000
0000
1000
0000
,
0100
0000
0000
0010
0000
0000
0001
0000
0100
0000
0000
0010
0000
0000
0100
0000
0001
0000
0000
0010
0000
0000
0100
0000
1000
0000
0010
0000
0200
0000
0300
0000
,
1010
0000
1000
0000
0001
0000
1000
0100
0010
0000
0100
0000
1000
0000
0001
1000
,
0010
0000
0001
0000
0010
0000
0100
0010
1000
0000
0001
0000
1000
0000
0100
0010
,
0001
0000
0100
0000
1000
0000
0100
0010
0100
0000
0001
0000
0100
0000
1000
0000
,
0100
0000
0010
0000
1000
0000
0001
1000
0001
0000
0010
0000
0200
0000
0000
0300
,
1000
0000
0100
0000
1000
0000
0010
1000
0001
0000
0010
0000
0100
0000
1000
0001
,
0100
0000
0010
0000
0100
0000
0001
0010
0100
0000
1000
0000
0001
0000
0100
0001
,
1000
0100
0010
0100
1000
0001
0100
0010
,
0100
0000
1000
0000
0100
0000
0001
0000
0010
0100
0010
0100
1000
0001
1000
0001
,
0010
0000
0100
0000
0010
0000
0001
1000
0001
0000
0000
0010
0100
0000
1000
0000
,
0001
0000
0000
0100
0001
0000
1000
0100
0010
0000
0000
0100
0010
0000
0001
0000
,
1000
0000
0001
0000
0100
0000
0010
0000
0100
0000
0000
0001
1000
0000
0100
0000
,
0010
0000
0000
0100
1000
0000
0001
0000
0100
0010
0100
0010
1000
0001
1000
0001
,
0010
0000
0100
0000
1000
0000
0000
0001
1000
0000
0100
0010
0000
0000
0100
1000
,
0100
0000
1000
0000
0001
0000
0000
0010
0100
0000
0010
0001
0000
0000
1000
0001
,
1000
0000
0100
0000
0020
0000
0000
0000
0032
0000
0000
1000
0003
0000
0001
0000
,
1001
0000
1000
0000
0020
0000
0000
0000
2030
0000
0000
0004
3000
0000
0000
0000
,
0023
0000
0030
0000
;

//---------------dance-single - ----------------
#NOTES:
     dance-single:
     X-Scale 8:
     Medium:
     6:
     0.359527,0.513699,0.075350,0.625405,0.369215,334.000000,324.000000,10.000000,83.000000,0.000000,0.000000,0.359527,0.513699,0.075350,0.625405,0.369215,334.000000,324.000000,10.000000,83.000000,0.000000,0.000000:
0000
0000
0000
0000
,
0000
0000
0000
0000
,
0002
0000
0000
0000
0000
0000
0000
0000
1000
0000
0000
0000
0000
0003
2000
0000
0000
0000
0000
0000
0000
0000
0000
0000
0100
0000
0000
0000
0000
3000
0200
0000
,
0000
0000
0000
0000
0000
0000
0000
0000
1000
0000
0010
0000
1000
0300
0020
0000
0000
0030
0002
0000
0000
0003
2000
0000
0000
3000
0002
0000
0000
0000
0000
0003
,
1002
0000
0000
0000
0000
0000
0000
0000
0200
0000
0000
0000
0300
0003
2000
0000
0000
0020
0000
0000
0000
0000
0000
0000
0000
0000
0030
0000
0000
3000
0020
0000
,
0000
0000
0000
0000
1000
0000
0000
0000
0001
0000
0000
0000
0130
0000
0200
0000
0000
0000
0000
0000
0000
0000
0010
0000
0000
0000
0000
0010
0000
0000
0300
0000
,
0020
0000
0000
0000
0000
0000
0000
0000
0001
0000
0000
0000
1000
0030
0100
0000
2000
0000
0000
0000
0000
0000
0000
3000
0100
1000
0100
0000
0000
0000
0200
0000
,
0000
0000
0000
0000
0001
0000
0000
0000
0010
0000
0000
0000
1000
0300
2000
0000
0000
0000
0000
0000
0000
3000
0002
0000
0000
0003
0200
0300
0002
0000
0003
0000
,
0101
0100
0010
0100
0001
1000
0100
0020
0000
0000
0031
1000
0000
0001
0000
0010
,
0000
0000
1000
0000
0010
0000
0001
0000
0010
0000
0100
0000
0010
0000
0002
0000
0000
0000
0000
0000
0000
0003
2000
0000
0000
3000
0200
0300
2000
0000
0000
3000
,
0001
0000
0010
0000
0100
0000
1000
0000
0010
0000
0100
0000
0001
0000
2000
0000
0000
3000
0200
0000
0000
0300
2000
0000
0000
3000
0002
0000
0000
0003
0010
0000
,
0000
0000
0001
0000
0010
0000
1000
0000
0001
0000
0100
0000
1000
0000
2000
0000
0000
0000
0000
0000
0000
0000
0000
0000
0000
0000
0000
0000
0000
3000
0000
0000
,
1200
0000
0000
0001
0000
0000
1000
0000
1000
0000
0000
0010
0300
0000
0100
0000
,
1000
0000
0001
0000
0100
0000
0010
0000
0010
0000
0000
0100
0000
0000
0001
0000
,
1000
0000
0100
0000
0010
0000
0002
0000
0000
0003
1000
0000
0001
0000
0100
0000
,
0010
0000
0001
0000
0010
0000
2000
0000
0000
3000
0001
0000
0020
0000
0000
0030
,
0200
0000
0000
0001
0000
0000
1000
0000
1000
0000
0000
0010
0300
0000
0100
0000
,
1000
0000
0001
0000
0100
0000
0010
0000
0010
0000
0000
1000
0000
0000
0001
0000
,
0010
0000
1000
0000
0010
0000
0002
0000
0000
0003
1000
0000
0100
0000
0001
0000
,
0100
0000
0010
0000
0001
0000
1000
0000
0010
0000
1000
0000
0001
0000
0010
0001
,
0020
0000
0001
0000
0100
0230
2300
3002
,
0000
2003
3200
0320
0000
0032
2003
0000
,
3100
0000
2000
0000
3002
0000
0013
0100
,
1000
0001
0200
0000
0320
0000
2030
0000
,
3200
0000
0001
0000
1000
2300
3200
0320
,
0000
0032
2003
3020
0000
0230
0302
0000
,
0013
0000
0001
0000
2000
0000
0000
0000
3200
0000
0000
0000
0310
0000
0100
1000
,
0200
0000
0000
0000
0000
0000
0300
0010
,
0110
0000
0000
0000
0000
0000
0000
0001
0000
0000
0000
0000
0000
0000
0000
1000
,
0000
0100
0000
1000
0000
0000
0000
0001
0000
1000
0000
0001
0000
0000
0000
0000
,
0110
0000
0000
0100
0000
0000
0100
0000
0000
0000
0000
0000
0000
0000
0002
0000
0003
0000
2000
0000
0000
0000
0000
0000
3100
0000
0000
0000
1000
0000
0001
0000
,
0000
0100
0000
0001
0000
0000
0000
0010
0000
0100
0000
0010
0000
0001
1000
0000
,
1001
0000
0000
0001
0000
0000
0010
0000
1000
0000
0000
0001
0000
0000
0100
0000
1000
0000
0000
0001
0000
0000
0100
0000
1000
0000
0000
0001
0000
0000
0010
0000
,
1000
0000
0000
0001
0000
0000
0010
0000
1000
0000
0000
0001
0000
0000
0100
0000
1000
0000
0000
0001
0000
0000
1000
0000
0100
0000
0010
0000
0001
0000
0000
0000
,
0011
0000
0000
0001
1000
0000
0100
0000
0100
0000
0000
0010
0100
0000
1000
0000
,
0001
0000
0000
0010
0001
0000
1000
0000
1000
0000
0000
0010
0100
0000
0010
0000
,
1000
0001
0010
0200
0000
1300
0001
0100
,
0010
0100
0001
2000
0000
3100
0020
0000
,
0031
0000
0000
0100
0010
0000
1000
0000
1000
0000
0000
0100
0010
0000
0001
0000
,
1000
0000
0000
0001
0010
0000
0100
0000
0100
0000
0000
0010
0100
0000
0010
0000
,
0001
1000
0001
0200
0000
0310
0100
1000
,
0100
0001
0010
0100
2000
0000
3001
0000
,
2001
0000
0100
0000
3010
1000
0100
0020
,
0000
1030
0010
0002
0000
0013
0200
0000
,
1300
0000
0000
0100
0000
0000
1000
0000
1000
0000
0000
0001
0000
0000
0010
0000
,
0010
0000
0000
0100
0000
0000
1000
0000
1000
0000
0000
0001
0000
0000
0010
0000
,
0020
0000
0100
0000
0000
0031
1000
0200
,
0000
0310
0100
2000
0000
3001
0020
0000
,
0030
0100
0020
0000
0032
0000
1003
0001
,
1001
1000
0020
0000
0230
0000
0300
0000
,
0220
0000
0330
0000
;

//---------------dance-single - ----------------
#NOTES:
     dance-single:
     X-Scale 5:
     Easy:
     3:
     0.205598,0.282562,0.105490,0.113025,0.101723,191.000000,177.000000,14.000000,15.000000,0.000000,0.000000,0.205598,0.282562,0.105490,0.113025,0.101723,191.000000,177.000000,14.000000,15.000000,0.000000,0.000000:
0000
0000
0000
0000
,
0000
0000
0000
0000
,
0010
0000
0000
0000
0000
0000
0000
0100
0000
0000
0000
0000
0000
0000
0000
0001
,
0000
0000
0000
0000
0000
0000
0000
1000
0000
0000
0000
0000
0000
0000
0000
0000
,
1100
0000
0000
0000
0000
0000
0000
0001
0000
0000
0000
0000
0000
0000
0000
0010
,
0000
0000
0000
0000
0000
0000
0000
0100
0000
0000
0000
0000
0000
0000
0000
0000
,
1000
0000
0000
0000
0000
0000
0000
0001
0000
0000
0000
0000
0000
0000
0000
0100
,
0000
0000
0000
0000
0000
0000
0000
0001
0000
0000
0000
0000
0000
0000
0000
0000
,
1001
0000
0000
0000
0000
0000
0000
0100
0000
0000
0000
0000
0000
0000
0000
1000
,
0000
0000
0000
0000
0000
0000
0000
0001
0000
0000
0000
0000
0000
0000
0000
0000
,
0010
0000
0000
0000
0000
0000
0000
0001
0000
0000
0000
0000
0000
0000
0000
1000
,
0000
0000
0000
0000
0000
0000
0000
0100
0000
0000
0000
0000
0000
0000
0000
0000
,
1200
0000
0010
0000
1000
0000
0310
0200
,
0000
0300
2000
0000
0001
0000
0000
0000
0000
0000
3000
0000
0001
0000
0000
0000
,
1000
0010
1000
0001
,
0010
0100
0010
0001
,
0210
0000
0001
0000
0010
0000
0301
0200
,
0000
0300
0020
0000
1000
0000
0000
0000
0000
0000
1030
0000
0010
0000
1000
0000
,
0001
0010
0100
0010
,
0001
1000
0010
1000
,
1001
0001
0100
0001
,
0010
0000
0100
0000
0010
0001
0010
0000
,
0100
0000
1000
0000
0001
0000
0010
0100
,
0010
0001
1000
0010
,
1000
0100
0010
0100
,
1000
0001
0100
0001
,
1000
0010
0100
0001
,
1001
0000
0000
0000
0000
0000
0000
1000
,
1100
0000
0000
0000
0000
0000
0000
0010
0000
0000
0000
0000
0000
0000
0000
1000
,
0000
0000
0000
0000
0000
0000
0000
0001
0000
0000
0000
0000
0000
0000
0000
0000
,
1002
0000
0000
0000
0000
0000
0003
1000
0000
0200
0000
0000
0300
0000
0000
1000
,
0000
0000
0000
0000
0000
0000
0000
0001
0000
0000
0000
0000
0000
1000
0001
0000
,
2001
0000
0000
0000
0000
0000
0000
0010
0000
0000
0000
0000
0000
0000
0000
0001
,
0000
0000
0000
0000
0000
0000
0000
0100
0000
0000
0000
0000
3000
0100
1000
0000
,
1200
0000
0010
0000
1000
0000
0310
0002
,
0000
0003
0200
0000
0010
0000
0000
0000
0000
0000
0000
0000
0310
0000
0000
0000
,
1000
0100
0010
0001
0000
1000
0010
0100
,
0010
1000
0001
1000
0000
0100
0010
0000
,
0102
0000
1000
0000
0100
0000
1003
0200
,
0000
0300
0020
0000
0001
0000
0000
0000
0000
0000
0031
0000
0010
0000
0100
0000
,
1000
0001
1000
0100
0000
0010
0100
0010
,
0001
1000
0001
0100
0001
0000
0010
0000
,
1001
0000
1000
0000
0100
0000
1000
0010
,
1000
0000
0001
0000
0100
0000
0001
0010
,
0001
0000
1000
0000
0100
0000
0010
0100
,
1000
0001
1000
0000
0010
0000
0000
0000
,
0001
1000
0000
1000
,
0000
0100
0000
0100
,
0000
0010
0001
0000
,
1001
1000
0010
0000
,
1010
0000
0000
0000
;

//---------------dance-single - ----------------
#NOTES:
     dance-single:
     X-Scale 2:
     Beginner:
     1:
     0.088267,0.207212,0.060280,0.000000,0.000000,82.000000,74.000000,8.000000,0.000000,0.000000,0.000000,0.088267,0.207212,0.060280,0.000000,0.000000,82.000000,74.000000,8.000000,0.000000,0.000000,0.000000:
// measure 0
0000
0000
0000
0000
,  // measure 1
0000
0000
0000
0000
,  // measure 2
0000
0000
0000
0000
,  // measure 3
0000
0000
0000
0000
,  // measure 4
1001
0000
0000
0000
,  // measure 5
0000
0000
0000
0000
,  // measure 6
0100
0000
0000
0000
,  // measure 7
0000
0000
0000
0000
,  // measure 8
0110
0000
0000
0000
,  // measure 9
0000
0000
0000
0000
,  // measure 10
0001
0000
0000
0000
,  // measure 11
0000
0000
0000
0000
,  // measure 12
1001
0000
1000
0000
,  // measure 13
0100
0000
1000
0000
,  // measure 14
0100
0000
0010
0000
,  // measure 15
0001
0000
0010
0000
,  // measure 16
0001
0000
0100
0000
,  // measure 17
0010
0000
0100
0000
,  // measure 18
0010
0000
1000
0000
,  // measure 19
0001
0000
1000
0000
,  // measure 20
0001
0000
0010
0000
,  // measure 21
0100
0000
0010
0000
,  // measure 22
0100
0000
1000
0000
,  // measure 23
0100
0000
1000
0000
,  // measure 24
0001
0000
1000
0000
,  // measure 25
0001
0000
0100
0000
,  // measure 26
0010
0000
0100
0000
,  // measure 27
0010
0000
0000
0000
,  // measure 28
1001
0000
0000
0000
,  // measure 29
0000
0000
0000
0000
,  // measure 30
0110
0000
0000
0000
,  // measure 31
0000
0000
0000
0000
,  // measure 32
1001
1000
0100
0010
,  // measure 33
0001
0100
0010
1000
,  // measure 34
1001
0000
0001
0000
,  // measure 35
0010
0000
0001
0000
,  // measure 36
1000
0000
0001
0000
,  // measure 37
0010
0000
0100
0000
,  // measure 38
0010
0000
0001
0000
,  // measure 39
1000
0000
0100
0000
,  // measure 40
0010
0000
0100
0000
,  // measure 41
1000
0000
0001
0000
,  // measure 42
0100
0000
0001
0000
,  // measure 43
1000
0000
0001
0000
,  // measure 44
0100
0000
0001
0000
,  // measure 45
1000
0000
0100
0000
,  // measure 46
0010
0000
0000
0000
,  // measure 47
0001
0000
0000
0000
,  // measure 48
1000
0000
0000
0000
,  // measure 49
0001
0000
0000
0000
,  // measure 50
1001
0000
0000
0000
;
