#VERSION:0.83;
#TITLE:Freaky Boyz;
#SUBTITLE:;
#ARTIST:Donk Terrorist;
#TITLETRANSLIT:;
#SUBTITLETRANSLIT:;
#ARTISTTRANSLIT:;
#GENRE:Scouse;
#ORIGIN:;
#CREDIT:;
#BANNER:fb-bn.png;
#BACKGROUND:fb-bg.png;
#PREVIEWVID:;
#JACKET:fb-jacket.png;
#CDIMAGE:;
#DISCIMAGE:;
#LYRICSPATH:;
#CDTITLE:cdtitle.png;
#MUSIC:fb.ogg;
#OFFSET:0.000000;
#SAMPLESTART:61.935001;
#SAMPLELENGTH:12.000000;
#SELECTABLE:YES;
#BPMS:0.000=155.000;
#STOPS:;
#DELAYS:;
#WARPS:;
#TIMESIGNATURES:0.000=4=4;
#TICKCOUNTS:0.000=4;
#COMBOS:0.000=1;
#SPEEDS:0.000=1.000=0.000=0;
#SCROLLS:0.000=1.000;
#FAKES:;
#LABELS:0.000=Song Start;
#BGCHANGES:;
#KEYSOUNDS:;
#ATTACKS:
;

//---------------dance-single - ----------------
#NOTEDATA:;
#CHARTNAME:;
#STEPSTYPE:dance-single;
#DESCRIPTION:;
#CHARTSTYLE:;
#DIFFICULTY:Medium;
#METER:7;
#RADARVALUES:0.342390,0.448953,0.157314,0.018508,0.000000,259.000000,242.000000,17.000000,2.000000,0.000000,0.000000,2.000000,0.000000,0.000000,0.342390,0.448953,0.157314,0.018508,0.000000,259.000000,242.000000,17.000000,2.000000,0.000000,0.000000,2.000000,0.000000,0.000000;
#CREDIT:;
#NOTES:
// measure 0
0000
0000
0000
0000
,  // measure 1
0000
0000
0000
0000
,  // measure 2
0000
0000
0000
0000
,  // measure 3
0000
0000
0000
0000
,  // measure 4
0000
0000
0000
0000
,  // measure 5
0000
0000
0000
0000
,  // measure 6
0000
0000
0000
0000
,  // measure 7
0000
0000
0000
0000
,  // measure 8
0110
0100
0010
0100
0010
0000
0010
0000
,  // measure 9
0100
0000
0000
0010
0000
0000
1000
0000
,  // measure 10
0001
0000
0001
0000
1000
0000
0100
0010
,  // measure 11
0100
0100
0010
0000
,  // measure 12
0010
0001
0010
0100
1000
0000
0100
0000
,  // measure 13
0001
0000
0000
0010
0000
0000
0100
0000
,  // measure 14
0010
0000
0010
0000
0100
0000
0001
1000
,  // measure 15
0001
0001
1000
0000
,  // measure 16
1001
1000
0010
0100
,  // measure 17
0001
1000
0010
0100
,  // measure 18
0001
1000
0010
0100
,  // measure 19
0001
1000
0010
0100
,  // measure 20
0001
1000
0001
0100
,  // measure 21
0010
1000
0100
0010
,  // measure 22
0001
0010
1000
0010
,  // measure 23
0001
0000
0100
0000
0010
1000
0010
0000
,  // measure 24
1001
1000
0000
0100
0000
0001
0000
0100
,  // measure 25
0000
1000
0000
0010
0000
0100
0000
0001
,  // measure 26
0000
0010
0000
1000
0000
0010
0000
0001
,  // measure 27
0000
0100
0000
0010
0000
1000
0000
0100
,  // measure 28
1100
0001
1000
0010
,  // measure 29
1010
0001
0010
0001
,  // measure 30
0110
0010
0100
1000
,  // measure 31
1010
0000
0000
0000
0000
0000
0000
0000
0010
0000
0000
0000
4000
0000
0000
3000
,  // measure 32
1010
1000
0010
0100
0010
0000
1000
0000
,  // measure 33
0000
1000
0000
0000
0001
0000
0001
0000
,  // measure 34
0001
0010
0100
0010
0001
0000
1000
0000
,  // measure 35
0000
0010
0000
0000
1000
0000
1000
0000
,  // measure 36
1000
0100
0010
0100
1000
0000
0001
0000
,  // measure 37
0000
0010
0000
0000
0001
0000
0001
0000
,  // measure 38
0001
0100
0010
1000
0001
0000
0010
0000
,  // measure 39
0000
0100
0000
0000
0010
0000
0010
0000
,  // measure 40
0011
0010
0001
0010
0001
0000
1000
0001
,  // measure 41
1000
0010
0001
0010
1000
0000
1000
0000
,  // measure 42
0001
0000
0001
0000
1000
0000
0100
0010
,  // measure 43
0001
0001
1000
0040
,  // measure 44
0130
0010
0100
0010
0100
0000
0001
1000
,  // measure 45
0001
0010
1000
0010
0001
0000
0001
0000
,  // measure 46
1000
0000
1000
0000
0001
0000
1000
0100
,  // measure 47
0010
0000
0000
0000
0100
0000
0000
0000
1000
0000
0000
0000
0200
0000
0000
0300
,  // measure 48
1100
0000
0000
1000
0000
0000
0001
0000
,  // measure 49
0000
1000
0000
0000
0001
0000
0100
0000
,  // measure 50
0101
0000
0000
0010
0000
0000
1000
0000
,  // measure 51
0000
0100
0000
0000
0010
0000
0100
0000
,  // measure 52
0110
0000
0000
0010
0000
0000
0100
0000
,  // measure 53
0000
1000
0000
0000
0001
0000
0010
0000
,  // measure 54
0011
0000
0000
0100
0000
0000
0001
0000
,  // measure 55
0000
1000
0000
0000
0010
0000
1000
0000
,  // measure 56
1010
1000
0010
0100
,  // measure 57
0001
0010
1000
0010
,  // measure 58
0001
1000
0001
0010
,  // measure 59
0100
1000
0100
0010
,  // measure 60
0110
0010
0100
1000
,  // measure 61
0001
1000
0100
0010
,  // measure 62
0001
1000
0010
0100
,  // measure 63
1001
1000
0001
1000
0001
0100
0010
0100
,  // measure 64
1010
0000
0000
0000
0010
0000
0000
0000
2000
0000
0000
3000
0000
0000
0000
0000
;

//---------------dance-single - ----------------
#NOTEDATA:;
#CHARTNAME:;
#STEPSTYPE:dance-single;
#DESCRIPTION:;
#CHARTSTYLE:;
#DIFFICULTY:Hard;
#METER:9;
#RADARVALUES:0.535397,0.688172,0.138807,0.027761,0.175822,405.000000,390.000000,15.000000,3.000000,0.000000,0.000000,3.000000,0.000000,0.000000,0.535397,0.688172,0.138807,0.027761,0.175822,405.000000,390.000000,15.000000,3.000000,0.000000,0.000000,3.000000,0.000000,0.000000;
#CREDIT:;
#NOTES:
// measure 0
0000
0000
0000
0000
,  // measure 1
0000
0000
0000
0000
,  // measure 2
0000
0000
0000
0000
,  // measure 3
0000
0000
0000
0000
,  // measure 4
0000
0000
0000
0000
,  // measure 5
0000
0000
0000
0000
,  // measure 6
0000
0000
0000
0000
,  // measure 7
0000
0000
0000
0000
,  // measure 8
1001
1000
0010
0100
0001
0000
0010
0100
,  // measure 9
0010
0001
0010
0100
1000
0000
1000
0000
,  // measure 10
0001
0000
0001
0000
1000
0000
0100
0010
,  // measure 11
0100
0000
0000
0000
1000
0000
0000
0000
0010
0000
0000
0000
1000
0001
1000
0001
,  // measure 12
1000
0001
0010
0100
1000
0000
0100
0010
,  // measure 13
0001
0010
0100
0010
0001
0000
0100
0000
,  // measure 14
0001
1000
0010
1000
0001
1000
0010
1000
0001
1000
0010
1000
0001
1000
0010
1000
,  // measure 15
0001
0001
1000
0000
,  // measure 16
0101
0000
1000
0001
0010
0000
0100
1000
,  // measure 17
0001
0000
1000
0100
0010
0000
0100
0010
,  // measure 18
0001
0000
0001
0100
1000
0000
0100
0001
,  // measure 19
0010
0000
0001
0100
0001
0000
1000
0001
,  // measure 20
1000
0000
1000
0010
0100
0000
0001
0100
,  // measure 21
0010
0000
1000
0001
0010
0000
0100
1000
,  // measure 22
0100
0000
0010
0001
0010
0000
0100
0010
,  // measure 23
0100
0000
0000
0000
0100
0000
4000
0000
3100
0000
1000
0000
0010
0000
1000
0010
,  // measure 24
1010
1000
0100
1000
0100
0010
0100
0010
,  // measure 25
0001
0010
0001
0100
0001
0100
0010
0100
,  // measure 26
0010
1000
0010
1000
0100
1000
0100
0010
,  // measure 27
0100
0000
0010
0000
0001
0000
0100
0000
0001
0000
0100
0000
0001
0000
0100
0010
,  // measure 28
0100
0000
0010
0000
1000
0000
0100
0000
1000
0000
0100
0000
0010
0000
0001
0010
,  // measure 29
0001
0000
0100
0000
0001
0000
0100
0000
0010
0000
1000
0000
0100
0000
0010
0100
,  // measure 30
0010
0000
0001
0000
0010
0000
0100
0000
1000
0000
0010
0000
0100
0000
0001
0100
,  // measure 31
0001
0000
0000
0000
0100
0000
0000
0000
0010
1000
0010
1000
0040
0000
0030
0000
,  // measure 32
0110
0000
0100
0000
0010
0000
0100
0000
0010
0000
0000
0000
1000
0000
0010
1000
,  // measure 33
0000
0000
1000
0000
0001
0000
1000
0000
0010
0000
0000
0000
0010
0000
0000
0100
,  // measure 34
0001
0000
1000
0000
0001
0000
1000
0000
0001
0000
0000
0000
0100
0000
0001
0100
,  // measure 35
0000
0000
0100
0000
0001
0000
0010
0000
0100
0000
0000
0000
1000
0000
0000
0100
,  // measure 36
1000
0000
0010
0000
1000
0000
0010
0000
1000
0000
0000
0000
0001
0000
0100
0001
,  // measure 37
0000
0000
0001
0000
1000
0000
0010
0000
1000
0000
0000
0000
1000
0000
0000
1000
,  // measure 38
0100
0000
1000
0000
0010
0000
1000
0000
0100
0000
0000
0000
0010
0000
0001
0100
,  // measure 39
0101
0000
0100
0000
0001
0000
1000
0000
0010
0000
0100
0000
0001
0000
0010
0001
,  // measure 40
0011
0001
0100
0001
0100
0000
0010
0010
,  // measure 41
1000
0010
0001
0010
1000
0000
1000
0000
,  // measure 42
0001
0000
0010
0000
1000
0000
0100
0010
,  // measure 43
0100
0000
0000
0000
0001
0000
0000
0000
1000
0000
0000
0000
0010
0100
0010
0100
,  // measure 44
0010
1000
0010
0001
0010
0000
0100
0001
,  // measure 45
0010
0001
0100
0010
0100
0000
0001
0000
,  // measure 46
0010
0000
0010
0000
0100
0000
1000
0100
,  // measure 47
2100
0000
0000
0000
0010
0000
0000
0000
0001
0000
3000
0000
0200
0000
0000
0300
,  // measure 48
0101
0000
0000
0000
0001
0000
0100
0000
0010
0000
0100
0000
0001
0000
0100
0001
,  // measure 49
0000
0000
0101
0000
0000
0000
0000
0000
0001
0000
0000
0000
1000
0000
0000
1000
,  // measure 50
0100
0000
0000
0000
0100
0000
1000
0000
0100
0000
0010
0000
0100
0000
0010
0100
,  // measure 51
0000
0000
1100
0000
0000
0000
0000
0000
1000
0000
0000
0000
0001
0000
0000
0001
,  // measure 52
0100
0000
0000
0000
0001
0000
0010
0000
1000
0000
0010
0000
0001
0000
0010
0001
,  // measure 53
0000
0000
0011
0000
0000
0000
0000
0000
0100
0000
0000
0000
0010
0000
0000
0100
,  // measure 54
0010
0000
0000
0000
0100
0000
0010
0000
0100
0000
1000
0000
0100
0000
0001
0100
,  // measure 55
0001
0000
0101
0000
0000
0000
0001
0000
0000
0000
1000
0000
0004
0000
0000
0003
,  // measure 56
0110
0000
0000
0000
1000
0000
0001
0000
0000
0000
0000
0010
0000
0000
0100
0000
,  // measure 57
0000
0000
1000
0000
0000
0000
0010
0000
1000
0000
0000
0000
0010
0000
0000
0100
,  // measure 58
0010
0000
1000
0001
0000
0100
0001
0100
,  // measure 59
1000
0000
0100
0000
0001
0000
0100
0000
0010
0000
0000
0000
0010
0000
0000
0100
,  // measure 60
0010
1000
0010
1000
0100
0010
0100
0010
,  // measure 61
0001
0000
0100
0000
0001
0000
0100
0000
0010
0000
1000
0000
0010
0000
1000
0010
,  // measure 62
1000
0010
0100
0001
0010
0100
1000
0100
,  // measure 63
1100
1000
1000
1000
0001
0001
0001
0001
,  // measure 64
1001
0000
0000
1000
0000
0000
0001
0000
0000
0100
0000
0000
0002
0000
0000
0000
0003
0000
0000
0000
0000
0000
0000
0000
;

//---------------dance-single - ----------------
#NOTEDATA:;
#CHARTNAME:;
#STEPSTYPE:dance-single;
#DESCRIPTION:;
#CHARTSTYLE:;
#DIFFICULTY:Easy;
#METER:4;
#RADARVALUES:0.233988,0.325733,0.138807,0.101792,0.000000,177.000000,162.000000,15.000000,11.000000,0.000000,0.000000,0.000000,0.000000,0.000000,0.233988,0.325733,0.138807,0.101792,0.000000,177.000000,162.000000,15.000000,11.000000,0.000000,0.000000,0.000000,0.000000,0.000000;
#CREDIT:;
#NOTES:
// measure 0
0000
0000
0000
0000
,  // measure 1
0000
0000
0000
0000
,  // measure 2
0000
0000
0000
0000
,  // measure 3
0000
0000
0000
0000
,  // measure 4
0000
0000
0000
0000
,  // measure 5
0000
0000
0000
0000
,  // measure 6
0000
0000
0000
0000
,  // measure 7
0000
0000
0000
0000
,  // measure 8
1001
0000
0000
0001
,  // measure 9
0002
0000
0003
0020
0000
0030
0100
0000
,  // measure 10
0200
0000
0000
0000
0300
0000
0100
1000
,  // measure 11
0100
1000
0010
0000
,  // measure 12
0010
0100
1000
0100
,  // measure 13
0002
0000
0003
0200
0000
0300
0010
0000
,  // measure 14
0020
0000
0000
0000
0030
0000
0010
0100
,  // measure 15
0010
0010
1000
0000
,  // measure 16
2020
0000
0000
3030
0100
0000
0000
0000
,  // measure 17
0001
0000
0010
0000
,  // measure 18
0100
0000
0010
0000
,  // measure 19
0001
0000
0100
0000
,  // measure 20
0001
0000
1000
0000
,  // measure 21
0100
0000
0010
0000
,  // measure 22
0001
0000
0100
0000
,  // measure 23
0010
0000
0010
0010
,  // measure 24
0110
0100
0010
0001
,  // measure 25
0100
0010
1000
0001
,  // measure 26
1000
0010
0100
0010
,  // measure 27
0001
0010
0100
0001
,  // measure 28
0101
0000
0001
0000
,  // measure 29
0101
0000
1000
0000
,  // measure 30
1010
0000
1000
0000
,  // measure 31
1001
0000
0000
0000
0000
0000
0020
0000
0000
0000
0000
0030
,  // measure 32
1010
1000
0001
1000
,  // measure 33
0000
0100
0000
0000
0010
0000
0010
0000
,  // measure 34
0001
1000
0010
0100
,  // measure 35
0000
0010
0000
0000
1000
0000
1000
0000
,  // measure 36
0001
1000
0001
0100
,  // measure 37
0000
0010
0000
0000
1000
0000
1000
0000
,  // measure 38
0100
0010
0100
0010
,  // measure 39
0000
0001
0000
0000
0001
0000
0001
0000
,  // measure 40
0101
0010
0001
0010
,  // measure 41
0100
0010
0001
1000
,  // measure 42
0001
0000
0001
0000
0001
0000
1000
0010
,  // measure 43
1000
0100
0010
0020
,  // measure 44
0031
1000
0100
0010
,  // measure 45
0001
0010
0100
0010
,  // measure 46
0001
0000
0001
0000
0001
0000
1000
0010
,  // measure 47
1000
0000
0100
0000
1000
0000
0200
0300
,  // measure 48
1100
0000
0000
1000
,  // measure 49
0000
0000
0010
0010
,  // measure 50
1010
0000
0000
0100
,  // measure 51
0000
0000
0001
0001
,  // measure 52
0101
0000
0000
0010
,  // measure 53
0000
0000
0100
0100
,  // measure 54
0110
0000
0000
0001
,  // measure 55
0000
0000
1000
1000
,  // measure 56
1001
0000
0010
0000
,  // measure 57
0100
0000
0001
0000
,  // measure 58
1000
0000
0001
0000
,  // measure 59
0100
0000
0010
0100
,  // measure 60
0010
0000
1000
0000
,  // measure 61
0001
0000
1000
0000
,  // measure 62
0010
0000
0100
0000
,  // measure 63
0001
0000
1000
0001
,  // measure 64
1001
0000
0000
0000
;

//---------------dance-single - ----------------
#NOTEDATA:;
#CHARTNAME:;
#STEPSTYPE:dance-single;
#DESCRIPTION:;
#CHARTSTYLE:;
#DIFFICULTY:Beginner;
#METER:2;
#RADARVALUES:0.170534,0.296121,0.148060,0.092538,0.000000,129.000000,113.000000,16.000000,10.000000,0.000000,0.000000,0.000000,0.000000,0.000000,0.170534,0.296121,0.148060,0.092538,0.000000,129.000000,113.000000,16.000000,10.000000,0.000000,0.000000,0.000000,0.000000,0.000000;
#CREDIT:;
#NOTES:
// measure 0
0000
0000
0000
0000
,  // measure 1
0000
0000
0000
0000
,  // measure 2
0000
0000
0000
0000
,  // measure 3
0000
0000
0000
0000
,  // measure 4
0000
0000
0000
0000
,  // measure 5
0000
0000
0000
0000
,  // measure 6
0000
0000
0000
0000
,  // measure 7
0000
0000
0000
0000
,  // measure 8
0101
0000
0000
0010
,  // measure 9
0200
0000
0300
0020
0000
0030
1000
0000
,  // measure 10
0002
0000
0003
0000
,  // measure 11
0100
0000
0001
0000
,  // measure 12
0010
0000
0000
0100
,  // measure 13
0002
0000
0003
0020
0000
0030
0100
0000
,  // measure 14
2000
0000
3000
0100
,  // measure 15
0002
0000
0000
0000
,  // measure 16
0103
0000
0000
0000
,  // measure 17
0001
0000
0000
0000
,  // measure 18
1000
0000
0000
0000
,  // measure 19
0100
0000
0000
0000
,  // measure 20
0001
0000
0000
0000
,  // measure 21
0002
0000
0000
0000
,  // measure 22
0100
0000
0000
0000
,  // measure 23
0010
0000
0103
0100
,  // measure 24
0100
0000
1000
0000
,  // measure 25
0001
0000
1000
0000
,  // measure 26
0100
0000
0010
0000
,  // measure 27
0001
0000
0010
0000
,  // measure 28
0101
0000
0000
0000
,  // measure 29
1010
0000
0000
0000
,  // measure 30
0110
0000
0000
0000
,  // measure 31
1010
0000
0000
0000
0000
0000
0020
0000
0000
0000
0000
0030
,  // measure 32
1010
0000
0000
0010
0000
0000
0100
0000
,  // measure 33
0000
1000
0000
0000
0010
0000
0010
0000
,  // measure 34
0001
0000
0000
1000
0000
0000
0100
0000
,  // measure 35
0000
0010
0000
0000
0001
0000
0001
0000
,  // measure 36
1000
0000
0000
0010
0000
0000
0100
0000
,  // measure 37
0000
0010
0000
0000
1000
0000
1000
0000
,  // measure 38
0100
0000
0000
0010
0000
0000
0001
0000
,  // measure 39
0000
0100
0000
0000
0010
0000
0010
0000
,  // measure 40
0011
0000
0001
0000
,  // measure 41
0100
0000
0010
0000
,  // measure 42
1000
1000
1000
0100
,  // measure 43
0001
0001
0001
0010
,  // measure 44
0101
0000
1000
0000
,  // measure 45
0010
0000
0100
0000
,  // measure 46
0010
0010
0010
1000
,  // measure 47
0100
0000
0100
0000
0100
0000
0002
0003
,  // measure 48
0101
0000
0000
0100
,  // measure 49
0000
0000
0001
0000
,  // measure 50
0101
0000
0000
0001
,  // measure 51
0000
0000
1000
0000
,  // measure 52
1001
0000
0000
0100
,  // measure 53
0000
0000
0010
0000
,  // measure 54
0110
0000
0000
1000
,  // measure 55
0000
0000
0010
0000
,  // measure 56
1010
0000
0000
0100
,  // measure 57
0000
0000
0001
0000
,  // measure 58
0101
0000
0000
0001
,  // measure 59
0000
0000
1000
0000
,  // measure 60
1001
0000
0000
0010
,  // measure 61
0000
0000
1000
0000
,  // measure 62
1010
0000
0000
1000
,  // measure 63
0000
0000
0100
0100
,  // measure 64
0100
0000
0000
0000
;
