#TITLE:Fool's Holiday;
#SUBTITLE:;
#ARTIST:All Time Low;
#TITLETRANSLIT:;
#SUBTITLETRANSLIT:;
#ARTISTTRANSLIT:;
#GENRE:Pop Punk;
#CREDIT:;
#BANNER:Fool's Holiday-bn.png;
#BACKGROUND:Fool's Holiday-bg.png;
#LYRICSPATH:;
#CDTITLE:cdtitle.png;
#MUSIC:Fool's Holiday.ogg;
#OFFSET:-0.017000;
#SAMPLESTART:51.932999;
#SAMPLELENGTH:13.844000;
#SELECTABLE:YES;
#BPMS:0.000000=104.014000
;
#STOPS:
;
#BGCHANGES:;
#KEYSOUNDS:;
#ATTACKS:;

//---------------dance-single - ----------------
#NOTES:
     dance-single:
     X-Scale 11:
     Hard:
     8:
     0.534374,0.559667,0.262300,0.250895,0.273704,328.000000,305.000000,23.000000,22.000000,0.000000,0.000000,0.534374,0.559667,0.262300,0.250895,0.273704,328.000000,305.000000,23.000000,22.000000,0.000000,0.000000:
// measure 0
0000
0000
0000
0000
,  // measure 1
0000
0000
0000
0000
2200
0000
3300
1000
,  // measure 2
0010
0100
0010
0001
0010
0100
0010
1000
,  // measure 3
2002
0000
3003
0001
0100
1000
0100
0001
,  // measure 4
0010
1000
0010
0001
0022
0000
0033
0010
,  // measure 5
0100
1000
0010
0001
1000
0100
0001
1000
,  // measure 6
2002
0000
0000
0000
3003
0000
0001
0000
0100
0001
0100
0001
0100
0000
0010
1000
,  // measure 7
0010
1000
0010
0000
0110
0000
1010
0000
1100
0000
0000
0000
1000
0000
0002
0000
,  // measure 8
0000
0000
0010
0000
0013
0000
0020
0000
0000
0000
0100
0000
0130
0000
0010
0001
,  // measure 9
2000
0000
0000
0000
0000
0000
0010
0000
3010
1000
0001
0000
0002
0000
0000
0000
,  // measure 10
0000
0103
0001
0100
1000
0100
0010
0100
,  // measure 11
0001
0000
1000
0000
1000
0000
0100
0020
0000
0000
0031
0000
0100
0000
0001
0100
,  // measure 12
0001
0000
0000
1000
0000
0000
0010
0000
1000
0010
1000
0000
0100
0000
0010
0000
,  // measure 13
0001
0000
0011
0000
0001
1000
0001
0000
1001
0000
1000
0000
0100
0000
1000
0000
,  // measure 14
0001
0100
0010
0100
0001
0010
0010
0001
,  // measure 15
0001
0000
1000
0010
1000
0000
1010
0000
0010
0100
0001
1000
0100
0000
1000
0010
,  // measure 16
1000
0000
0001
0000
0001
0000
0100
0000
0100
0000
0010
2000
0000
0000
3001
0000
,  // measure 17
1000
0000
0100
0000
0010
0000
0100
2000
0000
0000
3001
0000
0001
0000
1000
0000
,  // measure 18
1000
0000
0010
0000
0100
0000
0001
0000
0010
0001
1000
0001
0100
0000
0001
0000
,  // measure 19
1000
0000
0100
1000
0001
0010
0100
0010
0001
0000
1000
0000
0001
0000
1001
0000
,  // measure 20
1000
0100
1000
0000
1100
0000
0100
0000
0010
0000
0101
0000
0001
1000
0010
1000
,  // measure 21
0001
0000
0100
0000
0001
0000
1001
0000
1000
0010
0100
0001
2000
0000
0000
0000
,  // measure 22
0000
3001
0001
0001
0011
0010
0100
1000
,  // measure 23
0001
0100
0010
1000
0100
0001
0100
1000
,  // measure 24
0020
0000
1000
0000
1000
0000
2030
0000
0010
0000
0001
0000
3001
1000
0000
0100
,  // measure 25
1000
0001
0100
0010
2000
0000
3100
0010
,  // measure 26
0001
0100
0000
0000
0001
0000
0010
0000
1000
0000
0010
0000
0011
0000
0001
0000
,  // measure 27
2000
0000
0000
0000
0001
0000
3001
0000
1000
0100
0010
0001
1000
0000
0100
1000
,  // measure 28
0001
0100
0010
0000
0010
0000
1000
0000
1010
0000
1000
0001
1000
0000
0100
0000
,  // measure 29
0001
0000
0100
0000
1000
0000
0010
1000
0001
0000
0100
0000
0010
0000
1000
0000
,  // measure 30
1100
0000
1000
0100
0010
0000
0011
0000
0001
1000
0010
0000
1010
0000
1000
0000
,  // measure 31
0001
0000
0000
0010
0000
0000
0100
1000
0100
1000
0100
1000
0100
0000
0000
0000
0000
0000
1100
0000
0000
1000
0000
0000
,  // measure 32
0001
1000
0010
0000
0100
0000
0001
0010
0100
0000
0010
0000
0001
0000
0001
0000
,  // measure 33
1001
0000
0000
1000
0100
0000
1000
0000
0001
0100
0001
0000
0010
0000
0000
0100
,  // measure 34
1000
0001
1000
1000
1000
0010
0100
0001
,  // measure 35
0010
0001
1000
0000
0010
0000
0100
0000
1000
0000
0100
0000
0001
0000
0100
0000
,  // measure 36
2001
0000
0001
0001
0000
0010
0010
0000
,  // measure 37
3010
0100
0001
1000
0200
0000
0300
0000
;

//---------------dance-single - ----------------
#NOTES:
     dance-single:
     X-Scale 7:
     Medium:
     5:
     0.374714,0.387462,0.159661,0.171065,0.062724,230.000000,216.000000,14.000000,15.000000,0.000000,0.000000,0.374714,0.387462,0.159661,0.171065,0.062724,230.000000,216.000000,14.000000,15.000000,0.000000,0.000000:
0000
0000
0000
0000
,
0000
0000
0000
0000
0001
0000
0000
1001
,
0000
0001
0100
0000
0010
1000
0100
1000
,
0010
0000
0000
0011
0000
0001
0010
0000
,
0100
1000
0010
0100
0001
0000
0000
1001
,
0000
1000
0100
0000
1000
0001
0100
0010
,
1000
0000
0000
0010
1000
0001
0100
0010
,
1000
0100
0001
0100
1000
0000
0001
0100
,
0001
0000
0000
0000
0010
0000
0100
0000
0000
0000
0010
0000
0001
0000
0000
1000
,
0010
0000
1000
0001
0100
0000
0010
0100
,
0000
0001
0100
0001
1000
0000
0100
0010
,
0001
0000
0000
0000
0100
0000
0010
0000
0000
0000
1000
0000
0010
0000
0000
0100
,
0010
0000
1000
0001
0010
0000
0100
0010
,
0000
0001
1000
0001
1000
0000
0000
1100
,
0000
0000
0101
0000
0000
0100
0010
0100
,
0010
0000
0000
0110
0000
0000
1010
0000
,
0000
1000
0001
1000
0001
0000
0000
0011
,
0000
0000
0101
0000
0000
0100
0010
0100
,
0010
0000
0000
0011
0000
0000
1001
0000
,
0000
1000
0010
1000
1010
0000
0010
2000
,
0000
3001
2000
0000
3100
0001
0100
0010
,
0002
0000
0000
0000
0000
0000
0103
0000
0001
0010
0100
0000
1100
0000
0000
0000
,
0000
1000
0010
1000
0001
0010
1000
0010
,
0001
0100
1000
0100
0001
1000
0010
1000
,
0002
0000
0000
0000
0103
0000
0001
0000
1000
0000
0010
0000
0100
0010
0000
1000
,
0000
0001
0010
0100
2000
0000
3100
1000
,
0001
0100
0000
0000
0001
0000
1000
0000
0100
0000
0001
0000
0100
0000
0010
0000
,
0002
0000
0000
0203
0000
0000
0320
0000
,
0000
1030
0010
1000
1001
0001
0010
1000
,
0010
0002
0000
0103
0010
1000
0001
0100
,
0020
0000
0000
2030
0000
0000
3100
1000
,
0001
0000
1000
0010
0000
2000
0000
0000
3000
0000
0100
0000
0010
0000
0001
0000
,
0100
0001
0100
0000
0010
0000
1000
0000
0001
0000
0010
0000
0001
0000
1000
0000
,
0100
0000
0000
0010
0100
0000
1000
0000
0001
0000
0100
0000
0001
0000
0000
0010
,
0100
1000
0010
0100
0010
0001
0010
1000
,
0100
0001
0100
0010
0001
0100
0010
0100
,
0002
0000
0000
2003
0000
3000
0010
1000
,
0001
0100
1000
0100
0002
0000
0003
0000
;

//---------------dance-single - ----------------
#NOTES:
     dance-single:
     X-Scale 5:
     Easy:
     3:
     0.257412,0.277054,0.034213,0.114043,0.000000,158.000000,155.000000,3.000000,10.000000,0.000000,0.000000,0.257412,0.277054,0.034213,0.114043,0.000000,158.000000,155.000000,3.000000,10.000000,0.000000,0.000000:
0000
0000
0000
0000
,
0000
0000
0000
0000
0001
0000
0000
1000
,
0000
0000
0001
0000
0000
1000
0000
0000
,
0100
0000
0000
0010
0000
0000
0100
0000
,
0000
0010
0000
0000
0001
0000
0000
0100
,
0000
0000
0001
0000
0000
0100
0000
0000
,
0010
0000
0000
1000
0000
0000
0010
0000
,
0000
1000
0000
0000
0001
0000
0000
1000
,
0000
0100
1000
0000
0000
0001
0000
0000
,
0100
0000
0000
0001
0000
0010
0001
0000
,
0000
1000
0010
1000
0010
0000
0000
0100
,
0000
0001
0100
0000
0000
0001
0000
0000
,
0010
0000
0000
0100
0000
1000
0100
0000
,
0000
1000
0001
1000
0001
0000
0000
0010
,
0000
0000
0001
0000
0000
0100
0010
0100
,
0010
0000
0000
1000
0000
0000
0001
0000
,
0000
1000
0100
1000
0100
0000
0000
1000
,
0000
0000
0001
0000
0000
0100
0010
0100
,
0010
0000
0000
1000
0000
0000
0001
0000
,
0000
0010
0100
0010
0100
0000
1000
0001
,
0000
0100
0001
0000
0010
0001
1000
0001
,
0200
0000
0000
0310
0000
0000
0110
0000
,
0000
1000
0001
1000
1001
0000
0001
0000
,
1000
0010
1000
0000
0001
0000
0100
0010
,
0100
0000
0001
0000
0010
0100
0010
0000
,
0000
0001
1000
0010
2000
0000
3001
0000
,
0010
0100
1000
0000
0000
0010
1000
0001
,
0200
0000
0000
0320
0000
0000
2030
0000
,
0000
3200
0000
0000
0310
0000
0000
0100
,
1000
0001
0100
0000
0000
0010
0100
0001
,
0010
0000
0000
0001
1000
0010
1000
0000
,
0100
1000
0002
0000
0003
0000
1001
0001
,
0100
0001
1000
0000
0000
0100
0010
0001
,
2000
0000
0000
3020
0000
0030
0200
0000
,
0300
0001
0100
0001
1000
0000
0010
1000
,
0001
0000
0100
0001
1000
0000
0100
0010
,
0001
0000
1000
0100
0000
0010
0001
0000
,
0100
0001
0100
0001
0000
0000
0000
0000
;

//---------------dance-single - ----------------
#NOTES:
     dance-single:
     X-Scale 1:
     Beginner:
     1:
     0.070055,0.085532,0.011404,0.000000,0.000000,43.000000,42.000000,1.000000,0.000000,0.000000,0.000000,0.070055,0.085532,0.011404,0.000000,0.000000,43.000000,42.000000,1.000000,0.000000,0.000000,0.000000:
0000
0000
0000
0000
,
0000
0000
1000
0000
,
0000
0000
0000
0000
,
0001
0000
0000
0000
,
0000
0000
1000
0000
,
0000
0000
0000
0000
,
0001
0000
0000
0000
,
0000
0000
1000
0000
,
0000
0100
0000
0000
,
0010
0000
0000
0001
,
0000
0000
0100
0000
,
0000
0010
0000
0000
,
1000
0000
0000
0001
,
0000
0000
1000
0000
,
0000
0100
0000
0000
,
1000
0000
0000
0001
,
0000
0000
0100
0000
,
0000
0001
0000
0000
,
1000
0000
0000
0100
,
0000
0000
1000
0000
,
0000
0000
0000
0000
,
0001
0000
0000
0000
,
0000
0000
1001
0000
,
0000
1000
0000
0000
,
0001
0000
0000
0100
,
0000
0000
0000
0001
,
0000
0010
0000
0000
,
0100
0000
0000
1000
,
0000
0000
0001
0000
,
0000
0100
0000
0000
,
0001
0000
0000
1000
,
0000
0000
0000
1000
,
0000
0001
0000
0000
,
0100
0000
0000
0001
,
0000
0000
1000
0000
,
0000
0100
0000
0000
,
1000
0000
0000
0000
,
0000
0000
0001
0000
;
