#TITLE:Follow You;
#SUBTITLE:-Fractal Chill Mix-;
#ARTIST:Au5 ft. Danyka Nadeau;
#TITLETRANSLIT:;
#SUBTITLETRANSLIT:;
#ARTISTTRANSLIT:;
#GENRE:Chill Breaks;
#CREDIT:;
#BANNER:follow u_fractal-bn.png;
#BACKGROUND:follow u_fractal-bg.png;
#LYRICSPATH:;
#CDTITLE:cdtitle.png;
#MUSIC:follow u - fractal.ogg;
#OFFSET:0.000000;
#SAMPLESTART:33.390999;
#SAMPLELENGTH:16.000000;
#SELECTABLE:YES;
#BPMS:0.000000=115.000000
;
#STOPS:
;
#BGCHANGES:;
#KEYSOUNDS:;
#ATTACKS:;

//---------------dance-single - ----------------
#NOTES:
     dance-single:
     :
     Hard:
     8:
     0.430588,0.468213,0.139001,0.219475,0.160948,412.000000,393.000000,19.000000,30.000000,0.000000,0.000000,0.430588,0.468213,0.139001,0.219475,0.160948,412.000000,393.000000,19.000000,30.000000,0.000000,0.000000:
// measure 0
0000
0000
0000
0000
,  // measure 1
0000
0000
0000
0000
,  // measure 2
0000
0000
0000
0000
,  // measure 3
0000
0000
0000
0000
,  // measure 4
2010
0000
0000
0010
0000
0000
0010
3001
,  // measure 5
0002
0000
0000
1000
0000
0000
1000
0013
,  // measure 6
0020
0000
0000
0001
0000
0000
0001
0130
,  // measure 7
0200
0000
0000
0010
0000
0000
0010
1300
,  // measure 8
1100
0000
0000
0000
0000
1000
0100
0000
0000
0000
1000
0001
1000
0010
1000
0000
,  // measure 9
0000
0000
0010
0100
0010
0000
0010
0000
0000
0000
0100
0001
1000
0001
0100
0000
,  // measure 10
0101
0000
0000
0000
0000
0001
0010
0000
0000
0000
0001
1000
0001
0100
0001
0000
,  // measure 11
0000
0000
0100
0010
0100
0000
0100
0000
0000
0000
0001
0000
0010
0000
0100
0000
,  // measure 12
0210
0000
0000
0320
0000
0031
0010
0001
,  // measure 13
0000
0000
0001
0010
0100
1000
0001
0000
0000
0000
1000
0000
1000
0000
0001
0000
,  // measure 14
2001
0000
0000
0010
0000
0001
0010
0200
,  // measure 15
0000
0300
0100
0001
0000
0010
0010
3010
,  // measure 16
1010
0000
0000
1000
0000
0001
0100
0010
,  // measure 17
0200
0000
0000
0001
0000
0000
0010
1000
,  // measure 18
0310
0000
0000
0001
0000
0100
0010
0100
,  // measure 19
0000
0001
0000
1000
0000
0100
0010
0001
,  // measure 20
0011
0000
0000
0001
0000
0010
0001
0010
,  // measure 21
0000
0000
0001
0100
0001
0000
1000
0000
0000
0000
0100
0000
1000
0000
0100
0000
,  // measure 22
1100
0000
0000
0100
0000
0000
1000
0010
,  // measure 23
2000
0000
0000
0001
0000
0000
0001
0010
,  // measure 24
3001
0000
1000
0010
0000
0000
0100
0000
0000
0000
0000
0100
0010
0000
0100
0000
,  // measure 25
0001
0000
0000
0000
0001
0000
1000
0000
0010
0000
0000
0010
0100
0000
0010
0000
,  // measure 26
0110
0000
0100
0001
0000
0000
1000
0000
0000
0000
0000
1000
0100
0000
1000
0000
,  // measure 27
0010
0100
0001
0010
0100
0010
0001
0010
,  // measure 28
0011
0000
0000
0000
0000
0000
0001
0000
0001
0000
0000
1000
0010
0000
1000
0000
,  // measure 29
0100
0000
0000
1000
0010
0000
1000
0000
0001
0000
0000
0001
0100
0000
0001
0000
,  // measure 30
0101
0000
0000
0100
0010
0000
1000
0000
0001
0000
0000
0001
0100
0000
0010
0000
,  // measure 31
1000
0001
0010
0100
1000
0001
1000
0010
,  // measure 32
1010
0000
0000
0000
0000
0000
1000
0100
,  // measure 33
0010
0001
0000
0001
0000
1000
0010
1000
,  // measure 34
0001
0010
0100
1000
0100
0010
0001
0010
,  // measure 35
0100
0010
0100
0010
0100
2000
3000
0002
,  // measure 36
0203
0000
0000
0000
0000
0000
0010
0010
,  // measure 37
0320
0000
0000
2000
0000
3000
0100
0100
,  // measure 38
0230
0000
0000
0010
0000
0001
0010
0001
,  // measure 39
0302
0000
0000
0000
0000
0000
1000
0000
0000
0000
0100
0100
0000
0000
0013
0000
,  // measure 40
0011
0001
1000
0000
0001
0010
0100
1000
,  // measure 41
0001
1000
0100
0020
0030
0020
0031
0010
,  // measure 42
0001
0010
0100
0000
0100
0010
0100
1000
,  // measure 43
0100
0010
0100
2000
3000
2000
3001
1000
,  // measure 44
1001
0000
0000
0001
0010
0000
0001
0000
0100
0000
0001
0000
1000
0000
1000
0000
,  // measure 45
0001
1000
0100
0020
0030
0020
0031
0010
,  // measure 46
0100
0000
0000
0100
0010
0000
0100
0000
1000
0000
0001
0000
1000
0000
0010
0000
,  // measure 47
0100
0000
0010
0100
0010
0000
1000
0000
0001
0000
0001
0000
1000
0001
1000
0000
,  // measure 48
1001
0000
0000
0001
0100
0000
0001
0000
1000
0000
0010
0000
0100
0000
0100
0000
,  // measure 49
0001
0000
0010
0000
0100
0000
1000
0000
0001
0000
0001
0000
0100
0010
0100
0000
,  // measure 50
0010
0000
0000
0010
1000
0000
0001
0000
1000
0000
0100
0000
0010
0000
0001
0000
,  // measure 51
0001
0000
0000
0100
0010
0000
0100
0000
0001
0000
0010
0000
0100
0000
1000
0000
,  // measure 52
1000
0000
0000
0100
0010
0000
0100
0000
1000
0000
0001
0000
0100
0000
0010
0000
,  // measure 53
0100
0000
0000
0100
0001
0000
0100
0000
0010
0000
1000
0000
0010
0100
0010
0000
,  // measure 54
0100
0000
0000
0100
0001
0000
1000
0000
0001
0000
0100
0000
0001
0000
0010
0000
,  // measure 55
0100
0000
0000
0010
0100
0000
0010
0000
0001
1000
0001
0000
0100
0010
0100
0000
,  // measure 56
0110
0000
0000
0000
0010
0000
1000
0000
0001
0000
0000
0100
0001
0000
0010
0000
,  // measure 57
0200
0010
0000
0310
0020
0000
0001
0031
,  // measure 58
0011
0000
0001
1000
0010
0000
0010
0100
,  // measure 59
0002
0000
2000
3003
2000
0000
0001
3010
,  // measure 60
1010
0000
0000
0000
1000
0000
0001
0000
0100
0000
0000
0001
0100
0000
0010
0000
,  // measure 61
2000
0010
0000
3010
0020
0000
0100
0130
,  // measure 62
0110
0010
0100
0001
1000
0100
0010
0001
,  // measure 63
0000
0001
0010
0000
0000
0000
0001
0000
1000
0000
0000
1000
0100
0000
1000
0010
,  // measure 64
1000
0000
0000
0000
;

//---------------dance-single - ----------------
#NOTES:
     dance-single:
     :
     Medium:
     7:
     0.349069,0.397981,0.139001,0.241422,0.043895,334.000000,315.000000,19.000000,33.000000,0.000000,0.000000,0.349069,0.397981,0.139001,0.241422,0.043895,334.000000,315.000000,19.000000,33.000000,0.000000,0.000000:
0000
0000
0000
0000
,
0000
0000
0000
0000
,
0000
0000
0000
0000
,
0000
0000
0000
0000
,
2010
0000
0000
0010
0000
0000
0010
3000
,
0020
0000
0000
0100
0000
0000
0100
0030
,
0200
0000
0000
0001
0000
0000
0001
0300
,
0002
0000
0000
0010
0000
0000
0010
0003
,
0011
0000
0000
0001
0000
1000
0100
0010
,
0000
0000
0010
0100
0010
0000
0100
0000
0000
0000
0100
0000
1000
0000
0100
0000
,
1100
0000
0000
1000
0000
0001
0010
0100
,
0000
0000
0100
0010
0100
0000
0010
0000
0000
0000
0010
0000
0001
0000
0010
0000
,
0012
0000
0000
0203
0000
0301
0100
0010
,
2000
0000
0000
0000
3000
1000
0100
0010
,
0201
0000
0000
0010
0000
0001
0010
1000
,
0000
0000
0010
0010
0000
0000
0000
0300
,
0110
0000
0000
1000
0000
0100
0000
0010
,
0200
0000
0000
0001
0000
0000
1000
1000
,
1300
0000
0000
0001
0000
1000
0000
0001
,
0000
0010
0000
0100
0000
1000
0010
0100
,
0110
0000
0000
0001
0000
0010
0000
0100
,
0000
0000
0000
0010
0000
0100
0000
1000
,
1100
0000
0000
0100
0000
0000
1000
0100
,
0020
0000
0000
0001
0000
0000
0100
0100
,
0130
0000
0000
0010
0000
0000
0100
0000
0000
0000
0000
0000
0010
0000
0100
0000
,
1000
0000
0000
0000
0001
0000
1000
0000
0010
0000
0000
0010
0100
0000
0001
0000
,
0101
0000
0000
0100
0000
0000
0001
0000
0000
0000
0000
0000
1000
0000
0100
0000
,
0010
0001
0010
0100
0010
0001
0010
0100
,
0110
0000
0000
0000
0000
0000
0001
0000
1000
0000
0000
1000
0010
0000
1000
0000
,
0100
0000
1000
0001
2000
0000
0010
0010
,
3010
0000
0010
1000
0001
0000
0001
0010
,
0100
1000
0100
0010
0100
1000
0100
0010
,
0110
0000
0000
0000
0000
0000
0001
0100
,
0001
0100
0000
0001
0000
1000
0010
1000
,
0001
0000
0001
0000
1000
0100
0010
0001
,
0010
0100
1000
0100
0000
2000
3000
0002
,
0203
0000
0000
0000
0000
0000
0001
0001
,
0302
0000
0000
2000
0000
3000
0010
0010
,
0023
0000
0000
0001
0000
0100
0000
0001
,
0032
0000
0000
0010
0000
0010
0000
0013
,
0011
0001
1000
0000
0001
0000
0100
0100
,
0000
0001
0010
0020
0030
0002
0013
0100
,
1000
0010
1000
0000
0100
0000
0001
0100
,
1000
0010
0100
0020
0030
0200
0300
0010
,
0110
0000
0010
0000
0100
0000
0001
1000
,
0000
0100
0010
0020
0030
0200
0301
0100
,
0010
0000
0010
0100
1000
0001
1000
0010
,
0000
0000
0010
0100
0010
0000
1000
0000
0000
0000
0100
0000
0000
0000
1000
0000
,
1100
0000
0100
0000
1000
0000
0001
0100
,
0001
0010
0000
0000
0001
1000
0000
1000
,
0010
0000
0100
0010
0100
1000
0100
0010
,
0100
0000
0000
0100
0001
0000
1000
0000
0001
0000
0010
0000
0001
0000
0010
0000
,
0011
0000
0010
0000
0100
0000
1000
0010
,
1000
0100
0000
0000
0001
1000
0000
1000
,
0010
0000
0000
0100
0010
0000
1000
0000
0001
0000
0100
0000
0001
0000
0010
0000
,
0000
0000
0000
0010
0000
0000
0010
0000
0001
0000
1000
0000
0001
0000
1000
0000
,
1001
0000
1000
0001
0100
0000
0100
0010
,
0200
0000
0020
0330
0200
0000
0001
0301
,
0101
0000
0001
0010
0100
1000
0100
0010
,
0002
0000
2000
3003
0002
0000
1000
1003
,
1001
0000
0001
1000
0010
0000
0010
0100
,
0020
0000
0200
0330
0020
0000
1000
1030
,
1010
0000
0000
0000
0000
0000
0010
0000
1000
0000
0000
1000
0001
0000
1000
0000
,
0010
0000
0000
0000
0000
0000
0010
0000
0100
0000
0000
0100
0010
0000
1000
0000
,
0010
0000
0000
0000
;

//---------------dance-single - ----------------
#NOTES:
     dance-single:
     :
     Easy:
     4:
     0.250828,0.280928,0.087790,0.234106,0.000000,240.000000,228.000000,12.000000,32.000000,0.000000,0.000000,0.250828,0.280928,0.087790,0.234106,0.000000,240.000000,228.000000,12.000000,32.000000,0.000000,0.000000:
0000
0000
0000
0000
,
0000
0000
0000
0000
,
0000
0000
0000
0000
,
0000
0000
0000
0000
,
0002
0000
0000
0010
0000
0000
0000
0003
,
0020
0000
0000
0100
0000
0000
0000
0030
,
0200
0000
0000
1000
0000
0000
0000
0300
,
2000
0000
0000
0100
0000
0000
0000
3000
,
1100
0000
0000
0001
0000
1000
0100
1000
,
0000
0000
0000
1000
0000
0001
0100
0001
,
0101
0000
0000
0100
0000
0001
0010
0001
,
0000
0000
0000
0010
0000
0010
0100
0010
,
0110
0000
0000
0100
0000
0010
0100
0010
,
0002
0000
0000
0000
0003
0001
0100
0001
,
0200
0000
0000
0000
0000
0000
0000
0020
,
0000
0000
0030
0020
0000
0000
0000
0330
,
0110
0000
0000
0010
0000
0100
0000
0020
,
0000
0000
0000
1000
0000
0000
1000
0030
,
0010
0000
0000
1000
0000
0100
0000
0010
,
0000
0100
0000
1000
0000
0100
0010
0100
,
0110
0000
0000
0001
0000
0010
0000
0100
,
0000
0000
0000
0100
0000
0010
0000
0001
,
0011
0000
0000
0100
0000
0000
0010
0200
,
0000
0000
0000
0001
0000
0000
0001
0000
,
0301
0000
0000
1000
0000
0000
1000
0100
,
0000
0000
1000
0001
1000
0000
0001
0100
,
0101
0000
0000
0100
0000
0010
0100
0000
,
0010
0000
0000
1000
0000
0000
0100
1000
,
1100
0000
0000
1000
0001
0000
0001
0100
,
0000
0000
0001
0100
0020
0000
0000
0000
,
0130
0000
0010
1000
0000
0000
0001
0000
,
0100
0000
0100
0010
0000
0010
1000
0000
,
2010
0000
0000
0001
,
0001
0100
0000
0100
0000
0100
0000
0000
,
3020
0000
0000
1000
0000
0000
0100
0000
,
0230
0000
0000
0000
0000
0001
0000
0001
,
0302
0000
0100
0000
0000
0000
0100
1000
,
2003
0000
0000
0010
0000
0000
0100
0010
,
3020
0000
0000
0100
0000
1000
0000
0100
,
0230
0000
0000
0001
0000
0010
0000
0001
,
0301
0000
0100
0000
0000
0000
0100
0100
,
0000
0000
0010
0020
0030
2000
3010
1000
,
0001
0000
1000
0010
0000
0000
0010
0100
,
0000
0010
0100
0002
0003
0020
0030
0001
,
0000
0000
0010
0000
0000
0000
0001
1000
,
0000
1000
0010
2000
3000
0200
0310
0100
,
0010
0000
0010
0100
0000
0000
1000
0001
,
0000
0000
0000
0001
0000
0100
0000
0010
,
0110
0000
0100
0000
0000
0000
0001
0100
,
0000
0000
0010
0100
0010
1000
0000
1000
,
0001
0100
0001
0010
,
0100
0000
1000
0000
1000
1000
0010
0010
,
0100
0000
0010
0000
0000
0000
0100
0010
,
0000
0000
0100
0010
0100
0001
0000
1000
,
0010
1000
0001
0010
,
0100
0000
1000
0010
0000
1000
0001
0000
,
1001
0000
0000
0001
0100
0000
0100
0010
,
0200
0000
0000
0300
0002
0000
0000
0003
,
0020
0000
0000
0100
0000
0000
0100
0030
,
0200
0000
0000
0300
2000
0000
0000
3000
,
1100
0000
0000
1000
0010
0000
0010
0100
,
0020
0000
0000
0030
2000
0000
0000
3000
,
0002
0000
0000
0000
0010
0000
0000
1003
,
0001
0000
0000
0001
0100
0000
0010
0000
,
0100
0000
0000
0000
;
