#TITLE:Flux;
#SUBTITLE:;
#ARTIST:Bloc Party;
#TITLETRANSLIT:;
#SUBTITLETRANSLIT:;
#ARTISTTRANSLIT:;
#GENRE:Dance Punk;
#CREDIT:;
#BANNER:Flux-bn.png;
#BACKGROUND:Flux-bg.png;
#LYRICSPATH:;
#CDTITLE:cdtitle.png;
#MUSIC:Flux.ogg;
#OFFSET:-0.004000;
#SAMPLESTART:39.478001;
#SAMPLELENGTH:25.263000;
#SELECTABLE:YES;
#BPMS:0.000000=152.000000
;
#STOPS:
;
#BGCHANGES:0.000=Flux.avi=1.000=1=0=0=StretchNoLoop==CrossFade==,
99999=-nosongbg-=1.000=0=0=0 // don't automatically add -songbackground-
;
#KEYSOUNDS:;
#ATTACKS:;

//---------------dance-single - ----------------
#NOTES:
     dance-single:
     X-Scale 3:
     Beginner:
     2:
     0.149198,0.189392,0.023382,0.000000,0.000000,134.000000,131.000000,3.000000,0.000000,0.000000,0.000000,0.149198,0.189392,0.023382,0.000000,0.000000,134.000000,131.000000,3.000000,0.000000,0.000000,0.000000:
// measure 0
0000
0000
0000
0000
,  // measure 1
0000
0000
0000
0000
,  // measure 2
0000
0000
0000
0000
,  // measure 3
0000
0000
0000
0000
,  // measure 4
0000
0000
0000
0000
,  // measure 5
0000
1000
0000
1000
,  // measure 6
0000
0001
0000
0001
,  // measure 7
0000
0100
0000
0100
,  // measure 8
0000
0010
0000
0010
,  // measure 9
1000
0000
0000
0000
,  // measure 10
0001
0000
0100
0000
,  // measure 11
0001
0000
0000
0000
,  // measure 12
0010
0000
0100
0000
,  // measure 13
0010
0000
0000
0000
,  // measure 14
0001
0000
1000
0000
,  // measure 15
0001
0000
0000
0000
,  // measure 16
1000
0000
0010
0000
,  // measure 17
1000
0000
0000
0000
,  // measure 18
0100
0000
0010
0000
,  // measure 19
0100
0000
0000
0000
,  // measure 20
1000
0000
0001
0000
,  // measure 21
1000
0000
0000
0000
,  // measure 22
0001
0000
0010
0000
,  // measure 23
0001
0000
0000
0000
,  // measure 24
1000
0000
0001
0000
,  // measure 25
1001
0000
1000
0000
,  // measure 26
0010
0000
0100
0000
,  // measure 27
0001
0000
0010
0000
,  // measure 28
0100
0000
1000
0000
,  // measure 29
0001
0000
1000
0000
,  // measure 30
0010
0000
1000
0000
,  // measure 31
0100
0000
0010
0000
,  // measure 32
0001
0000
1000
0000
,  // measure 33
0001
0000
0100
0000
,  // measure 34
0001
0000
1000
0000
,  // measure 35
0010
0000
1000
0000
,  // measure 36
0100
0000
0010
0000
,  // measure 37
0100
0000
1000
0000
,  // measure 38
0001
0000
1000
0000
,  // measure 39
0010
0000
0100
0000
,  // measure 40
0001
0000
1000
0000
,  // measure 41
1001
0000
0000
0000
,  // measure 42
0001
0000
0000
0000
,  // measure 43
1000
0000
0000
0000
,  // measure 44
0100
0000
0000
0000
,  // measure 45
0010
0000
0000
0000
,  // measure 46
0001
0000
0000
0000
,  // measure 47
1000
0000
0001
0000
,  // measure 48
1000
0000
0001
0000
,  // measure 49
1001
0000
1000
0000
,  // measure 50
0010
0000
1000
0000
,  // measure 51
0001
0000
0010
0000
,  // measure 52
0100
0000
0010
0000
,  // measure 53
0001
0000
1000
0000
,  // measure 54
0010
0000
1000
0000
,  // measure 55
0001
0000
0010
0000
,  // measure 56
0100
0000
1000
0000
,  // measure 57
0100
0000
0010
0000
,  // measure 58
0001
0000
1000
0000
,  // measure 59
0001
0000
0100
0000
,  // measure 60
0010
0000
1000
0000
,  // measure 61
0001
0000
1000
0000
,  // measure 62
0010
0000
0100
0000
,  // measure 63
0001
0000
1000
0000
,  // measure 64
0100
0000
0010
0000
,  // measure 65
0100
0000
1000
0000
,  // measure 66
0001
0000
1000
0000
,  // measure 67
0010
0000
1000
0000
,  // measure 68
0001
0000
0010
0000
,  // measure 69
0100
0000
1000
0000
,  // measure 70
0100
0000
0010
0000
,  // measure 71
0001
0000
1000
0000
,  // measure 72
0010
0000
1000
0000
,  // measure 73
0001
0000
0000
0000
,  // measure 74
0010
0000
0000
0000
,  // measure 75
0100
0000
0000
0000
,  // measure 76
1000
0000
0000
0000
,  // measure 77
0010
0000
0000
0000
,  // measure 78
0100
0000
0000
0000
,  // measure 79
0001
0000
0000
0000
,  // measure 80
1000
0000
0000
0000
,  // measure 81
0001
0000
0000
0000
;

//---------------dance-single - ----------------
#NOTES:
     dance-single:
     X-Scale 7:
     Easy:
     5:
     0.360748,0.378785,0.023382,0.452048,0.000000,324.000000,321.000000,3.000000,58.000000,0.000000,0.000000,0.360748,0.378785,0.023382,0.452048,0.000000,324.000000,321.000000,3.000000,58.000000,0.000000,0.000000:
// measure 0
0000
0000
0000
0000
,  // measure 1
0000
0000
0000
0000
,  // measure 2
0000
0000
0000
0000
,  // measure 3
0000
0000
0000
0000
,  // measure 4
0000
0000
0000
0000
,  // measure 5
0002
0100
0000
0100
,  // measure 6
0203
0010
0000
0010
,  // measure 7
0320
0000
1000
0000
0000
0000
1030
0010
,  // measure 8
0200
0000
0001
0000
0000
0000
0301
0100
,  // measure 9
0010
0000
1000
0000
0100
0000
0010
0001
,  // measure 10
1000
0000
0001
0000
0100
0000
0001
0010
,  // measure 11
0100
0000
1000
0000
0001
0000
0100
0001
,  // measure 12
1000
0000
0001
0000
0010
0000
0100
0010
,  // measure 13
0001
0000
1000
0000
0001
0000
0100
0001
,  // measure 14
1000
0000
0010
0000
1000
0000
0001
0010
,  // measure 15
0100
0000
0010
0000
0002
0000
1003
0020
,  // measure 16
0000
0130
0002
0000
1003
0000
0001
0010
,  // measure 17
0100
0000
0010
0000
0001
0000
1000
0001
,  // measure 18
0100
0000
0001
0000
1000
0000
0010
1000
,  // measure 19
0001
0000
1000
0000
0001
0000
0010
0100
,  // measure 20
1000
0000
0100
0000
0010
0000
0100
1000
,  // measure 21
0001
0000
0100
0000
0001
0000
1000
0100
,  // measure 22
0010
0000
0001
0000
1000
0000
0001
0010
,  // measure 23
0100
0000
1000
0000
0001
1000
0001
0020
,  // measure 24
0100
0100
0130
0000
,  // measure 25
2100
3001
0020
0130
,  // measure 26
2000
0000
0100
0000
3002
0000
0103
0001
,  // measure 27
0020
0130
2000
3001
,  // measure 28
0200
0010
0302
0013
,  // measure 29
0100
0010
0001
0000
2000
0000
3010
0000
,  // measure 30
0200
0000
0001
0000
0320
0000
1030
0001
,  // measure 31
0020
0130
2000
3100
,  // measure 32
0020
0000
0001
0000
0130
0000
0010
0001
,  // measure 33
2000
0010
3002
0100
,  // measure 34
1003
0001
0100
0000
0001
1000
0010
0000
,  // measure 35
0020
0100
2030
0100
,  // measure 36
3001
0100
0001
0000
1000
0100
1000
0000
,  // measure 37
2000
0001
3020
0100
,  // measure 38
1030
0001
0010
0000
0100
1000
0001
0000
,  // measure 39
0200
0001
0320
1000
,  // measure 40
0130
0010
1000
0000
0001
0010
0100
0000
,  // measure 41
1001
0000
1000
0000
,  // measure 42
0001
0000
0100
0000
,  // measure 43
0001
0000
0010
0000
,  // measure 44
0100
0000
1000
0000
,  // measure 45
0001
0100
0010
1000
,  // measure 46
0100
0010
0001
0000
,  // measure 47
1000
0001
0100
0010
,  // measure 48
1000
0001
0100
0000
,  // measure 49
0201
0010
0001
0010
,  // measure 50
0301
0010
0000
0010
0000
0010
0100
1000
,  // measure 51
0002
1000
0010
1000
,  // measure 52
0013
0000
1000
0001
0100
0000
0001
0000
,  // measure 53
0020
0100
0001
0100
,  // measure 54
0031
1000
0000
1000
0000
1000
0010
0100
,  // measure 55
0002
1000
0010
1000
,  // measure 56
0013
0100
0000
0100
2000
0000
3002
0000
,  // measure 57
0203
0000
0010
0000
0302
0000
0013
0100
,  // measure 58
2000
0000
0100
0000
3020
0000
0130
0010
,  // measure 59
2000
3001
0002
0013
,  // measure 60
0200
0000
0010
0000
0302
0000
1003
0001
,  // measure 61
0200
0310
0020
1030
,  // measure 62
0200
0000
0010
0000
2300
0000
3001
0010
,  // measure 63
0200
0000
1300
0000
0001
1000
0020
0000
,  // measure 64
0230
0000
0000
0301
0020
0000
0230
0000
,  // measure 65
2300
0100
3001
0100
,  // measure 66
0001
0010
0100
1000
0000
0010
1000
0001
,  // measure 67
0100
0001
1000
0100
,  // measure 68
0020
0000
0100
0000
0032
0000
0103
0001
,  // measure 69
1000
0000
0001
0000
0010
0100
1000
0000
,  // measure 70
0002
0000
0100
0000
2003
0000
3001
1000
,  // measure 71
0001
0010
0100
1000
,  // measure 72
0010
1000
0100
0010
,  // measure 73
0001
0000
1000
0000
,  // measure 74
0010
0000
1000
0000
,  // measure 75
0001
0000
0010
0000
,  // measure 76
0100
0000
1000
0000
,  // measure 77
0100
0000
0010
0000
,  // measure 78
0001
0000
1000
0000
,  // measure 79
0010
0000
1000
0000
,  // measure 80
0001
0000
0010
0000
,  // measure 81
0100
0000
0000
0000
;

//---------------dance-single - ----------------
#NOTES:
     dance-single:
     X-Scale 12:
     Medium:
     8:
     0.545575,0.662362,0.085733,0.452048,0.136394,490.000000,479.000000,11.000000,58.000000,0.000000,0.000000,0.545575,0.662362,0.085733,0.452048,0.136394,490.000000,479.000000,11.000000,58.000000,0.000000,0.000000:
// measure 0
0000
0000
0000
0000
,  // measure 1
0000
0000
0000
0000
,  // measure 2
0000
0000
0000
0000
,  // measure 3
0000
0000
0000
0000
,  // measure 4
0000
0000
0000
0000
,  // measure 5
2000
0010
0001
0010
,  // measure 6
3002
0100
1000
0100
,  // measure 7
2003
0000
0100
0000
0001
0000
3010
1000
,  // measure 8
0200
0000
0001
0000
0010
0000
1300
0100
,  // measure 9
0020
0000
0031
0010
1000
0010
0100
0020
,  // measure 10
0001
0000
0130
1000
0002
0000
1003
0020
,  // measure 11
0001
0000
1030
0000
0002
0000
1003
0020
,  // measure 12
0001
0000
1030
0000
0010
0000
0001
0010
,  // measure 13
2000
0000
3100
0010
0001
1000
0001
0200
,  // measure 14
1000
0000
0310
0100
0001
1000
0100
0020
,  // measure 15
1000
0000
0031
0000
0200
0000
0301
0020
,  // measure 16
0000
0130
2000
0000
3100
1000
0001
0100
,  // measure 17
0002
0000
0023
0000
1030
0001
0100
2000
,  // measure 18
0100
0000
3001
0010
1000
0010
0100
0020
,  // measure 19
1000
0000
0031
0000
0010
0100
1000
0002
,  // measure 20
0100
0000
1003
0000
0001
1000
0010
0000
,  // measure 21
0200
0000
0302
0000
1003
0001
0100
0020
,  // measure 22
0001
0000
1030
0000
0010
0100
0001
2000
,  // measure 23
0100
0000
3001
0000
0010
0100
1000
0020
,  // measure 24
0001
0000
0100
0000
2000
0000
0000
3030
,  // measure 25
1001
0000
0000
0000
1000
0000
0000
1000
0001
0000
0010
0000
1000
0000
0010
0000
,  // measure 26
0001
0000
0000
0000
1000
0000
0000
1000
0001
0000
0100
0000
0010
0000
1000
0000
,  // measure 27
0001
0000
0000
0000
0010
0000
0000
0010
0100
0000
1000
0000
0001
0000
1000
0000
,  // measure 28
0010
0000
0000
0000
0100
0000
0000
0100
1000
0000
0100
0000
0001
0000
1000
0000
,  // measure 29
0001
0000
0000
0000
0010
0000
0000
0010
0100
0000
1000
0000
0001
0000
0100
0000
,  // measure 30
0010
0000
0000
0000
0100
0000
0000
0100
0001
0000
1000
0000
0010
0000
1000
0000
,  // measure 31
0001
0000
0000
0000
1000
0000
0000
1000
0001
0000
0100
0000
0001
0000
0010
0100
,  // measure 32
0010
0000
0100
0000
1000
0000
0001
1000
0001
0000
0100
0000
0001
0000
1000
0000
,  // measure 33
1001
0000
0000
0000
0010
0000
0000
0010
1000
0000
0001
0000
1000
0000
0001
0000
,  // measure 34
0100
0000
0000
0000
0001
0000
0100
0001
1000
0000
0100
0000
0001
0000
0100
0000
,  // measure 35
1000
0000
0000
0000
0001
0000
0000
0001
0100
0000
0010
0000
1000
0000
0001
0000
,  // measure 36
0100
0000
0000
0000
0001
0000
1000
0100
0010
0000
0100
0000
0001
0000
0100
0000
,  // measure 37
1000
0000
0000
0000
0001
0000
0000
0001
0100
0000
0010
0000
1000
0000
0001
0000
,  // measure 38
1000
0200
0300
0200
0300
0200
0310
0001
,  // measure 39
1000
0000
0001
0000
0100
0000
0001
1000
0100
0000
1000
0000
0010
0000
0100
0010
,  // measure 40
0001
0000
0010
0000
1000
0000
0100
0010
0001
0000
0010
0000
0100
0000
0010
0000
,  // measure 41
2001
0100
3020
0001
,  // measure 42
2030
0010
3002
0010
,  // measure 43
0203
1000
0302
0010
,  // measure 44
2003
0100
3002
0100
,  // measure 45
1003
0010
0001
0010
,  // measure 46
0100
0010
1000
0010
,  // measure 47
1000
0100
1100
0000
0001
0100
0101
0000
,  // measure 48
1000
0001
0100
0010
1000
0001
0010
0100
,  // measure 49
1001
0000
0000
0000
0001
0000
0100
0001
0100
0000
0010
0000
1000
0000
0000
0000
,  // measure 50
0001
0200
0300
0200
0300
0200
0301
1000
,  // measure 51
0001
0000
0010
0000
0100
0000
0010
0000
0001
0000
0000
0000
1000
0000
0010
1000
,  // measure 52
0001
0000
0100
0001
1000
0001
0100
0000
,  // measure 53
0001
0000
1000
0001
1000
0000
0010
0000
1000
0000
0001
0000
0100
0000
0000
0000
,  // measure 54
0001
0020
0030
0020
0030
0020
1030
0010
,  // measure 55
0001
0000
1000
0001
0100
0000
0001
0000
1000
0000
0000
0000
0100
0000
0010
0000
,  // measure 56
0001
0000
1000
0001
0200
0000
0302
0000
,  // measure 57
2003
0000
0000
0000
0100
0000
0000
0000
3001
0000
1000
0000
0010
0000
0100
0010
,  // measure 58
0100
0000
0000
0000
0001
0000
0000
1000
0010
0000
1000
0000
0001
0000
1000
0000
,  // measure 59
0100
0000
0000
0000
0010
0000
0000
0000
0100
0000
1000
0000
0001
0000
0100
0001
,  // measure 60
0100
0000
0000
0000
0001
0000
0000
1000
0010
0000
1000
0000
0001
0000
0000
0000
,  // measure 61
0010
0000
0100
1000
0100
0000
0000
0000
0010
0000
0001
0000
1000
0000
0000
0000
,  // measure 62
0001
0200
1300
0200
0310
0200
0301
0200
,  // measure 63
0310
0000
0100
0001
1000
0000
0001
0000
0100
0000
0000
0000
0001
0000
0010
0100
,  // measure 64
0010
0000
0001
1000
0020
0000
2030
0000
,  // measure 65
3200
0000
0010
0000
1300
0100
0010
0000
,  // measure 66
0001
0100
0010
1000
0000
1000
0010
0100
,  // measure 67
0001
0000
0000
0000
1000
0000
0100
0000
0010
0000
0000
0000
0001
0000
0100
0001
,  // measure 68
0100
0010
0100
0000
0001
0000
0010
0100
,  // measure 69
1000
0000
0001
1000
0001
0000
0000
0000
0100
0000
0010
0000
1000
0000
0000
0000
,  // measure 70
0001
0020
1030
0020
0031
0020
0130
0020
,  // measure 71
0031
0000
1000
0001
1000
0000
0100
0000
0010
0000
0000
0000
0001
0000
0000
0000
,  // measure 72
1000
0010
0001
0010
1000
0001
1000
0000
,  // measure 73
1001
0001
1000
0001
0010
0000
0110
0000
,  // measure 74
0100
1000
0001
0100
,  // measure 75
0001
0000
0000
0010
0100
0000
0010
0000
0001
0000
0000
0000
1000
0000
0001
0000
,  // measure 76
0100
0001
0010
0100
,  // measure 77
1000
0000
0000
1000
0001
0000
0100
0000
0001
0000
0000
0000
0101
0000
0000
0000
,  // measure 78
1000
1001
0100
0110
,  // measure 79
0010
0000
0000
0010
1000
0000
0001
0000
0100
0000
0000
0000
0001
0000
0000
0000
,  // measure 80
0010
0000
0100
0000
1000
0000
0000
0000
0001
0000
1000
0000
0001
0000
1000
0001
;

//---------------dance-single - ----------------
#NOTES:
     dance-single:
     X-Scale 15:
     Hard:
     10:
     0.672505,0.662874,0.085733,0.498811,0.342933,604.000000,593.000000,11.000000,64.000000,0.000000,0.000000,0.672505,0.662874,0.085733,0.498811,0.342933,604.000000,593.000000,11.000000,64.000000,0.000000,0.000000:
// measure 0
0000
0000
0000
0000
,  // measure 1
0000
0000
0000
0000
,  // measure 2
0000
0000
0000
0000
,  // measure 3
0000
0000
0000
0000
,  // measure 4
0000
0000
0000
0000
,  // measure 5
1000
0000
0000
0000
1001
0000
1000
0001
1000
0000
0100
0000
0010
0000
0000
0000
,  // measure 6
0001
0000
0000
0000
0011
0000
0010
0100
0010
0000
0001
0000
1000
0000
0000
0000
,  // measure 7
0010
0000
0000
0000
1001
0000
0010
1000
0010
0000
0100
0000
0001
0000
0000
0000
,  // measure 8
0100
0000
0000
0000
1001
0000
0001
0100
0001
0000
1000
0000
0001
0000
0100
0000
,  // measure 9
0020
0000
0031
0010
1000
0100
0001
0200
,  // measure 10
0010
0000
0000
0000
1300
0000
0100
0010
0002
0000
0000
0000
1003
0000
0020
0000
,  // measure 11
0100
0000
0000
0000
1030
0000
1000
0001
0020
0000
0000
0000
0130
0000
2000
0000
,  // measure 12
0100
0000
0000
0000
3001
0000
1000
0010
0100
0000
0001
0000
1000
0000
0001
0000
,  // measure 13
0200
0000
0000
0000
1300
0000
0100
0001
1000
0000
0100
0000
0010
0000
0200
0000
,  // measure 14
1000
0000
0000
0000
0301
0000
0100
0010
0001
0000
1000
0000
0001
0000
0200
0000
,  // measure 15
1000
0000
0000
0000
0310
0000
0010
1000
0002
0000
0000
0000
0013
0000
0200
0000
,  // measure 16
0000
0000
1300
0000
0001
0000
0100
0001
1000
0000
0010
0000
0100
0000
0001
0000
,  // measure 17
2000
0000
0000
0000
3020
0000
0000
0000
0032
0000
0000
0000
0013
0000
1000
0010
,  // measure 18
1000
0000
0001
0000
0100
0000
0010
0100
0010
0000
1000
0000
0100
0000
0020
0000
,  // measure 19
0100
0000
0000
0000
0031
0000
0010
0100
1000
0000
0001
0000
0100
0000
0002
0000
,  // measure 20
1000
0000
0000
0000
0103
0000
0001
0100
1000
0000
0100
0000
0010
0000
0100
0000
,  // measure 21
0002
0000
2003
0000
3001
0100
0010
0200
,  // measure 22
1000
0000
0000
0000
0310
0000
0100
0010
1000
0000
0001
0000
1000
0000
0200
0000
,  // measure 23
0010
0000
0000
0000
0301
0000
0100
0010
0001
0000
1000
0000
0001
0000
0100
0000
,  // measure 24
0202
0303
0220
0330
2002
0000
0000
3003
,  // measure 25
1100
0000
0100
0000
1000
0000
0001
0100
0000
0010
1000
0000
0001
0000
1000
0100
,  // measure 26
0010
0000
0100
0000
1000
0000
0001
0010
0000
0010
0100
0000
0010
0000
0001
0000
,  // measure 27
1000
0000
0010
0000
0100
0000
0001
1000
0000
1000
0010
0000
0100
0000
0001
0010
,  // measure 28
0100
0000
0001
0000
0100
0000
1000
0100
0000
0100
0010
0000
0001
0000
1000
0000
,  // measure 29
0010
0000
1000
0000
0001
0000
0100
0010
0000
0100
0001
0000
1000
0000
0001
0100
,  // measure 30
0010
0000
0100
0000
0001
0000
1000
0010
0000
0010
0001
0000
0010
0000
1000
0000
,  // measure 31
0001
0000
0100
0000
0010
0000
1000
0100
0000
1000
0001
0000
0100
0000
0001
0100
,  // measure 32
0010
0000
0100
0000
1000
0000
0100
0010
1000
0000
0001
0000
0010
0000
0100
0000
,  // measure 33
1000
0000
0001
0000
0100
0000
0010
0100
0001
0000
1000
0000
0001
0000
1000
0010
,  // measure 34
0100
0001
1000
0200
0300
0100
0001
1000
,  // measure 35
0010
0000
1000
0000
0100
0000
0010
0100
1000
0000
0001
0000
1000
0000
0010
1000
,  // measure 36
0001
0000
0100
0000
0001
0000
1000
0010
0100
0000
0001
0000
0100
0000
0010
0000
,  // measure 37
0001
0000
0010
0000
1000
0000
0100
1000
0001
0000
0100
0000
0010
0000
1000
0001
,  // measure 38
0100
0020
0030
0010
0001
1000
0001
0100
,  // measure 39
1000
0000
0100
0000
0001
0000
0010
0100
1000
0000
0001
0000
0100
0000
0010
0100
,  // measure 40
0001
0000
0010
0000
0100
0000
1000
0100
0010
0000
0100
0000
1000
0000
0001
0000
,  // measure 41
1002
0100
0010
0100
,  // measure 42
1000
0100
0010
0100
,  // measure 43
2003
3200
0302
0023
,  // measure 44
2030
3002
0203
0301
,  // measure 45
0020
2030
3200
0302
,  // measure 46
2003
3002
0023
0130
,  // measure 47
1000
0100
0001
1000
0010
0001
1000
0001
,  // measure 48
0100
0100
0010
0010
2000
0100
3002
0010
,  // measure 49
2003
0000
0100
0000
3001
0100
1000
0100
,  // measure 50
0001
0000
0020
0000
0030
0000
0010
0000
1000
0001
1000
0000
0100
0000
0001
0000
,  // measure 51
1000
0000
0010
0000
0001
0000
0000
0000
1000
0000
0010
0000
0100
0000
0001
1000
,  // measure 52
0020
0030
0010
0001
2000
0000
3200
0000
,  // measure 53
0320
0000
1000
0000
0031
0010
1000
0010
,  // measure 54
0001
0200
0300
0100
1000
0001
1000
0010
,  // measure 55
1000
0000
0001
1000
0001
0000
0000
0000
0001
0000
0010
0000
0100
0000
1000
0000
,  // measure 56
0200
0300
0100
0001
2000
0000
3002
0000
,  // measure 57
0203
0000
0000
0000
1000
0000
0000
0000
0301
0000
1000
0000
0001
0000
0100
0010
,  // measure 58
0100
0000
0001
0000
0010
0000
0100
1000
0000
0100
0010
0000
0001
0000
1000
0000
,  // measure 59
0010
0000
1000
0000
0001
0000
0010
0100
0000
1000
0001
0000
0100
0000
0001
1000
,  // measure 60
0010
0000
1000
0000
0001
0000
0010
0100
0000
0100
1000
0000
0010
0000
0100
0000
,  // measure 61
0001
0000
1000
0100
0010
0000
0001
0010
0000
0100
0010
0000
0001
0000
1000
0001
,  // measure 62
1000
0200
0300
0100
0001
1000
0010
0100
,  // measure 63
0001
0000
1000
0001
0100
0000
0010
0100
0000
0010
1000
0000
0100
0000
0010
0100
,  // measure 64
1000
0000
0001
0000
0010
0000
0100
0010
0002
0000
0100
0000
2003
0000
0100
0000
,  // measure 65
3002
0000
0000
0000
0100
0000
0000
0000
1003
0000
1000
0000
0001
0000
0010
0100
,  // measure 66
1000
0001
1000
0200
0300
0100
0001
1000
,  // measure 67
0010
0000
1000
0000
0001
0000
1000
0001
0010
0000
0001
0000
1000
0000
0010
1000
,  // measure 68
0001
0000
0100
0000
0001
0000
0010
0100
1000
0000
0010
0000
0001
0000
0010
0000
,  // measure 69
1000
0000
0001
1000
0010
0000
1000
0000
0001
0000
0010
0000
0001
0000
1000
0000
,  // measure 70
0100
0020
0030
0010
1000
0001
1000
0010
,  // measure 71
0100
0000
0001
0100
1000
0000
0100
0000
0001
0000
1000
0000
0001
0000
0100
0001
,  // measure 72
1000
0000
0001
0000
1000
0000
0100
0000
0010
0000
0001
0000
0100
0000
0001
1000
,  // measure 73
0100
0000
0000
0010
0100
0000
1000
0000
0001
0000
1000
0000
0200
0000
0300
0000
,  // measure 74
0100
0000
0001
0000
1000
0000
0000
0000
0001
0100
0010
1000
0001
0000
0001
0000
,  // measure 75
1000
0000
0000
1000
0010
0000
0100
0000
0001
0100
0010
1000
0001
0000
1000
0000
,  // measure 76
0020
0000
0030
0000
0010
0000
0001
0000
0100
0010
1000
0001
0100
0000
0100
0000
,  // measure 77
0001
0000
1000
0100
0010
0000
0001
0000
1000
0010
0000
0010
0001
0000
0010
0000
,  // measure 78
1000
1010
0001
0011
,  // measure 79
1000
0000
0000
0100
1000
0000
0001
0000
0100
0010
1000
0000
0001
0000
0000
0000
,  // measure 80
0010
0000
0100
0000
1000
0000
0000
0000
0001
0000
1000
0000
0001
0000
0100
0001
,  // measure 81
0100
0000
0000
0000
;
