#VERSION:0.83;
#TITLE:First Class Bitch;
#SUBTITLE:;
#ARTIST:Confidence Man;
#TITLETRANSLIT:;
#SUBTITLETRANSLIT:;
#ARTISTTRANSLIT:;
#GENRE:House;
#ORIGIN:;
#CREDIT:;
#BANNER:First Class Bitch-bn.png;
#BACKGROUND:First Class Bitch-bg.png;
#PREVIEWVID:;
#JACKET:First Class Bitch-jacket.png;
#CDIMAGE:;
#DISCIMAGE:;
#LYRICSPATH:;
#CDTITLE:cdtitle.png;
#MUSIC:First Class Bitch.ogg;
#OFFSET:-0.001000;
#SAMPLESTART:37.796001;
#SAMPLELENGTH:15.118000;
#SELECTABLE:YES;
#BPMS:0.000=127.000;
#STOPS:;
#DELAYS:;
#WARPS:;
#TIMESIGNATURES:0.000=4=4;
#TICKCOUNTS:0.000=4;
#COMBOS:0.000=1;
#SPEEDS:0.000=1.000=0.000=0;
#SCROLLS:0.000=1.000;
#FAKES:;
#LABELS:0.000=Song Start;
#BGCHANGES:0.000=First Class Bitch.avi=1.000=0=0=0=StretchNoLoop====,
99999=-nosongbg-=1.000=0=0=0 // don't automatically add -songbackground-
;
#KEYSOUNDS:;
#ATTACKS:
;

//---------------dance-single - ----------------
#NOTEDATA:;
#CHARTNAME:X-Scale 2;
#STEPSTYPE:dance-single;
#DESCRIPTION:;
#CHARTSTYLE:;
#DIFFICULTY:Beginner;
#METER:1;
#RADARVALUES:0.106015,0.127416,0.008530,0.000000,0.000000,87.000000,86.000000,1.000000,0.000000,0.000000,0.000000,0.000000,0.000000,0.000000,0.106015,0.127416,0.008530,0.000000,0.000000,87.000000,86.000000,1.000000,0.000000,0.000000,0.000000,0.000000,0.000000,0.000000;
#CREDIT:iamthek3n;
#NOTES:
0000
0000
0000
0000
,
0000
0000
0000
0000
,
0000
0000
0000
0000
,
0000
0000
0000
0000
,
0001
0000
0000
0000
,
0100
0000
0000
0000
,
0001
0000
0000
0000
,
1000
0000
0000
0000
,
0001
0000
0000
0000
,
0100
0000
0000
0000
,
0001
0000
0000
0000
,
1000
0000
0000
0000
,
0100
0000
0000
0000
,
0010
0000
0000
0000
,
0100
0000
0000
0000
,
1000
0000
0000
0000
,
0100
0000
0000
0000
,
0010
0000
0000
0000
,
0100
0000
0000
0000
,
1000
0000
0000
0000
,
1001
0000
0000
0000
,
0001
0000
0100
0000
,
0001
0000
1000
0000
,
0010
0000
1000
0000
,
0100
0000
0010
0000
,
0100
0000
1000
0000
,
0001
0000
0100
0000
,
0001
0000
0010
0000
,
0100
0000
0000
0000
,
0010
0000
0000
0000
,
0001
0000
0000
0000
,
1000
0000
0000
0000
,
0001
0000
0000
0000
,
0100
0000
0000
0000
,
0001
0000
0000
0000
,
1000
0000
0000
0000
,
0100
0000
0000
1000
,
0000
0001
0000
0100
,
0000
0001
0000
1000
,
0000
0010
0000
1000
,
0000
0100
0000
0010
,
0000
0100
0000
1000
,
0000
0001
0000
1000
,
0000
0001
0000
0000
,
0100
0000
0010
0000
,
1000
0000
0010
0000
,
0100
0000
0010
0000
,
1000
0000
0001
0000
,
0010
0000
0001
0000
,
1000
0000
0001
0000
,
0010
0000
0100
0000
,
1000
0000
0100
0000
,
0010
0000
0001
0000
,
1000
0000
0001
0000
,
0100
0000
0001
0000
,
1000
0000
0010
0000
,
0100
0000
0001
0000
,
0010
0000
0100
0000
,
1000
0000
0001
0000
,
1000
0000
0000
0100
;

//---------------dance-single - ----------------
#NOTEDATA:;
#CHARTNAME:X-Scale 6;
#STEPSTYPE:dance-single;
#DESCRIPTION:;
#CHARTSTYLE:;
#DIFFICULTY:Easy;
#METER:4;
#RADARVALUES:0.277833,0.305799,0.042650,0.238839,0.000000,228.000000,223.000000,5.000000,28.000000,0.000000,0.000000,0.000000,0.000000,0.000000,0.277833,0.305799,0.042650,0.238839,0.000000,228.000000,223.000000,5.000000,28.000000,0.000000,0.000000,0.000000,0.000000,0.000000;
#CREDIT:iamthek3n;
#NOTES:
0000
0000
0000
0000
,
0000
0000
0000
0000
,
0000
0000
0000
0000
,
0000
0000
0000
0000
,
1000
0000
0001
0000
0100
0010
0100
0000
,
0001
0000
0010
0000
0100
1000
0100
0000
,
0010
0000
0001
0000
1000
0010
1000
0000
,
0100
0000
1000
0000
0001
0100
0001
0000
,
0010
0000
0100
0000
0010
0001
0010
0000
,
0100
0000
1000
0000
0001
0100
0001
0000
,
1000
0000
0010
0000
0100
0010
0100
0000
,
0001
0000
0010
0000
0100
0010
0100
0010
,
0200
0000
0000
0000
1300
0100
1000
0000
,
0001
0000
0100
0000
0010
0100
0010
0000
,
2000
0000
0000
0000
3001
1000
0001
0000
,
0010
0000
0100
0000
1000
0001
0100
0010
,
2000
0000
3100
0010
,
0002
0000
0013
0100
,
2000
0000
3100
0010
,
0001
0000
0000
0000
,
1001
0000
0000
2000
,
3002
0000
0103
0001
,
1000
0000
0010
0100
0010
0000
2000
0000
,
3002
0000
0013
0100
,
1000
0000
0001
0100
0001
0000
2000
0000
,
3200
0000
0310
0100
,
1000
0000
0001
0100
0001
0000
0020
0000
,
0230
0000
1300
1000
,
2001
0000
0000
0000
3100
1000
0100
0000
,
0010
0000
0000
0000
0001
0100
0001
0000
,
0002
0000
0000
0000
0103
0010
0100
0000
,
0001
0000
0000
0000
1000
0010
1000
0010
,
2000
0000
0000
0000
3100
0010
0100
0000
,
1000
0000
0000
0000
0001
0100
0001
0000
,
0020
0000
0000
0000
0130
0010
0100
0000
,
1000
0000
0000
0001
0000
1000
0010
1000
,
0020
0000
0030
0110
,
0100
0000
0001
0000
1000
0010
1000
0000
,
0100
0000
0010
0100
0010
0000
0001
0000
,
0100
0000
0001
0000
1000
0001
1000
0000
,
0010
0000
0100
0010
0100
0000
0001
0000
,
0010
0000
0100
0000
1000
0100
1000
0000
,
0001
0000
1000
0010
1000
0000
0002
0000
,
0200
0000
0303
0000
,
2001
0000
3010
1000
,
0001
0010
0100
1000
,
0200
0000
0310
0001
,
1000
0001
0010
0100
,
2000
0000
3001
0100
,
0001
0010
0100
0010
,
0002
0000
0103
0001
,
1000
0000
0001
0000
0010
0100
1000
0000
,
1200
0000
0310
0100
,
1000
0001
0100
0010
,
0200
0000
0301
0010
,
0100
1000
0010
0100
,
0002
0000
1003
0001
,
0100
0001
0010
0001
,
0200
0000
0310
0100
,
0001
1000
0100
0010
;

//---------------dance-single - ----------------
#NOTEDATA:;
#CHARTNAME:X-Scale 8;
#STEPSTYPE:dance-single;
#DESCRIPTION:;
#CHARTSTYLE:;
#DIFFICULTY:Medium;
#METER:6;
#RADARVALUES:0.389941,0.383048,0.110889,0.332668,0.093829,320.000000,307.000000,13.000000,39.000000,0.000000,0.000000,0.000000,0.000000,0.000000,0.389941,0.383048,0.110889,0.332668,0.093829,320.000000,307.000000,13.000000,39.000000,0.000000,0.000000,0.000000,0.000000,0.000000;
#CREDIT:iamthek3n;
#NOTES:
0000
0000
0000
0000
,
0000
0000
0000
0000
,
0000
0000
0000
0000
,
0000
0000
0000
0000
,
0001
0000
0000
0010
0000
0000
0010
0000
0000
0000
0001
0000
1000
0000
0000
0000
,
1000
0000
0000
0010
0000
0000
0010
0000
0000
0000
1000
0000
0010
0000
0100
0000
,
0001
0000
0000
0100
0000
0000
0100
0000
0000
0000
0010
0000
1000
0000
0000
0000
,
0001
0000
0000
1000
0000
0000
1000
0000
0000
0000
0100
1000
0000
0000
1000
0000
,
0001
0000
0000
0100
0000
0000
0001
0000
0000
0000
1000
0000
0010
0000
1000
0000
,
0100
0000
0000
0010
0000
0000
0010
0000
0000
0000
0100
0000
1000
0000
0001
0000
,
0100
0000
0000
0010
0000
0000
0010
0000
0000
0000
1000
0000
0100
0000
0010
0000
,
0001
0000
0000
0100
0000
0000
0100
0000
1000
0000
0100
0000
0010
0000
0100
0000
,
0002
0000
0013
0000
0100
0010
0001
0000
,
1000
0000
0000
0001
0000
0000
0100
0000
0000
0000
0010
0000
0100
0000
0001
0000
,
0020
0000
0130
0000
1000
0010
0001
0010
,
1000
0000
0000
0100
0000
0000
0100
0000
0000
0000
0010
0100
0000
0000
0010
0000
,
0002
0000
1003
0000
0001
0010
0100
0000
,
2000
0000
3010
0000
1000
0100
0010
0000
,
0002
0000
0103
0000
0001
1000
0010
0000
,
1000
0100
0001
0010
,
2000
0000
3000
1001
,
0110
0000
0100
0000
0001
0010
0100
0000
,
2000
0100
3001
1001
,
0110
0000
0010
0000
1000
0001
0100
0000
,
0002
0100
1003
1001
,
0110
0000
0010
0000
1000
0100
0010
0000
,
0002
0010
1003
1001
,
0110
0000
0100
0000
0001
1000
0001
0000
,
1000
1000
1000
0000
0001
0001
0001
0000
,
1000
0100
0001
0000
1000
0010
0001
0000
,
1000
1000
1000
0000
0001
0001
0001
0000
,
1000
0100
0001
0000
0001
0100
0010
0100
,
1000
1000
1000
0000
0001
0001
0001
0000
,
1000
0100
0001
0000
1000
0010
0001
0000
,
1000
1000
1000
0000
0001
0001
0001
0000
,
1000
0000
0000
0010
0000
0000
0001
0000
0000
0000
0001
0000
0010
0000
0100
0000
,
0020
0000
0030
1010
,
0011
0000
0000
1000
0000
0000
0001
0000
0010
0000
1000
0000
0010
0000
0100
0000
,
2000
0000
0100
0000
3001
1000
0010
0100
,
0001
0000
0010
0000
0100
0010
0001
1000
,
0002
0100
1003
1001
,
1100
0000
0000
0100
0000
0000
1000
0000
0001
0000
0100
0000
1000
0000
0100
0000
,
0002
0000
0100
0000
1003
0100
0010
0100
,
2000
0000
0000
0000
0002
3003
0002
0003
,
1001
0000
0000
1000
0100
0000
1000
0000
0002
0000
0000
0000
0023
0000
0000
0000
,
2030
0000
3010
0100
2000
0000
3100
0010
,
0001
0000
0000
0100
0001
0000
1000
0000
0200
0000
0000
0000
0320
0000
0000
0000
,
0032
0000
0013
0100
2000
0000
3001
1000
,
0010
0000
0000
0100
0010
0000
0100
0000
0002
0000
0000
0000
0023
0000
0000
0000
,
2030
0000
3010
0100
2000
0000
3001
1000
,
0100
0000
0000
0100
0010
0000
0001
0000
2000
0000
0000
0000
3002
0000
0000
0000
,
0103
0000
0000
0010
0100
0000
0001
0000
1000
0000
0100
0000
0001
0000
0100
0000
,
2000
0000
0000
0000
0100
0000
0000
0000
3001
0000
0010
0100
1000
0000
0000
0000
,
2000
3020
0032
0203
,
2300
0000
0100
0000
3001
1000
0010
0100
,
0001
0000
0010
0000
0100
0010
0001
1000
,
0010
0000
0100
0000
1000
0100
0010
0100
,
0001
0010
2000
3200
,
0302
0000
0100
0000
1003
0001
0100
0010
,
1000
0000
0000
0001
0000
0000
0001
0000
0000
0000
0100
0000
0001
0000
1000
0000
;

//---------------dance-single - ----------------
#NOTEDATA:;
#CHARTNAME:X-Scale 13;
#STEPSTYPE:dance-single;
#DESCRIPTION:;
#CHARTSTYLE:;
#DIFFICULTY:Hard;
#METER:9;
#RADARVALUES:0.553228,0.562977,0.238839,0.272958,0.341198,454.000000,426.000000,28.000000,32.000000,0.000000,0.000000,0.000000,0.000000,0.000000,0.553228,0.562977,0.238839,0.272958,0.341198,454.000000,426.000000,28.000000,32.000000,0.000000,0.000000,0.000000,0.000000,0.000000;
#CREDIT:iamthek3n;
#NOTES:
// measure 0
0000
0000
0000
0000
,  // measure 1
0000
0000
0000
0000
,  // measure 2
0000
0000
0000
0000
,  // measure 3
0000
0000
0000
0000
,  // measure 4
1001
0000
1000
0000
0001
0100
0000
0001
0000
0000
0010
0000
0100
0000
0010
0001
,  // measure 5
0000
0000
1000
0000
0010
0000
1000
0001
0000
0000
0100
0000
1000
0000
0100
0000
,  // measure 6
0001
0000
0100
0000
0010
0000
1000
0010
0000
0000
0100
0000
0001
0000
0010
0100
,  // measure 7
0000
0000
1000
0000
0010
0000
1000
0001
0000
0000
0010
0100
0010
0000
0010
0000
,  // measure 8
0001
0000
1000
0000
0001
0000
0100
0001
0000
0000
1000
0000
0010
0000
0100
0010
,  // measure 9
0000
0000
1000
0000
0001
0000
0100
0010
0000
0000
0100
0000
1000
0000
0100
0000
,  // measure 10
0001
0000
0100
0000
0010
0000
1000
0001
0000
0000
0010
0000
1000
0000
0010
0100
,  // measure 11
0000
0000
1000
0000
0010
0000
1000
0001
0020
0030
0020
0030
0020
0030
0020
0030
,  // measure 12
1001
0000
0000
1000
0100
0000
1000
0000
0001
0000
0010
0000
1000
0000
0010
0000
,  // measure 13
0001
0000
0000
0100
0010
0000
1000
0000
0001
0000
0100
0000
1000
0000
0100
0000
,  // measure 14
0001
0000
0000
0100
0010
0000
1000
0000
0001
0000
0100
0000
0010
0000
1000
0000
,  // measure 15
0001
0000
0000
1000
0100
0000
0100
0000
1000
0000
0001
0100
0001
0000
0001
0000
,  // measure 16
0101
0000
0000
0100
0010
0000
1000
0000
0001
0000
0100
0000
0010
0000
1000
0000
,  // measure 17
1010
0000
0000
0010
0100
0000
0001
0000
0010
0000
1000
0000
0010
0000
0100
0000
,  // measure 18
1100
0000
0000
1000
0001
0000
1000
0000
0100
0000
0001
0000
0100
0000
0010
0000
,  // measure 19
0001
0010
1000
0001
0100
0010
0001
0000
,  // measure 20
2002
0000
3003
0011
,  // measure 21
1100
0000
0000
1000
0001
0000
1000
0100
0000
0100
0010
0000
0100
0000
1000
0000
,  // measure 22
0001
0000
0100
0010
0100
0000
0001
0000
0010
0000
0100
0000
0110
0000
0000
0000
,  // measure 23
1001
0000
0000
1000
0010
0000
0100
0010
0000
0010
0001
0000
0010
0000
1000
0000
,  // measure 24
0100
0000
1000
0001
0100
0000
0001
0000
1000
0000
0001
0000
0101
0000
0000
0000
,  // measure 25
1010
0000
0000
1000
0001
0000
0010
0100
0000
0100
1000
0000
0001
0000
0100
0000
,  // measure 26
0001
0000
1000
0100
1000
0000
0001
0000
1000
0000
0100
0000
1100
0000
0000
0000
,  // measure 27
0101
0000
0000
0001
1000
0000
0100
0010
0000
0010
0001
0000
1000
0000
0010
0000
,  // measure 28
0010
0100
0001
1000
0020
0000
0000
0000
0031
0010
0100
0010
2000
0000
0000
0000
,  // measure 29
3001
0000
1000
0000
0001
0010
0100
0000
0001
0000
0100
0000
2000
0000
0000
0000
,  // measure 30
3001
0001
0002
0003
0100
0100
0200
0300
,  // measure 31
0001
0000
0100
0000
1000
0100
0001
0000
1000
0000
0001
0000
0100
0000
0001
0000
,  // measure 32
1000
0010
0100
0001
0020
0000
0000
0000
1030
0010
0100
0010
0002
0000
0000
0000
,  // measure 33
1003
0000
0001
0000
0100
0001
1000
0000
0010
0000
0100
0000
0002
0000
0000
0000
,  // measure 34
1003
1000
2000
3000
0100
0100
0200
0300
,  // measure 35
1100
0000
0000
1001
0000
0000
0110
0000
0000
0000
0001
0000
1000
0000
0001
0000
,  // measure 36
0202
0000
0303
1001
,  // measure 37
1010
0000
0000
1000
0001
0000
1000
0100
0000
0100
0010
0000
1000
0000
0010
0000
,  // measure 38
0001
0000
0000
0100
0001
0000
1000
0010
1000
0000
0001
0000
0101
0000
0000
0000
,  // measure 39
1010
0000
0000
1000
0100
0000
1000
0000
0010
0000
0001
0000
1000
0000
0100
0000
,  // measure 40
0001
0000
0000
0010
0100
0000
0010
0001
0010
0000
0100
0000
1100
0000
0000
0000
,  // measure 41
0101
0000
0000
0001
0100
0000
0001
1000
0000
1000
0100
0000
0001
0000
0100
0000
,  // measure 42
1000
0000
0000
0010
1000
0000
0001
0100
0001
0000
1000
0000
1010
0000
0000
0000
,  // measure 43
0012
0000
0100
0000
0020
0033
0020
0030
,  // measure 44
0012
0000
0000
0010
0000
0000
1000
0000
1003
0000
0001
0000
0100
0000
0010
0000
,  // measure 45
1000
0000
0010
0000
0100
0000
0001
0100
0001
0000
0010
0000
0100
0000
1000
0000
,  // measure 46
0020
0000
0000
0001
0000
0000
0100
0000
0130
0000
0010
0000
1000
0000
0001
0000
,  // measure 47
1000
0000
0100
0000
0010
0000
0001
0010
0100
0000
0010
0000
0001
0000
1000
0000
,  // measure 48
0020
0000
0000
0001
0000
0000
0100
0000
0130
0000
0001
0000
1000
0000
0001
0000
,  // measure 49
0100
0000
0001
0000
1000
0000
0100
0010
0001
0000
1000
0000
0001
0000
0010
0000
,  // measure 50
0200
0000
0000
0001
0000
0000
1000
0000
1300
0000
0100
0000
0001
0000
0100
0000
,  // measure 51
1000
0000
0000
1000
0001
0000
0001
0000
0100
0010
0100
0000
0001
0000
1000
0000
,  // measure 52
1100
0000
0000
0100
1000
0000
0010
0000
0000
0000
0010
0000
0001
0000
0010
0000
,  // measure 53
1000
0000
0000
0001
1000
0000
0010
0000
0200
0000
0000
0000
0320
0000
0000
0000
,  // measure 54
2030
0000
0100
0000
3001
1000
0001
0000
,  // measure 55
0100
0000
0000
0000
0010
0000
0000
1000
0000
1000
0001
0000
1000
0000
1000
0000
,  // measure 56
0200
0000
0001
0000
1300
0100
0010
0000
,  // measure 57
0001
0000
0000
0000
0100
0000
0000
0010
0000
0010
1000
0000
0001
0000
0100
0000
,  // measure 58
0020
0000
0001
0000
1030
0010
1000
0000
,  // measure 59
0001
0000
0000
0100
0001
0000
1000
0100
0000
0100
0010
0000
0002
0000
2000
0000
,  // measure 60
3003
0000
0000
0000
;
