#TITLE:Finally;
#SUBTITLE:;
#ARTIST:Mikkas & Amba Shepherd;
#TITLETRANSLIT:;
#SUBTITLETRANSLIT:;
#ARTISTTRANSLIT:;
#GENRE:Electro Trance;
#CREDIT:;
#BANNER:Finally-bn.png;
#BACKGROUND:Finally-bg.png;
#LYRICSPATH:;
#CDTITLE:cdtitle.png;
#MUSIC:Finally.ogg;
#OFFSET:-0.008000;
#SAMPLESTART:112.500000;
#SAMPLELENGTH:15.000000;
#SELECTABLE:YES;
#BPMS:0.000000=128.000000
;
#STOPS:
;
#BGCHANGES:;
#KEYSOUNDS:;
#ATTACKS:;

//---------------dance-single - ----------------
#NOTES:
     dance-single:
     X-Scale 11:
     Hard:
     8:
     0.543302,0.622700,0.122901,0.204835,0.208249,557.000000,539.000000,18.000000,30.000000,0.000000,0.000000,0.543302,0.622700,0.122901,0.204835,0.208249,557.000000,539.000000,18.000000,30.000000,0.000000,0.000000:
// measure 0
0000
0000
0000
0000
,  // measure 1
0000
0000
0000
0000
,  // measure 2
0000
0000
0000
0000
,  // measure 3
0000
0000
0000
0000
,  // measure 4
0001
0010
1000
0010
0100
0010
1000
0010
,  // measure 5
0100
0010
0001
0000
1000
0100
0001
0100
,  // measure 6
1000
0000
1000
0020
0000
2030
0000
3002
,  // measure 7
1000
1000
1003
0010
1000
0100
0010
0100
,  // measure 8
0110
0010
0001
0010
1000
0010
0100
0010
,  // measure 9
0001
0010
0100
0000
1000
0100
0001
0100
,  // measure 10
1000
0000
0001
2000
0000
3002
0000
0023
,  // measure 11
1000
0100
0031
0010
0001
1000
0010
0100
,  // measure 12
0010
2000
0001
0000
0010
3000
1000
0001
,  // measure 13
0010
0200
0001
0000
1000
0300
0010
0200
,  // measure 14
1300
0200
0310
0002
1003
0002
0010
0000
,  // measure 15
0100
0003
0001
1000
0001
0010
0100
1000
,  // measure 16
1100
0000
0000
0000
1000
0000
0000
0001
1000
0000
0001
0000
0010
0000
0001
0000
,  // measure 17
0100
0000
0000
0000
0010
0000
0000
1000
0010
0000
1000
0000
0100
0000
0010
0000
,  // measure 18
0001
0000
0000
0000
1000
0000
0000
1000
0001
0000
0010
0000
0001
0000
0200
0000
,  // measure 19
1000
0000
0001
0000
1000
0000
0001
0300
,  // measure 20
0101
0001
1000
0001
0100
1000
0100
0001
,  // measure 21
0010
0000
0100
0000
1000
0000
0000
0100
1000
0100
0000
1000
0100
0000
1000
0000
,  // measure 22
1100
1000
0001
1000
0100
0001
0100
0010
,  // measure 23
0001
0000
0000
1000
0001
1000
0000
0100
0020
0000
0000
0000
0031
0000
0010
0000
,  // measure 24
0011
0001
1000
0001
0100
1000
0100
0010
,  // measure 25
1000
0000
0001
0000
0100
0000
0000
0001
0010
0001
0000
0100
0001
0000
0100
0000
,  // measure 26
0101
0001
0010
1000
0010
0100
1000
0001
,  // measure 27
1001
2000
0001
0000
0100
0000
0001
3000
,  // measure 28
1100
1000
0001
1000
0100
0001
0100
1000
,  // measure 29
0001
0010
0001
0100
0010
0000
0010
1000
,  // measure 30
0001
0000
1000
0001
0010
0001
0100
1000
,  // measure 31
0100
0000
0000
0000
0000
0000
0001
0000
0000
0000
0000
0000
0010
0000
0000
0001
0000
0000
0010
0000
0000
0001
0000
0000
0010
0000
0000
0000
0001
0000
0000
0000
1000
0000
0000
0000
0010
0000
0000
0000
0000
0000
0010
0000
0000
0000
0000
0000
,  // measure 32
0100
0001
0100
1000
0001
0010
1000
0100
,  // measure 33
0001
0100
0010
0100
1000
0000
0100
1000
,  // measure 34
0100
0000
1000
0010
0001
0010
0100
0010
,  // measure 35
1000
0000
1000
0000
0010
0000
0010
0100
,  // measure 36
0110
0010
0000
0010
1000
0000
0001
0010
,  // measure 37
0000
0010
1000
0000
0001
0000
1000
0001
,  // measure 38
1000
0000
0100
0020
0031
0020
0130
0020
,  // measure 39
0031
0020
0100
0000
0031
0000
0010
0001
,  // measure 40
1000
0002
0000
0000
0000
0003
0000
1000
,  // measure 41
0000
0002
0000
0000
0000
0003
0000
0020
,  // measure 42
0000
0230
0000
2300
0000
3200
0000
0000
,  // measure 43
2000
0000
0300
0000
3002
1000
0100
1000
,  // measure 44
1003
0000
0000
0001
0000
0000
1000
0000
0000
0000
1000
0000
0001
0100
0001
0000
,  // measure 45
0010
0000
0000
0100
0000
0000
1000
0000
0000
0000
1000
0000
0001
1000
0001
0000
,  // measure 46
0100
0000
0000
1000
0000
0000
0100
0000
0000
0000
0100
0000
0001
0010
0001
0000
,  // measure 47
1000
0000
0000
0100
0000
0000
1000
0000
0000
0000
1000
0000
0001
1000
0001
0000
,  // measure 48
0100
1000
0100
0010
2000
0001
3002
1000
,  // measure 49
2003
0001
3001
1000
0100
1000
0010
0001
,  // measure 50
0010
0000
0100
0000
0001
0000
1000
0000
0100
0000
1000
0000
0010
1000
0010
0000
,  // measure 51
1000
0000
0010
1000
0000
0000
0001
0000
0000
0000
0001
0000
0010
0001
0010
0000
,  // measure 52
0011
0000
0001
0000
1000
0000
0001
0000
0100
0000
0010
0000
1000
0010
1000
0000
,  // measure 53
0100
0000
0010
0000
0100
0000
1000
0001
0000
0010
0000
0001
0100
0001
0100
0000
,  // measure 54
1000
0000
0100
0000
0001
0000
0010
0000
0001
0000
1000
0000
0100
1000
0100
0000
,  // measure 55
0001
0000
0100
0000
1000
0000
0010
0100
0000
0010
0000
0100
0001
0100
0001
0000
,  // measure 56
0101
0000
0001
0000
1000
0000
0001
0010
0000
0010
0000
0010
0100
0010
0100
0000
,  // measure 57
0110
0000
0010
0000
0001
0000
1000
0100
0000
0100
0000
0100
1000
0100
1000
0000
,  // measure 58
1100
0001
1000
0010
0001
0010
0100
0001
,  // measure 59
1000
0000
0000
0010
0000
0000
1010
0000
0000
0000
1001
0000
0001
0000
1000
0000
,  // measure 60
1001
0000
1000
0000
0001
0000
0010
0000
0100
0000
0010
0000
0001
0010
0001
0000
,  // measure 61
1000
0000
0100
0000
0001
0000
0100
0000
1000
0000
0010
0000
0100
0010
0100
0000
,  // measure 62
0001
0000
0010
0000
0100
0000
1000
0000
0010
0000
0100
0000
0001
0100
0001
0000
,  // measure 63
1000
0000
0001
0000
0010
0000
1000
0000
0010
0000
0100
0000
1000
0100
1000
0000
,  // measure 64
0001
0000
0100
0000
0010
0000
1000
0000
0100
0000
1000
0000
0001
0100
0001
0000
,  // measure 65
0010
0000
1000
0000
0010
0000
0100
0000
1000
0000
0001
0000
0010
0001
0010
0000
,  // measure 66
0001
0000
1000
0000
0100
0000
1000
0000
0010
0000
0001
0000
0010
0100
0010
0000
,  // measure 67
0010
0000
0000
0000
1000
0000
0001
0000
0000
0000
0001
0000
0010
0100
1000
0000
,  // measure 68
1100
0000
0010
0000
1000
0000
0001
0000
1000
0000
0100
0000
0010
0001
0010
0000
,  // measure 69
0001
0000
0100
0000
1000
0000
0100
0000
0010
0000
1000
0000
0010
0100
0001
0000
,  // measure 70
0100
0000
0001
0000
0010
0000
0100
0000
1000
0000
0010
0000
1000
0001
1000
0000
,  // measure 71
0100
0000
1000
0000
0001
0000
0010
0000
0001
0000
1000
0000
0001
0100
0010
0000
,  // measure 72
0100
0000
1000
0000
0100
0000
0001
0000
0010
0000
0001
0000
1000
0001
1000
0000
,  // measure 73
0100
0000
0001
0000
0100
0000
0010
0000
0001
0000
1000
0000
0001
0010
0100
0000
,  // measure 74
0010
0000
0000
0000
0001
0000
1000
0000
0000
0000
1000
0000
0100
0010
0001
0000
,  // measure 75
0100
0000
0001
0100
0010
0001
0010
0100
,  // measure 76
0110
0000
0000
0000
;

//---------------dance-single - ----------------
#NOTES:
     dance-single:
     X-Scale 9:
     Medium:
     6:
     0.439909,0.570808,0.088762,0.238975,0.129729,451.000000,438.000000,13.000000,35.000000,0.000000,0.000000,0.439909,0.570808,0.088762,0.238975,0.129729,451.000000,438.000000,13.000000,35.000000,0.000000,0.000000:
// measure 0
0000
0000
0000
0000
,  // measure 1
0000
0000
0000
0000
,  // measure 2
0000
0000
0000
0000
,  // measure 3
0000
0000
0000
0000
,  // measure 4
1000
0000
0001
1000
0100
0000
0010
0000
,  // measure 5
0001
1000
0200
0300
1000
0200
0300
1000
,  // measure 6
0200
0300
1000
0002
0003
0200
0300
0002
,  // measure 7
0010
0000
1000
0000
0100
0003
0001
0100
,  // measure 8
0101
0000
0001
1000
0010
0000
0100
0001
,  // measure 9
0000
0100
0010
0000
1000
0100
0001
0100
,  // measure 10
1000
0000
0001
2000
3000
0020
0030
2000
,  // measure 11
0010
0000
0001
0000
0100
3000
1000
0100
,  // measure 12
1000
0020
0000
0000
1000
0030
0010
1000
,  // measure 13
0001
0200
0000
0000
1000
0300
0010
0200
,  // measure 14
0300
0020
0030
2000
3000
2000
0001
0000
,  // measure 15
0100
3000
1000
0000
0001
0100
0001
0100
,  // measure 16
0101
0000
0000
0000
1000
0000
0000
0001
0000
0000
1000
0000
0010
0000
0100
0000
,  // measure 17
0001
0000
0000
0000
0010
0000
0000
0001
0000
0000
1000
0000
0100
0000
0010
0000
,  // measure 18
0001
0000
1000
0000
0001
1000
0001
0020
,  // measure 19
1000
0001
1000
0000
,  // measure 20
0031
0000
0010
0001
0010
0000
0001
1000
,  // measure 21
0001
0000
0000
0000
1000
0000
0000
0100
0000
0010
0000
0100
0000
0000
0010
0000
,  // measure 22
0110
0000
0001
1000
0001
0000
0100
0010
,  // measure 23
0100
0000
0000
0001
0000
1000
0000
0001
2000
0000
0000
0000
3010
0000
1000
0000
,  // measure 24
1010
0000
1000
0001
1000
0000
0100
0010
,  // measure 25
0100
0000
0000
0000
1000
0000
0000
0001
0000
0100
0000
0001
0000
0000
0100
0000
,  // measure 26
0101
0000
0001
0010
0001
0000
1000
0100
,  // measure 27
1000
0200
0001
0000
1000
0000
0001
0000
,  // measure 28
1300
0100
1000
0000
0001
0010
0001
0000
,  // measure 29
1000
0010
1000
0000
0002
0003
0001
0100
,  // measure 30
0001
0000
1000
0100
0001
0100
0010
0001
,  // measure 31
1000
0000
0000
0000
0000
0000
2000
0000
0000
0000
0000
0000
3001
0000
1000
0000
0001
0000
1000
0000
0000
1000
0000
0000
,  // measure 32
0001
0000
1000
0100
1000
0000
0001
0100
,  // measure 33
0001
0000
1000
0010
1000
0000
1000
0100
,  // measure 34
0010
0000
0001
0010
1000
0010
0100
1000
,  // measure 35
0001
0000
1000
0000
0001
0000
0001
0010
,  // measure 36
0011
0001
0000
1000
0100
0000
0001
0100
,  // measure 37
0000
1000
0100
0000
1000
0000
1000
0001
,  // measure 38
1000
0000
0100
0020
0030
0002
0003
2000
,  // measure 39
3000
2000
0100
0000
3001
0000
0010
0001
,  // measure 40
1000
0002
0000
0000
0000
0003
0000
1000
,  // measure 41
0000
0002
0000
0000
0000
0003
0000
0020
,  // measure 42
0000
0230
0000
2300
0000
3200
0000
0000
,  // measure 43
2000
0300
3002
0000
,  // measure 44
0013
0000
0001
1000
0001
0000
0010
0000
,  // measure 45
0100
0000
0000
0100
0000
0000
0100
0000
0000
0000
0010
0000
1000
0000
0010
0000
,  // measure 46
0001
0000
1000
0100
1000
0000
0100
0000
,  // measure 47
0010
0000
0000
0010
0000
0000
0010
0000
0000
0000
0001
0000
1000
0000
0001
0000
,  // measure 48
0100
0000
1000
0100
0002
0000
2003
0000
,  // measure 49
3002
0000
0000
1000
0003
0000
1000
0000
0000
0000
0001
0000
1000
0000
0001
0000
,  // measure 50
0010
0000
0000
0010
0000
0000
0010
0000
0000
0000
0001
0000
1000
0001
1000
0000
,  // measure 51
0100
0000
0000
0100
0000
0000
0100
0000
0000
0000
1000
0000
0010
1000
0010
0000
,  // measure 52
1010
0000
0000
0000
1000
0000
0000
0000
0001
0000
1000
0000
0001
1000
0001
0000
,  // measure 53
1000
0000
0000
0000
0100
0000
0010
0001
0000
0010
0000
0000
0001
0010
0001
0000
,  // measure 54
1000
0000
0000
0000
0001
0000
0000
0000
1000
0000
0100
0000
1000
0100
1000
0000
,  // measure 55
0001
0000
0000
0000
1000
0000
0100
0010
0000
0010
0100
0000
1000
0000
0001
0000
,  // measure 56
1001
0000
0001
0000
1000
0000
0001
0010
0000
0010
0001
0000
0100
0000
0010
0000
,  // measure 57
0110
0000
0100
0000
0001
0000
1000
0100
0000
0100
1000
0000
0010
0000
1000
0000
,  // measure 58
1010
0000
1000
0010
0001
0010
0100
0001
,  // measure 59
1000
0000
0010
1000
0001
0000
1000
0100
,  // measure 60
1100
0000
0001
0100
1000
0100
0010
0100
,  // measure 61
0001
0000
1000
0100
0001
0100
0010
0100
,  // measure 62
1000
0000
0001
0010
1000
0010
0100
0010
,  // measure 63
0001
0000
1000
0100
0010
0100
0001
0100
,  // measure 64
1000
0000
0010
0100
1000
0100
0001
0100
,  // measure 65
0010
0000
1000
0100
0001
0100
0010
0100
,  // measure 66
1000
0000
0001
0100
0010
0001
0010
0100
,  // measure 67
0001
0000
0000
0000
1000
0000
0001
0000
0000
0000
1000
0000
0001
1000
0001
0000
,  // measure 68
1001
0000
0000
0000
1000
0000
0100
0000
0010
0000
0100
0000
1000
0100
1000
0000
,  // measure 69
0001
0000
0000
0000
0100
0000
0010
0000
1000
0000
0001
0000
0010
0100
0010
0000
,  // measure 70
0001
0000
0000
0000
1000
0000
0100
0000
0001
0000
0100
0000
1000
0100
1000
0000
,  // measure 71
0010
0000
0000
0000
1000
0000
0010
0000
0100
0000
0001
0000
0010
0100
0010
0000
,  // measure 72
0001
0000
0000
0000
1000
0000
0001
0000
0010
0000
0001
0000
1000
0001
1000
0000
,  // measure 73
0010
0000
0000
0000
0100
0000
0010
0000
0001
0000
0010
0000
0100
0010
0100
0000
,  // measure 74
0010
0000
1000
0000
0001
0000
1000
0001
,  // measure 75
0100
0000
0001
0100
0010
1000
0010
0100
,  // measure 76
0011
0000
0000
0000
;

//---------------dance-single - ----------------
#NOTES:
     dance-single:
     X-Scale 6:
     Easy:
     4:
     0.323835,0.441079,0.191180,0.225319,0.000000,332.000000,304.000000,28.000000,33.000000,0.000000,0.000000,0.323835,0.441079,0.191180,0.225319,0.000000,332.000000,304.000000,28.000000,33.000000,0.000000,0.000000:
// measure 0
0000
0000
0000
0000
,  // measure 1
0000
0000
0000
0000
,  // measure 2
0000
0000
0000
0000
,  // measure 3
0000
0000
0000
0000
,  // measure 4
1000
0000
0000
0000
0010
0000
0000
1000
,  // measure 5
0000
0000
0001
0000
0000
0010
0000
0000
,  // measure 6
0001
0000
0000
0020
0000
0230
0000
2300
,  // measure 7
0000
0000
0001
0000
0000
3010
0000
0000
,  // measure 8
1010
0000
0000
0000
0001
0000
0000
0010
,  // measure 9
0000
0000
0100
0000
0000
1000
0000
0001
,  // measure 10
0000
0000
1000
0200
0000
2300
0000
3002
,  // measure 11
0000
0000
1000
0000
0000
0013
0000
0002
,  // measure 12
0003
2000
0000
0000
0100
3000
0000
0200
,  // measure 13
0300
0020
0000
0000
0001
0030
0000
0002
,  // measure 14
0000
2003
0000
3020
0030
0020
0000
0000
,  // measure 15
0000
1030
0010
1000
,  // measure 16
1010
0001
0010
0001
,  // measure 17
1000
0100
0010
0100
,  // measure 18
1000
0001
0100
0010
,  // measure 19
2000
0000
0000
0000
0000
0000
0000
3000
,  // measure 20
1001
0110
1001
0110
,  // measure 21
1001
0000
1000
0000
0001
0000
1000
0100
,  // measure 22
1100
1001
1100
1001
,  // measure 23
1100
0000
0100
0010
0002
0000
0103
0010
,  // measure 24
0110
1001
0110
1001
,  // measure 25
0110
0000
0010
0000
0001
0000
1000
0010
,  // measure 26
1010
0101
1010
0101
,  // measure 27
1010
1000
0001
0001
,  // measure 28
1001
1000
0100
0010
,  // measure 29
0001
0000
1000
0000
0100
0000
1000
0100
,  // measure 30
1000
0000
0010
0200
0000
0302
0000
2003
,  // measure 31
0000
0000
0200
0000
0300
0000
3001
0001
,  // measure 32
0001
0100
0010
0100
,  // measure 33
0001
0000
1000
0000
0100
0000
0100
1000
,  // measure 34
0100
1000
0001
0100
,  // measure 35
0010
0000
1000
0010
1000
0000
1000
0000
,  // measure 36
0001
0010
0000
0100
1000
0000
0001
0100
,  // measure 37
0000
0010
2000
0000
0001
0000
3001
1000
,  // measure 38
0001
0000
0000
0020
0000
0230
0000
0320
,  // measure 39
0030
0020
0000
0000
1000
0000
0031
0020
,  // measure 40
0000
0230
0000
0000
0000
0000
0300
2000
,  // measure 41
0000
3002
0000
0000
0000
0000
0003
2000
,  // measure 42
0000
3200
0000
0320
0030
0020
0000
0000
,  // measure 43
0000
0030
0001
0000
,  // measure 44
0011
0000
0000
0001
0000
0000
1000
0000
,  // measure 45
0010
0000
0000
1000
0000
0000
0001
0000
,  // measure 46
0010
0000
0000
0100
0000
0000
0010
0000
,  // measure 47
0001
0000
0000
1000
0000
0000
0001
0000
,  // measure 48
0100
0000
0000
0010
0000
0000
0100
0000
,  // measure 49
0001
0000
0000
0010
0000
0000
0100
0000
,  // measure 50
1000
0000
0000
0001
0000
0000
1000
0000
,  // measure 51
0100
0000
0000
1000
0000
0000
0001
0000
,  // measure 52
1001
1000
0001
1000
,  // measure 53
0001
0010
0100
0010
,  // measure 54
0001
1000
0001
1000
,  // measure 55
0100
0010
0001
1000
,  // measure 56
0010
1000
0001
0000
1000
0000
0100
0000
,  // measure 57
0010
0001
1000
0000
0010
0000
0100
0000
,  // measure 58
0001
0100
0010
0000
0100
0000
0001
0000
,  // measure 59
1000
0000
0000
0100
0000
0000
1000
0100
,  // measure 60
1100
0000
1000
0001
0000
0100
0001
1000
,  // measure 61
0001
0000
0010
0100
0000
1000
0010
0100
,  // measure 62
0001
0000
1000
0001
0000
0010
0100
1000
,  // measure 63
0001
0000
1000
0100
0000
1000
0010
0100
,  // measure 64
0010
0000
1000
0100
0000
0010
0100
1000
,  // measure 65
0001
0000
1000
0001
0000
0010
0100
1000
,  // measure 66
0001
0000
1000
0100
0000
1000
0001
0100
,  // measure 67
0010
0000
1000
0100
0000
0010
0001
1000
,  // measure 68
1001
0000
0001
0010
0000
0100
1000
0001
,  // measure 69
1000
0000
0100
0010
0000
0001
0100
0001
,  // measure 70
1000
0000
0100
0010
0000
0001
1000
0100
,  // measure 71
1000
0000
0010
0100
0000
0001
0010
0100
,  // measure 72
1000
0000
0010
1000
0000
0001
1000
0100
,  // measure 73
0010
0000
0001
1000
0000
0010
1000
0001
,  // measure 74
0010
0000
0100
1000
0000
0001
1000
0100
,  // measure 75
0010
0000
0001
1000
0001
1000
0100
0010
,  // measure 76
0011
0000
0000
0000
;

//---------------dance-single - ----------------
#NOTES:
     dance-single:
     X-Scale 2:
     Beginner:
     2:
     0.148262,0.259458,0.040967,0.000000,0.000000,152.000000,146.000000,6.000000,0.000000,0.000000,0.000000,0.148262,0.259458,0.040967,0.000000,0.000000,152.000000,146.000000,6.000000,0.000000,0.000000,0.000000:
// measure 0
0000
0000
0000
0000
,  // measure 1
0000
0000
0000
0000
,  // measure 2
0000
0000
0000
0000
,  // measure 3
0000
0000
0000
0000
,  // measure 4
1000
0000
0000
0000
,  // measure 5
0100
0000
0000
0000
,  // measure 6
0010
0000
0000
0000
,  // measure 7
0001
0000
0000
0000
,  // measure 8
1001
0000
0000
0000
,  // measure 9
1000
0000
0000
0000
,  // measure 10
0001
0000
0000
0000
,  // measure 11
0010
0000
0000
0000
,  // measure 12
0001
0000
0000
0000
,  // measure 13
1000
0000
0000
0000
,  // measure 14
0001
0000
0000
0000
,  // measure 15
1000
0000
0000
0000
,  // measure 16
0001
0000
0100
0000
,  // measure 17
0010
0000
1000
0000
,  // measure 18
0100
0000
0010
0000
,  // measure 19
0001
0000
0000
0000
,  // measure 20
1001
0000
1000
0000
,  // measure 21
0001
0000
1000
0001
,  // measure 22
1000
0000
0010
0000
,  // measure 23
0100
0000
0001
1000
,  // measure 24
0001
0000
0010
0000
,  // measure 25
0100
0000
1000
0010
,  // measure 26
1000
0000
0001
0000
,  // measure 27
1000
0000
0000
0000
,  // measure 28
1000
0000
0100
0000
,  // measure 29
0010
0000
0001
0000
,  // measure 30
1000
0000
0100
0000
,  // measure 31
0010
0000
0001
0000
,  // measure 32
1000
0000
0010
0000
,  // measure 33
0100
0000
0001
0000
,  // measure 34
1000
0000
0010
0000
,  // measure 35
0100
0000
0001
0000
,  // measure 36
1000
0000
0000
0000
,  // measure 37
0100
0000
0000
0000
,  // measure 38
0010
0000
0000
0000
,  // measure 39
0001
0000
0000
0000
,  // measure 40
1000
0000
0000
0000
,  // measure 41
0010
0000
0000
0000
,  // measure 42
0100
0000
0000
0000
,  // measure 43
0001
0000
0000
0000
,  // measure 44
1001
0000
0000
0000
,  // measure 45
1000
0000
0000
0000
,  // measure 46
0001
0000
0000
0000
,  // measure 47
0010
0000
0000
0000
,  // measure 48
0001
0000
0000
0000
,  // measure 49
1000
0000
0000
0000
,  // measure 50
0100
0000
0000
0000
,  // measure 51
0010
0000
0000
0000
,  // measure 52
0001
0000
1000
0000
,  // measure 53
0001
0000
1000
0000
,  // measure 54
0010
0000
0100
0000
,  // measure 55
0010
0000
0100
0000
,  // measure 56
0001
0000
0010
0000
,  // measure 57
0100
0000
1000
0000
,  // measure 58
0010
0000
0100
0000
,  // measure 59
0001
0000
0000
0000
,  // measure 60
1001
1000
0001
1000
,  // measure 61
0100
0010
0100
0010
,  // measure 62
0001
0100
0001
0100
,  // measure 63
0010
1000
0010
1000
,  // measure 64
0001
0010
0001
0010
,  // measure 65
0100
1000
0100
1000
,  // measure 66
0010
0100
0010
0100
,  // measure 67
0001
0000
0000
0000
,  // measure 68
1001
1000
0001
1000
,  // measure 69
0100
0010
0100
0010
,  // measure 70
0001
1000
0001
1000
,  // measure 71
0010
0100
0010
0100
,  // measure 72
0001
0010
0001
0010
,  // measure 73
0100
1000
0100
1000
,  // measure 74
0100
0010
0100
0010
,  // measure 75
0001
1000
0001
1000
,  // measure 76
1001
0000
0000
0000
;
