#TITLE:Feel the Love;
#SUBTITLE:;
#ARTIST:Kids See Ghosts feat. Pusha T;
#TITLETRANSLIT:;
#SUBTITLETRANSLIT:;
#ARTISTTRANSLIT:;
#GENRE:Psy Hip-Hop;
#CREDIT:;
#BANNER:feel the love-bn.png;
#BACKGROUND:feel the love-bg.png;
#LYRICSPATH:;
#CDTITLE:cdtitle.png;
#MUSIC:feel the love.ogg;
#OFFSET:-0.021000;
#SAMPLESTART:58.599998;
#SAMPLELENGTH:17.400000;
#SELECTABLE:YES;
#BPMS:0.000000=110.619003
;
#STOPS:
;
#BGCHANGES:;
#KEYSOUNDS:;
#ATTACKS:;

//---------------dance-single - *Kanye scat noises*----------------
#NOTES:
     dance-single:
     X-Scale 11:
     Hard:
     8:
     0.502638,0.632995,0.115090,0.312387,0.887837,428.000000,414.000000,14.000000,38.000000,0.000000,0.000000,0.502638,0.632995,0.115090,0.312387,0.887837,428.000000,414.000000,14.000000,38.000000,0.000000,0.000000:
// measure 0
0000
0000
0000
0000
,  // measure 1
0000
0000
0000
0000
,  // measure 2
0000
0000
0000
0000
,  // measure 3
0000
0000
0000
0000
,  // measure 4
0000
0000
0000
0000
0000
0000
0001
0000
0010
0000
0100
0000
1000
0000
0000
0000
0010
0000
2000
0000
0000
3000
0000
0000
,  // measure 5
2000
3000
0000
0000
0002
0000
0023
0000
,  // measure 6
0032
0000
0000
0000
0000
0000
0003
0000
0000
0000
0000
0000
1000
0000
0000
0000
0010
0000
2000
0000
0000
3000
0000
0000
,  // measure 7
2000
3000
0000
0000
0020
0000
0230
0000
,  // measure 8
0320
0000
0000
0030
0000
0000
1000
0010
0100
0001
0010
0100
,  // measure 9
1000
0001
0100
0010
0000
0000
1000
0001
0010
0001
1000
0100
,  // measure 10
0020
0000
0000
0030
0000
0001
0010
1000
0010
0001
0100
0010
,  // measure 11
1000
0100
0010
0001
0000
0000
0010
0100
0010
1000
0010
0001
,  // measure 12
0020
0000
0000
0030
0000
0000
0001
0100
0010
1000
0100
0001
,  // measure 13
0100
0000
1000
0000
0010
0000
0100
0000
0000
0010
0000
0000
0000
0000
0100
0000
0001
0000
1000
0000
0010
0000
0100
0000
,  // measure 14
0002
0000
0000
0003
0000
0000
0001
0010
0100
1000
0100
0010
,  // measure 15
0001
1000
0010
0100
0001
0100
0010
1000
0001
2000
0000
0000
,  // measure 16
3100
0010
0001
0010
0100
0001
0100
1000
0100
0020
0000
0000
,  // measure 17
0130
0010
0001
1000
0001
0100
0001
0010
0100
2000
0000
0000
,  // measure 18
3001
1000
0100
1000
0010
0001
0010
0100
0010
2000
0000
0000
,  // measure 19
3100
1000
0010
0001
0010
1000
0100
0010
0001
0200
0000
0000
,  // measure 20
0320
0000
0000
0000
0000
0000
1030
0000
0010
0000
0100
0000
0000
0001
0000
0000
0010
0000
0100
0000
1000
0000
0000
0000
,  // measure 21
0200
0000
0000
0301
0100
1000
0100
0010
1000
0000
0001
0000
,  // measure 22
0002
0000
0000
0000
0000
0000
0103
0000
0001
0000
0010
0000
0100
0000
0000
0010
0000
0100
0000
1000
0000
0000
0000
0000
,  // measure 23
2000
0000
0000
0000
0010
0000
3010
0000
0000
0000
1000
0000
0000
0001
0000
0010
0000
0001
0000
0100
0000
0000
0000
0000
,  // measure 24
0002
0000
0000
0000
0000
0000
0013
0000
0001
0000
1000
0000
0000
0001
0000
0010
0000
0000
0100
2000
0000
0000
0000
0000
,  // measure 25
3200
0000
0000
0000
0000
0000
0310
0000
0100
0000
0010
0000
0000
0001
0000
1000
0000
0010
0000
2000
0000
0000
0000
0000
,  // measure 26
3002
0000
0000
0000
0000
0000
0013
0000
0001
0000
0100
0000
0010
0000
0000
1000
0000
0001
0000
0000
0000
0001
0000
0000
,  // measure 27
1001
0000
0000
0000
0000
0000
1000
0000
0000
0001
0000
0000
1000
0000
1000
0000
1000
0000
1000
0000
0000
0000
0000
0000
,  // measure 28
0002
0000
0003
0000
0010
0001
0010
0000
0001
0000
0100
0000
0010
0000
0000
0000
1000
0000
0001
0000
0000
0000
0010
0000
,  // measure 29
0110
0000
0000
0000
0000
0000
1001
0000
0000
0000
1000
0000
0010
0000
0010
0000
0010
0000
0010
0000
0000
0000
0100
0010
,  // measure 30
0100
0000
0000
0001
0010
0100
1000
0010
0010
0010
0000
0000
,  // measure 31
1000
0000
0000
0000
0000
0000
0001
0000
0010
0000
0100
0000
1000
0000
0010
0000
0100
0000
0001
0000
0000
0000
1000
0001
,  // measure 32
1000
0000
0000
0100
0000
0000
0010
0010
0010
0010
0000
0000
,  // measure 33
0001
0000
0100
0000
0100
0000
0101
0000
0000
1100
0000
0000
0101
0000
0000
1001
0000
0000
0110
0000
0000
0000
1100
0000
,  // measure 34
1100
0000
0000
0000
0101
0000
0000
0000
0100
0010
0100
0010
0100
0000
0000
0000
0000
0000
0002
0000
0000
0000
0000
0000
,  // measure 35
0023
0000
0000
0000
0000
0000
0031
0000
0010
0000
0100
0000
1000
0000
0000
0000
0001
0000
0010
0000
0000
0001
0100
0001
,  // measure 36
0100
0000
0001
0000
1000
1000
0010
0100
0010
0100
0000
0000
,  // measure 37
0011
0000
0000
0000
0000
0000
1000
0000
0001
0000
1000
0000
0100
0000
0000
0000
0010
0000
0100
0000
0000
1000
0010
1000
,  // measure 38
0010
0000
0100
0000
0001
0000
0010
0000
0000
0000
0000
0000
0001
0000
0010
0001
0010
0001
0010
0000
0001
0000
1000
0000
,  // measure 39
0010
0000
0000
0000
0100
0000
0010
0000
0000
0000
1000
0100
1000
0000
0100
0000
0010
0000
0001
0000
0000
0000
0001
1000
,  // measure 40
0001
0000
0010
0000
0100
0000
1000
0000
0000
0000
0000
0000
0010
0000
0100
0000
0010
0000
0100
0000
0010
0100
0010
0100
,  // measure 41
0010
0000
0000
0000
1000
0000
0001
0000
0000
0010
0001
0010
0001
0000
0000
0000
0100
0000
0000
0000
0001
0000
0000
0000
,  // measure 42
1000
0000
0010
0100
0010
0010
0200
0000
,  // measure 43
0302
0000
0010
0000
,  // measure 44
2003
0000
0000
0000
0000
0000
0000
0000
0000
0000
0000
0000
3001
0000
0000
0000
1000
0000
0000
0000
0010
0000
1000
0010
,  // measure 45
1000
0000
0001
0000
0000
0000
0020
0000
0000
0000
0000
0000
,  // measure 46
0230
0000
0000
0000
0000
0000
0000
0000
1300
0000
0100
0010
0001
0000
1000
0000
,  // measure 47
1001
0000
0000
0000
0000
0000
0001
0000
0100
0000
0010
0000
1000
0000
0000
0000
0010
0000
0100
0000
0000
0000
0001
0010
,  // measure 48
0001
0000
0000
0000
0001
0010
0001
0000
0000
0000
0000
0000
1000
0000
0010
0000
1000
0000
0010
0000
0000
0000
0100
0000
,  // measure 49
0020
0000
0000
0000
0000
0000
0031
0000
0010
0000
0100
0000
0001
0000
0000
0000
1000
0000
0100
0000
0000
0000
1000
0010
,  // measure 50
1000
0000
0000
0000
1000
0010
1000
0000
0000
0000
0000
0000
0001
0000
0010
0000
0001
0000
0010
0000
0000
0000
0100
0000
,  // measure 51
0020
0000
0000
0000
0000
0000
1030
0000
0010
0000
0001
0000
0100
0000
0000
0000
0001
0000
0010
0000
0000
0000
0001
0100
,  // measure 52
0001
0000
0000
0000
0001
0100
0001
0000
0000
0000
0000
0000
1000
0000
0100
0000
1000
0000
0100
0000
0000
0000
0010
0000
,  // measure 53
0100
0100
0100
1000
1000
1000
0001
0000
0001
0010
0010
0010
,  // measure 54
1001
0000
1000
0100
1000
1000
0020
0000
,  // measure 55
0030
0000
0000
0000
;

//---------------dance-single - I can stil feeeel the looooove----------------
#NOTES:
     dance-single:
     X-Scale 9:
     Medium:
     6:
     0.405164,0.474746,0.041104,0.402815,0.649436,345.000000,340.000000,5.000000,49.000000,0.000000,0.000000,0.405164,0.474746,0.041104,0.402815,0.649436,345.000000,340.000000,5.000000,49.000000,0.000000,0.000000:
// measure 0
0000
0000
0000
0000
,  // measure 1
0000
0000
0000
0000
,  // measure 2
0000
0000
0000
0000
,  // measure 3
0000
0000
0000
0000
,  // measure 4
0000
0000
0000
1000
0000
0000
0100
0000
1000
0020
0000
0030
,  // measure 5
0020
0000
0030
0000
0000
0000
0200
0000
0000
0302
0000
0000
,  // measure 6
2003
0000
0000
3000
0000
0000
0001
0000
0100
0002
0000
0003
,  // measure 7
0002
0000
0003
0000
0000
0000
2000
0000
0000
3020
0000
0000
,  // measure 8
0230
0000
0000
0300
0000
0000
0001
0000
1000
0100
0000
0010
,  // measure 9
0001
0100
0010
1000
0000
0000
0100
0000
1000
0010
0001
0010
,  // measure 10
2000
0000
0000
3000
0000
0100
1000
0000
1000
0001
0000
0010
,  // measure 11
0100
1000
0001
1000
0000
0000
0010
0000
1000
0010
0100
0001
,  // measure 12
2000
0000
0000
3000
0000
0000
0001
0000
0010
0001
0000
1000
,  // measure 13
0100
0010
0001
1000
0001
0000
0000
0100
0010
0100
0001
0010
,  // measure 14
0200
0000
0000
0300
0000
0000
1000
0000
0001
0010
0000
0100
,  // measure 15
1000
0000
0010
0100
0000
0001
0010
0100
1000
0002
0000
0000
,  // measure 16
0013
0000
0001
1000
0000
0100
1000
0001
0100
0020
0000
0030
,  // measure 17
0010
0000
0100
0010
0000
1000
0001
0010
0001
2000
0000
3000
,  // measure 18
1000
0000
0100
0010
0000
0001
1000
0010
1000
0002
0000
0003
,  // measure 19
0001
0000
0000
0000
0100
0000
0010
0000
0000
0000
1000
0000
0001
0000
0010
0000
0100
0000
1000
0000
0000
0002
0000
0000
,  // measure 20
2003
0000
0000
0000
0000
0000
3100
0000
0000
0000
1000
0000
0000
0001
0000
0000
1000
0000
0100
0000
0010
0000
0000
0000
,  // measure 21
0020
0000
0000
0031
0000
1000
0100
1000
0010
0000
0100
0000
,  // measure 22
0200
0000
0000
0000
0000
0000
0301
0000
0000
0000
0100
0000
0000
0001
0000
1000
0000
0100
0000
1000
0000
0000
0000
0000
,  // measure 23
0001
0000
0000
0020
0000
0031
0010
0100
1000
0000
0001
0000
,  // measure 24
0100
0000
0000
0000
0000
0000
0010
0000
0100
0000
0001
0000
0000
1000
0000
0100
0000
0000
1000
0002
0000
0000
0000
0000
,  // measure 25
0013
0000
0000
0000
0000
0000
0001
0000
0010
0000
0100
0000
0000
1000
0000
0010
0000
1000
0000
0002
0000
0000
0000
0000
,  // measure 26
0023
0000
0000
0030
0000
0000
0001
0000
1000
0200
0000
0300
,  // measure 27
1100
0000
0000
0000
0000
0000
0001
1000
0001
1000
0000
0000
,  // measure 28
0020
0030
0100
0010
0000
0100
0010
0000
1000
0001
0000
0010
,  // measure 29
0010
0000
0000
0100
0000
0010
0010
0001
1000
0001
0010
0100
,  // measure 30
1000
0000
0000
0001
0100
0001
1000
0000
0100
0010
0000
0000
,  // measure 31
0001
0000
0000
0000
0010
0000
0001
0000
1000
0000
0100
0000
0010
0000
0100
0000
1000
0000
0010
0000
0000
2000
0000
0000
,  // measure 32
3001
0000
0000
1000
0000
0000
0001
0100
0010
1000
0000
0000
,  // measure 33
0001
0000
0100
0000
0010
0000
0100
0000
0000
0001
0000
0000
0101
0000
0000
0100
0000
0000
0110
0000
0000
0000
0010
0000
,  // measure 34
1010
0000
1001
0000
2000
0000
3100
0000
0000
0020
0000
0000
,  // measure 35
0032
0000
0000
1003
0001
1000
0001
0000
0100
0010
0000
1000
,  // measure 36
0100
0000
0010
0001
1000
0001
0100
0000
0010
0100
0000
0001
,  // measure 37
0010
0000
0000
0000
0100
0000
1000
0000
0001
0000
1000
0000
0100
0000
0000
0000
0010
0000
0001
0000
0000
2000
0000
0000
,  // measure 38
3100
1000
0001
0100
0000
0000
0001
0010
0100
1000
0000
0100
,  // measure 39
1000
0000
0001
0100
0000
0001
0010
0001
1000
0100
0000
0010
,  // measure 40
0001
1000
0001
0100
0000
0000
0010
0100
0001
1000
0000
0000
,  // measure 41
0001
0000
0010
0100
0000
1000
0001
0000
0001
0000
0001
0000
,  // measure 42
0001
0000
1000
0100
0010
0001
2000
0000
,  // measure 43
3020
0000
2030
0000
,  // measure 44
3002
0000
0023
0000
,  // measure 45
2030
0000
3020
0000
,  // measure 46
0032
0000
0000
0000
0000
0000
0203
0000
0000
0020
0000
0300
,  // measure 47
0130
0000
0000
0001
0010
0100
1000
0000
0100
1000
0000
0002
,  // measure 48
0003
0000
0002
0003
0000
0000
1000
0010
1000
0010
0000
0000
,  // measure 49
1000
0000
0000
0001
0010
0100
1000
0000
0100
1000
0000
0002
,  // measure 50
0003
0000
0002
0003
0000
0000
1000
0010
1000
0010
0000
0000
,  // measure 51
1000
0000
0000
0001
0100
0010
1000
0000
0010
1000
0000
0002
,  // measure 52
0003
0000
0002
0003
0000
0000
1000
0100
1000
0100
0000
0000
,  // measure 53
1000
0001
0010
0001
1000
0001
0010
0000
0000
0100
0010
0001
,  // measure 54
1000
0000
0001
0010
0100
1000
0002
0000
,  // measure 55
0003
0000
0000
0000
;

//---------------dance-single - kids see ghosts sometimes----------------
#NOTES:
     dance-single:
     X-Scale 5:
     Easy:
     3:
     0.182030,0.332939,0.057545,0.000000,0.000000,155.000000,148.000000,7.000000,0.000000,0.000000,0.000000,0.182030,0.332939,0.057545,0.000000,0.000000,155.000000,148.000000,7.000000,0.000000,0.000000,0.000000:
// measure 0
0000
0000
0000
0000
,  // measure 1
0000
0000
0000
0000
,  // measure 2
0000
0000
0000
0000
,  // measure 3
0000
0000
0000
0000
,  // measure 4
1000
0000
0000
0001
,  // measure 5
0001
0000
0100
0010
,  // measure 6
0100
0000
0000
0001
,  // measure 7
0001
0000
1000
0010
,  // measure 8
1000
0000
0000
0100
,  // measure 9
0100
0000
0010
0001
,  // measure 10
0010
0000
0000
0100
,  // measure 11
0100
0000
1000
0001
,  // measure 12
1000
0000
0000
0010
,  // measure 13
0010
0000
1000
0100
,  // measure 14
1000
0000
0000
0001
,  // measure 15
0001
0000
0010
0100
,  // measure 16
0010
0000
0000
0001
,  // measure 17
0001
0000
1000
0010
,  // measure 18
1000
0000
0000
0100
,  // measure 19
0100
0000
0010
0001
,  // measure 20
0010
0000
0000
0100
,  // measure 21
0100
0000
1000
0001
,  // measure 22
1000
0000
0000
0010
,  // measure 23
0010
0000
0100
0010
,  // measure 24
0100
0000
0000
0001
,  // measure 25
0001
0000
1000
0010
,  // measure 26
1000
0000
0001
1000
,  // measure 27
0001
0000
0100
0010
,  // measure 28
0100
0001
0001
0000
,  // measure 29
1000
0100
0010
0100
,  // measure 30
1000
0000
0001
0010
,  // measure 31
0100
1000
1000
0001
,  // measure 32
0001
0000
1000
0010
,  // measure 33
1000
0000
0001
0000
0011
0011
0011
0000
,  // measure 34
1010
0000
1001
1000
,  // measure 35
1100
0100
0010
0001
,  // measure 36
1000
0100
0010
0001
,  // measure 37
1000
0010
0100
0001
,  // measure 38
1000
0010
0100
0001
,  // measure 39
1000
0001
0100
0010
,  // measure 40
1000
0001
0100
0010
,  // measure 41
1000
0100
0001
0100
,  // measure 42
1000
0000
0000
0000
,  // measure 43
0001
0000
0000
0000
,  // measure 44
0010
0000
0000
0000
,  // measure 45
0100
0000
0000
0000
,  // measure 46
1000
0000
0000
0000
,  // measure 47
1100
0100
0010
0001
,  // measure 48
1000
0100
0010
0001
,  // measure 49
1000
0010
0100
0001
,  // measure 50
1000
0010
0100
0001
,  // measure 51
1000
0001
0100
0010
,  // measure 52
1000
0001
0100
0010
,  // measure 53
1000
0100
0001
0100
,  // measure 54
1000
0000
0000
0000
;

//---------------dance-single - i feeeel freeeeeeee----------------
#NOTES:
     dance-single:
     X-Scale 1:
     Beginner:
     1:
     0.088079,0.133175,0.016441,0.000000,0.000000,75.000000,73.000000,2.000000,0.000000,0.000000,0.000000,0.088079,0.133175,0.016441,0.000000,0.000000,75.000000,73.000000,2.000000,0.000000,0.000000,0.000000:
// measure 0
0000
0000
0000
0000
,  // measure 1
0000
0000
0000
0000
,  // measure 2
0000
0000
0000
0000
,  // measure 3
0000
0000
0000
0000
,  // measure 4
1000
0000
0000
0000
,  // measure 5
0100
0000
0000
0000
,  // measure 6
0010
0000
0000
0000
,  // measure 7
0001
0000
0000
0000
,  // measure 8
1000
0000
0000
0000
,  // measure 9
0010
0000
0000
0000
,  // measure 10
0100
0000
0000
0000
,  // measure 11
0001
0000
0000
0000
,  // measure 12
1000
0000
0000
0000
,  // measure 13
0100
0000
0000
0000
,  // measure 14
0010
0000
0000
0000
,  // measure 15
0001
0000
0000
0000
,  // measure 16
1000
0000
0000
0000
,  // measure 17
0010
0000
0000
0000
,  // measure 18
0100
0000
0000
0000
,  // measure 19
0001
0000
0000
0000
,  // measure 20
1000
0000
0000
0000
,  // measure 21
0100
0000
0000
0000
,  // measure 22
0010
0000
0000
0000
,  // measure 23
0001
0000
0000
0000
,  // measure 24
1000
0000
0000
0000
,  // measure 25
0010
0000
0000
0000
,  // measure 26
0100
0000
0000
0000
,  // measure 27
0001
0000
0010
0000
,  // measure 28
0001
0000
0010
0000
,  // measure 29
0100
0000
1000
0000
,  // measure 30
0100
0000
1000
0000
,  // measure 31
0001
0000
0100
0000
,  // measure 32
0001
0000
0100
0000
,  // measure 33
0010
0000
1000
0000
,  // measure 34
0010
0000
1000
0000
,  // measure 35
1001
0000
0001
0000
,  // measure 36
0100
0000
0001
0000
,  // measure 37
1000
0000
0001
0000
,  // measure 38
0100
0000
0010
0000
,  // measure 39
0100
0000
0001
0000
,  // measure 40
0100
0000
0010
0000
,  // measure 41
1000
0000
0001
0000
,  // measure 42
1000
0000
0000
0000
,  // measure 43
0001
0000
0000
0000
,  // measure 44
0010
0000
0000
0000
,  // measure 45
0100
0000
0000
0000
,  // measure 46
1000
0000
0000
0000
,  // measure 47
1001
0000
1000
0000
,  // measure 48
0100
0000
0010
0000
,  // measure 49
0001
0000
0100
0000
,  // measure 50
0010
0000
1000
0000
,  // measure 51
0100
0000
0010
0000
,  // measure 52
0001
0000
0100
0000
,  // measure 53
0010
0000
1000
0000
,  // measure 54
0001
0000
0000
0000
;
