#TITLE:February 2017;
#SUBTITLE:;
#ARTIST:Charli XCX feat. Clairo & Yaeji;
#TITLETRANSLIT:;
#SUBTITLETRANSLIT:;
#ARTISTTRANSLIT:;
#GENRE:Synthpop;
#CREDIT:;
#BANNER:February 2017-bn.png;
#BACKGROUND:February 2017-bg.png;
#LYRICSPATH:;
#CDTITLE:cdtitle.png;
#MUSIC:February 2017.ogg;
#OFFSET:-0.001000;
#SAMPLESTART:84.000999;
#SAMPLELENGTH:15.990000;
#SELECTABLE:YES;
#DISPLAYBPM:60.000000:120.000000;
#BPMS:0.000000=60.000000
,23.500000=120.000000
,72.000000=240.000000
,74.000000=120.000000
,85.000000=240.000000
,88.000000=60.000000
,124.000000=120.000000
,199.000000=60.000000
;
#STOPS:14.750000=-8.750000,
23.500000=1.000000,
72.000000=0.063000,
72.250000=0.063000,
72.500000=0.063000,
72.750000=0.063000,
73.000000=0.063000,
73.250000=0.063000,
73.500000=0.063000,
73.750000=0.063000,
85.000000=0.063000,
85.250000=0.063000,
85.500000=0.063000,
85.750000=0.063000,
86.000000=0.063000,
86.250000=0.063000,
86.500000=0.063000,
86.750000=0.063000,
87.000000=0.063000,
87.250000=0.063000,
87.500000=0.063000,
87.750000=0.063000,
188.000000=-4.000000,
196.000000=2.000000
;
#BGCHANGES:;
#KEYSOUNDS:;
#ATTACKS:;

//---------------dance-single - ----------------
#NOTES:
     dance-single:
     X-Scale 11:
     Hard:
     7:
     0.396697,0.628508,0.065959,0.369371,0.478204,421.000000,411.000000,10.000000,56.000000,31.000000,0.000000,0.396697,0.628508,0.065959,0.369371,0.478204,421.000000,411.000000,10.000000,56.000000,31.000000,0.000000:
// measure 0
0000
0000
0000
0000
,  // measure 1
0000
0000
0000
0000
,  // measure 2
0000
0000
0000
0000
,  // measure 3
0000
0000
0000
0000
,  // measure 4
0000
0000
0000
0000
,  // measure 5
0000
0000
0000
0000
,  // measure 6
1100
0000
0000
1000
0000
0000
1000
0000
0100
0000
0001
0000
1000
0000
0010
0000
,  // measure 7
0002
0000
0000
0100
0003
0000
0100
0000
0010
0000
0001
0000
0010
0000
1000
0000
,  // measure 8
0020
0000
0000
0100
0030
0000
0100
0000
0010
0000
1000
0000
0100
0000
0010
0000
,  // measure 9
0002
0000
0000
1000
0003
0000
1000
0000
0010
0000
0100
0000
0010
0000
0100
0000
,  // measure 10
1010
0000
0000
0001
0000
0000
0001
0000
0010
0000
1000
0000
0001
0000
0100
0000
,  // measure 11
2000
0000
0000
0010
3000
0000
0010
0000
0100
0000
1000
0000
0100
0000
0001
0000
,  // measure 12
0200
0000
0000
0001
0300
0000
0001
0000
1000
0000
0100
0000
1000
0000
0001
0000
,  // measure 13
2000
0000
0000
0010
3000
0000
0010
0000
1000
0000
0001
0000
1000
0000
0001
0000
,  // measure 14
1001
0000
0002
0010
0000
0000
0010
0000
0000
0000
0000
1000
0003
0000
1000
0000
,  // measure 15
1000
0000
0000
0100
0000
0000
1000
0000
0100
0000
0001
0000
1000
0000
0010
0000
,  // measure 16
0001
0000
0200
0010
0000
0000
0010
0000
0000
0000
0000
0001
0000
0000
0301
0000
,  // measure 17
0100
0000
0000
0010
0000
0000
1000
0000
0001
0000
0100
0000
0001
0000
0100
0000
,  // measure 18
0001
0010
0001
0010
0100
1000
0100
1000
0001
0000
0010
0000
0100
0000
1000
0000
,  // measure 19
2000
0002
3000
0010
0103
0010
0200
0000
,  // measure 20
2300
0000
0000
3001
0010
0100
2000
0000
,  // measure 21
3004
0000
4000
0000
0000
0000
0000
0000
0M00
0000
00M0
0000
0M00
0000
00M0
0000
0M00
0000
00M0
0000
0M00
0000
00M0
0000
0M00
0000
00M0
0000
0M00
0000
00M0
3003
,  // measure 22
1MM1
0000
1000
0000
0100
0000
0010
0000
0001
0000
0000
0100
0000
0000
0001
0000
0000
0000
0001
0000
0100
0000
0010
0000
1000
0000
0000
0001
1000
0001
0100
0000
,  // measure 23
0010
0000
0100
0000
1000
0000
0100
0000
0001
0000
0000
0010
0000
0000
0100
0000
0000
0000
1000
0000
0010
0000
0100
0000
0001
0000
0000
1000
0100
0010
0002
0000
,  // measure 24
0103
0000
0001
0000
0100
0000
0010
0000
1000
0000
0000
0100
0000
0000
1000
0000
0000
0000
0010
0000
0100
0000
0010
0000
1000
0000
0000
0010
0100
0001
0100
0000
,  // measure 25
0010
0000
1000
0000
0010
0000
0100
0000
0010
0000
0000
1000
0000
0000
0001
0000
0010
0000
0001
0000
0100
0000
0010
0000
1000
0000
0000
0001
0100
0001
0100
0000
,  // measure 26
0101
0000
0000
0001
0010
0100
1000
0010
0100
0001
0010
0100
1000
0010
0100
0001
,  // measure 27
1000
0000
0010
0000
0001
0000
0010
0000
0100
0000
0010
0000
1000
0000
0100
0000
0001
0000
0100
0000
2000
0000
0000
0000
0000
0000
3000
0000
0001
1000
0001
0000
,  // measure 28
1001
1000
0100
0001
0100
0010
0001
1000
0001
0100
0010
0001
0010
0100
0010
1000
,  // measure 29
0001
0100
0010
0100
1000
0100
0010
0100
0002
0000
0013
0100
2000
0000
3010
0100
,  // measure 30
0002
0000
0013
0100
2000
0000
3010
0100
0002
0000
0013
0100
2000
0000
3010
0100
,  // measure 31
1001
1000
0100
0010
0100
1000
0001
0001
,  // measure 32
1000
0000
0001
0000
1000
0000
0001
0000
1000
0000
0000
0010
0100
0001
1000
0000
,  // measure 33
0001
0000
0010
0000
0100
0000
1000
0000
0001
0000
0000
1000
0010
0100
0001
0000
,  // measure 34
1000
0000
0010
0000
0100
0000
0010
0000
1000
0000
0000
0100
0010
0001
1000
0000
,  // measure 35
1001
0001
0010
0100
0010
0001
1000
0001
,  // measure 36
0010
0000
0100
0000
0010
0000
0100
0000
1000
0000
0000
0001
1000
0100
0010
0000
,  // measure 37
0001
0000
0100
0000
1000
0000
0100
0000
0010
0000
0000
0100
0010
1000
0001
0000
,  // measure 38
1000
0000
0010
0000
0100
0000
0001
0000
0010
0000
0000
0100
1000
0001
1000
0000
,  // measure 39
1001
0001
0100
0010
0100
0001
1000
1000
,  // measure 40
0001
0000
0100
0000
0001
0000
0100
0000
0010
0000
0000
1000
0010
1000
0001
0000
,  // measure 41
0100
0000
1000
0000
0001
0000
0010
0000
1000
0000
0000
0001
0100
0001
1000
0000
,  // measure 42
0100
0000
0010
0000
0100
0000
1000
0000
0001
0000
0000
0010
0001
1000
0010
0000
,  // measure 43
1001
1000
0010
0100
0010
1000
0001
0010
,  // measure 44
0100
1000
0100
1000
0001
1000
0002
0000
,  // measure 45
0013
0100
2000
0000
3001
1000
0010
0020
,  // measure 46
0000
0000
1030
0000
0010
0000
0100
0000
0001
0000
0000
1000
0100
0010
0001
0000
,  // measure 47
0001
0000
0000
0000
,  // measure 48
0000
0000
0000
0000
,  // measure 49
0001
M000
M000
M000
M000
0000
0000
0000
0M00
0000
0000
0000
M000
0000
0000
0000
0000
0000
0000
0000
000M
0000
0000
0000
0M00
0000
0000
0000
0000
0000
0000
0000
000M
0000
0000
0000
0000
0000
0000
0000
000M
0000
0000
0000
0M00
0000
0M00
0000
0002
0000
0000
0000
0000
0000
0000
0000
0000
0000
0000
0000
0000
0000
0000
0000
,  // measure 50
0000
0000
0003
0000
0002
0000
0000
0000
0000
0000
0003
0002
0000
0000
0000
0000
0000
0000
0000
0000
0023
0000
0230
0000
0000
0000
0000
0000
0000
0000
0000
0000
,  // measure 51
0300
0000
2000
0000
0000
0000
0000
0000
3000
0000
0200
0000
0000
0000
0300
0000
2000
0000
0000
3002
0000
0000
0003
0020
0000
0000
0000
0000
0030
0000
0000
0000
,  // measure 52
0000
0000
0000
0000
0000
0000
2000
0000
0000
0000
0000
0000
3000
0200
0000
0000
0300
0000
2000
0000
0000
0000
3000
0000
0001
0000
0002
0000
0000
0000
0000
0000
,  // measure 53
0003
0000
0000
0000
M000
M000
M000
000M
M000
0000
0020
0000
0000
0030
0100
0000
0020
0000
0000
0000
2030
0000
3000
0002
0000
0000
0000
0020
0000
0000
0000
0000
,  // measure 54
0000
0000
0000
0000
0000
0000
0000
0033
0000
0000
0000
0000
0000
0000
2000
0000
0000
0000
0000
3000
0001
0000
0020
0000
0000
0030
0100
0000
2000
0000
0000
3000
,  // measure 55
0020
0000
0000
0030
0000
2000
0000
0000
0000
0000
0000
0000
0000
0000
3000
0000
0000
0000
0000
0000
0000
0000
0000
0000
0002
0000
0000
0000
0003
0000
0020
0000
,  // measure 56
0000
0030
0001
0002
0003
2000
0000
3000
0200
0300
0200
0000
0002
0000
0000
0000
,  // measure 57
0000
0000
0000
0003
2000
0000
0000
0000
0000
0000
0000
0000
3300
0000
0000
0000
;

//---------------dance-single - ----------------
#NOTES:
     dance-single:
     X-Scale 9:
     Medium:
     6:
     0.309066,0.495188,0.026384,0.389159,0.293518,328.000000,324.000000,4.000000,59.000000,0.000000,0.000000,0.309066,0.495188,0.026384,0.389159,0.293518,328.000000,324.000000,4.000000,59.000000,0.000000,0.000000:
0000
0000
0000
0000
,
0000
0000
0000
0000
,
0000
0000
0000
0000
,
0000
0000
0000
0000
,
0000
0000
0000
0000
,
0000
0000
0000
0000
,
1001
0000
0000
1000
0000
0000
0001
0000
0000
0000
0000
0000
1000
0000
0100
0000
,
2000
0000
3000
0000
0001
0000
0100
0010
,
0200
0000
0000
0001
0300
0000
0001
0000
0000
0000
0000
1000
0000
0000
1000
0000
,
0020
0000
0030
1000
0001
1000
0001
1000
,
0001
0000
0000
0010
0000
0000
0001
0000
0000
0000
0000
1000
0000
0000
0010
0000
,
2000
0000
3000
0000
0001
0000
0100
0010
,
0200
0000
0000
0001
0300
0000
0001
0000
0000
0000
0000
1000
0000
0000
1000
0000
,
0200
0000
0300
0010
0001
0010
0001
0010
,
0011
0000
0001
0000
1000
0100
0010
0100
,
2000
0000
3000
0000
0001
0000
0100
0010
,
0200
0001
0300
0001
0010
1000
0001
0100
,
2000
0000
0000
3001
1000
0001
1000
0001
,
2000
0000
0000
3000
0001
0000
1000
0000
0001
0000
0010
0000
0100
0000
0010
0000
,
0002
1000
0003
1000
0010
1000
0020
0000
,
0130
0000
0000
0010
0000
0000
1000
0000
0010
0000
0100
0000
0002
0000
0000
0000
,
2000
0003
0000
0000
0000
0000
0000
0000
,
3001
0000
0000
0000
1000
0000
0000
0000
0001
0000
0000
0010
0000
0000
0100
0000
1000
0000
0000
0000
0010
0000
0000
0000
1000
0000
0000
0001
0000
0000
0100
0000
,
0001
0000
0000
0000
1000
0000
0000
0000
0001
0000
0000
0010
0000
0000
0100
0000
1000
0000
0000
0000
0010
0000
0000
0000
1000
0000
0000
0001
0000
0000
1000
0000
,
1000
0000
0000
0000
0100
0000
0000
0000
0010
0000
0000
0001
0000
0000
1000
0000
0001
0000
0000
0000
0010
0000
0000
0000
0100
0000
0000
0010
0000
0000
0001
0000
,
1000
0000
0000
0000
0001
0000
0000
0000
1000
0000
0000
0010
0000
0000
0100
0000
0010
0000
0000
0000
0100
0000
0010
0000
0100
0000
0000
0001
0000
0000
1000
0000
,
1000
0000
0001
0000
0010
0001
1000
0001
0010
0000
0100
0000
1000
0010
0100
0010
,
1000
0000
0100
0000
0010
0001
1000
0001
0010
0100
2000
0000
0001
0000
3002
0003
,
0010
0000
0000
0000
0100
0000
1000
0000
0100
0000
0000
1000
0000
0000
0001
0000
1000
0000
0000
0000
0100
0000
0010
0000
0001
0000
0000
1000
0000
0001
1000
0000
,
0010
0000
0000
0000
0100
0000
0010
0000
0100
0000
0000
0001
0000
0000
1000
0000
0001
0000
1000
0000
0000
0000
0000
0000
0100
0000
0000
1000
0000
0100
1000
0000
,
0001
0010
0100
1000
0001
0010
0100
1000
,
1100
0000
1001
0000
0001
0010
0100
0100
,
1000
0000
0001
0000
1000
0000
0001
0000
0010
0000
0000
0100
0000
0100
1000
0000
,
0001
0000
2000
0000
0000
0000
3200
0000
0000
0000
0300
0010
0000
0010
0100
0000
,
1000
0000
2000
0000
0000
0000
3002
0000
0000
0000
0003
1000
0000
1000
0001
0000
,
0100
0000
0010
0000
1000
0100
0010
0100
,
1000
0000
0001
0000
1000
0000
0001
0000
0010
0000
0000
0100
0000
0100
1000
0000
,
0001
0000
0020
0000
0000
0000
0230
0000
0000
0000
0300
1000
0000
1000
0001
0000
,
0100
0000
0002
0000
0000
0000
2003
0000
0000
0000
3000
0010
0000
0010
1000
0000
,
0001
0000
0100
0000
0001
0010
1000
0010
,
0001
0000
1000
0000
0001
0000
1000
0000
0100
0000
0000
0010
0000
0010
0001
0000
,
1000
0000
0020
0000
0000
0000
0230
0000
0000
0000
0300
0001
0000
0001
1000
0000
,
0100
0000
0020
0000
0000
0000
0032
0000
0000
0000
0003
1000
0000
1000
0010
0000
,
0100
0000
0010
0000
1000
0100
0010
0100
,
1000
0001
1000
0001
0010
0001
0020
0000
,
0130
0000
1000
0000
0002
0000
0000
0000
1000
0000
0003
1000
0000
1000
0100
0000
,
0010
0000
0001
0000
2000
0000
0000
0000
0001
0000
0000
3010
0000
0010
1000
0000
,
0001
0000
0000
0000
,
0000
0000
0000
0000
,
0001
0000
0000
2000
,
0000
3000
2000
0000
3000
2000
0000
0000
0000
3000
0200
0320
0000
0000
0000
0000
,
0030
0000
0002
0000
0000
0000
0003
0000
0000
0000
2000
0000
0000
0000
3000
0000
0020
0000
0030
0000
2000
0000
3000
0002
0000
0000
0000
0000
0003
0000
0000
0000
,
0000
0000
0000
0000
0000
0000
2000
0000
0000
0000
3000
0000
0200
0000
0000
0000
0300
0020
0000
0000
0000
0030
0000
0000
0002
0000
0000
0000
0000
0000
0000
0000
,
0003
0000
0000
0000
2000
0000
3100
1000
0000
0002
0000
0000
0000
0003
1000
0000
0100
0000
0000
1000
0000
0000
0000
0001
0000
0000
0000
0002
0000
0000
0000
0000
,
0000
0000
0000
0000
0000
0003
0000
0000
0000
0000
0000
0000
0000
0000
0000
2000
0000
0000
0000
3000
0100
0000
0020
0000
0000
0000
0031
0000
2000
0000
0000
0000
,
3020
0000
0000
0000
0030
2000
0000
0000
0000
0000
0000
0000
0000
3000
0000
0000
0000
0000
0000
0000
0000
0000
0000
0000
0002
0000
0000
0000
0003
0000
0020
0000
,
0000
0030
0001
0002
0003
2000
0000
3000
0010
0000
0020
0000
0200
0000
0000
0000
,
0000
0000
0000
0330
;

//---------------dance-single - ----------------
#NOTES:
     dance-single:
     X-Scale 3:
     Easy:
     3:
     0.186570,0.342823,0.046171,0.211069,0.003298,198.000000,191.000000,7.000000,32.000000,0.000000,0.000000,0.186570,0.342823,0.046171,0.211069,0.003298,198.000000,191.000000,7.000000,32.000000,0.000000,0.000000:
0000
0000
0000
0000
,
0000
0000
0000
0000
,
0000
0000
0000
0000
,
0000
0000
0000
0000
,
0000
0000
0000
0000
,
0000
0000
0000
0000
,
1001
0000
1000
0000
,
0002
0003
0010
0000
,
0200
0300
1000
0000
,
0002
0003
0010
0100
,
1010
0000
0001
0000
,
2000
3000
0100
0000
,
0020
0030
0001
0000
,
2000
3000
0001
0010
,
0101
0002
0000
1000
0000
0000
0003
0010
,
0020
0000
0000
0100
0000
0000
0000
0130
,
0010
0012
0000
0100
0000
0000
0000
1003
,
2000
0000
0000
0001
0000
0000
3001
1000
,
0001
0000
0000
0000
1000
0000
0100
1000
,
0002
2000
0003
0000
0020
0030
0020
3000
,
0230
0000
0000
0001
0301
0000
1000
2000
,
0000
0000
0000
0000
0000
0000
0000
3000
,
1001
0001
1000
0001
1000
0100
0010
0100
,
0010
0001
0100
0001
0100
0010
1000
0010
,
1000
0001
0010
0001
0010
0100
1000
0100
,
1000
0010
0100
0010
0100
0001
1000
0001
,
2000
0000
0000
0000
0001
0000
3200
0000
0300
2000
0000
0000
0001
0000
0000
0000
,
3010
0000
0000
0000
1000
0000
0000
0000
0100
0000
0020
0000
0000
0030
0002
0003
,
1000
0000
0010
1000
0001
0000
0010
0100
,
1000
0000
0001
1000
0100
0000
0001
0100
,
0001
0010
0100
1000
,
1001
0000
1001
0000
0001
0000
1000
0010
,
1000
0100
0010
0001
,
1000
0100
0010
0001
,
1000
0100
0010
0001
,
2000
0010
0001
0100
,
3001
1000
0001
0000
0010
0000
0100
0000
,
1000
0001
0010
0100
,
1000
0001
0010
0100
,
2000
0100
0001
0010
,
3001
1000
0001
0000
0100
0000
0010
0000
,
1000
0001
0100
0010
,
1000
0001
0100
0010
,
2000
0010
0001
0100
,
3001
1000
0001
0000
0100
0010
0200
0000
,
0302
0023
0230
2300
,
3001
1000
0002
0000
0203
0000
0310
0100
,
0000
0000
0000
0000
,
0000
0000
0000
0000
,
0000
0000
0000
1000
,
0000
0001
0000
0100
,
0000
0010
0000
1000
,
0000
0100
0000
0010
,
0000
0001
0000
0100
,
0000
0010
0000
1000
,
0000
0100
0000
0010
,
0000
0000
0001
0000
1000
2000
0000
0000
,
0000
0000
0000
3000
;

//---------------dance-single - ----------------
#NOTES:
     dance-single:
     X-Scale 1:
     Beginner:
     1:
     0.062190,0.093580,0.006596,0.000000,0.000000,66.000000,65.000000,1.000000,0.000000,0.000000,0.000000,0.062190,0.093580,0.006596,0.000000,0.000000,66.000000,65.000000,1.000000,0.000000,0.000000,0.000000:
0000
0000
0000
0000
,
0000
0000
0000
0000
,
0000
0000
0000
0000
,
0000
0000
0000
0000
,
0000
0000
0000
0000
,
0000
0000
0000
0000
,
0001
0000
0000
0000
,
1000
0000
0000
0000
,
0001
0000
0000
0000
,
1000
0000
0000
0000
,
0100
0000
0000
0000
,
0010
0000
0000
0000
,
0100
0000
0000
0000
,
0010
0000
0000
0000
,
0001
0000
0000
0000
,
1000
0000
0000
0000
,
0001
0000
0000
0000
,
1000
0000
0000
0000
,
0100
0000
0000
0000
,
0010
0000
0000
0000
,
0100
0000
0000
0000
,
0010
0000
0000
0000
,
0001
0000
0000
0000
,
0010
0000
0000
0000
,
0100
0000
0000
0000
,
1000
0000
0000
0000
,
0001
0000
0000
0000
,
0010
0000
0000
0000
,
0100
0000
0000
0000
,
1000
0000
0000
0000
,
0001
0000
1000
0000
,
1001
0000
0000
0000
,
1000
0000
0100
0000
,
1000
0000
0100
0000
,
0010
0000
0001
0000
,
0010
0000
0001
0000
,
1000
0000
0010
0000
,
1000
0000
0010
0000
,
0100
0000
0001
0000
,
0100
0000
0001
0000
,
0010
0000
0100
0000
,
0010
0000
0100
0000
,
1000
0000
0001
0000
,
1000
0000
0001
0000
,
0100
0000
0010
0000
,
0100
0000
0010
0000
,
1000
0000
0001
0000
,
0000
0000
0000
0000
,
0000
0000
0000
0000
,
0000
0000
0000
1000
,
0000
0000
0000
0100
,
0000
0000
0000
0010
,
0000
0000
0000
0001
,
0000
0000
0000
1000
,
0000
0000
0000
0100
,
0000
0000
0000
0010
,
0000
0000
0000
0001
;
