#VERSION:0.83;
#TITLE:Fate of Both Worlds;
#SUBTITLE:;
#ARTIST:Le'mon;
#TITLETRANSLIT:;
#SUBTITLETRANSLIT:;
#ARTISTTRANSLIT:;
#GENRE:K-Pop;
#ORIGIN:;
#CREDIT:;
#BANNER:FoBW-bn.png;
#BACKGROUND:FoBW-bg.png;
#PREVIEWVID:;
#JACKET:FoBW-jacket.png;
#CDIMAGE:;
#DISCIMAGE:;
#LYRICSPATH:;
#CDTITLE:cdtitle.png;
#MUSIC:FoBW.ogg;
#OFFSET:-0.139000;
#SAMPLESTART:61.230000;
#SAMPLELENGTH:17.455000;
#SELECTABLE:YES;
#BPMS:0.000=110.000;
#STOPS:;
#DELAYS:;
#WARPS:;
#TIMESIGNATURES:0.000=4=4;
#TICKCOUNTS:0.000=4;
#COMBOS:0.000=1;
#SPEEDS:0.000=1.000=0.000=0;
#SCROLLS:0.000=1.000;
#FAKES:;
#LABELS:0.000=Song Start;
#BGCHANGES:;
#KEYSOUNDS:;
#ATTACKS:
;

//---------------dance-single - ----------------
#NOTEDATA:;
#CHARTNAME:X-Scale 2;
#STEPSTYPE:dance-single;
#DESCRIPTION:;
#CHARTSTYLE:;
#DIFFICULTY:Beginner;
#METER:1;
#RADARVALUES:0.080691,0.132039,0.014671,0.000000,0.000000,77.000000,75.000000,2.000000,0.000000,0.000000,0.000000,0.000000,0.000000,0.000000,0.080691,0.132039,0.014671,0.000000,0.000000,77.000000,75.000000,2.000000,0.000000,0.000000,0.000000,0.000000,0.000000,0.000000;
#CREDIT:iamthek3n;
#NOTES:
// measure 0
0000
0000
0000
0000
,  // measure 1
0000
0000
0000
0000
,  // measure 2
0000
0000
0000
0000
,  // measure 3
0000
0000
0000
0000
,  // measure 4
0001
0000
0000
0000
,  // measure 5
1000
0000
0000
0000
,  // measure 6
0001
0000
0000
0000
,  // measure 7
1000
0000
0000
0000
,  // measure 8
0100
0000
0000
0000
,  // measure 9
0010
0000
0000
0000
,  // measure 10
0100
0000
0000
0000
,  // measure 11
0010
0000
0000
0000
,  // measure 12
0001
0000
0000
0000
,  // measure 13
1000
0000
0000
0000
,  // measure 14
0001
0000
0000
0000
,  // measure 15
1000
0000
0000
0000
,  // measure 16
0010
0000
0000
0000
,  // measure 17
0100
0000
0000
0000
,  // measure 18
0010
0000
0000
0000
,  // measure 19
0100
0000
0000
0000
,  // measure 20
0001
0000
0000
0000
,  // measure 21
0000
0000
0000
0000
,  // measure 22
1000
0000
0000
0000
,  // measure 23
0000
0000
0000
0000
,  // measure 24
0001
0000
0000
0000
,  // measure 25
0000
0000
0000
0000
,  // measure 26
1000
0000
0001
0000
,  // measure 27
1000
0000
0000
0000
,  // measure 28
1001
0000
0001
0000
,  // measure 29
1000
0000
0001
0000
,  // measure 30
1000
0000
0100
0000
,  // measure 31
0010
0000
0100
0000
,  // measure 32
0010
0000
0001
0000
,  // measure 33
1000
0000
0001
0000
,  // measure 34
1000
0000
0010
0000
,  // measure 35
0100
0000
0010
0000
,  // measure 36
0100
0000
0000
0000
,  // measure 37
0000
0000
0000
0000
,  // measure 38
0001
0000
0000
0000
,  // measure 39
0000
0000
0000
0000
,  // measure 40
1000
0000
0000
0000
,  // measure 41
0001
0000
0000
0000
,  // measure 42
1000
0000
0000
0000
,  // measure 43
0001
0000
0000
0000
,  // measure 44
1001
0000
1000
0000
,  // measure 45
0010
0000
1000
0000
,  // measure 46
0001
0000
1000
0000
,  // measure 47
0010
0000
1000
0000
,  // measure 48
0001
0000
0010
0000
,  // measure 49
0100
0000
0010
0000
,  // measure 50
0001
0000
0010
0000
,  // measure 51
0100
0000
0000
0000
,  // measure 52
1000
0000
0001
0000
,  // measure 53
1000
0000
0010
0000
,  // measure 54
1000
0000
0001
0000
,  // measure 55
0010
0000
0100
0000
,  // measure 56
0010
0000
0001
0000
,  // measure 57
0010
0000
0100
0000
,  // measure 58
0010
0000
0001
0000
,  // measure 59
1000
0000
0000
0000
,  // measure 60
0001
0000
0000
0000
;

//---------------dance-single - ----------------
#NOTEDATA:;
#CHARTNAME:X-Scale 5;
#STEPSTYPE:dance-single;
#DESCRIPTION:;
#CHARTSTYLE:;
#DIFFICULTY:Easy;
#METER:3;
#RADARVALUES:0.205395,0.264079,0.066020,0.205395,0.000000,196.000000,187.000000,9.000000,28.000000,0.000000,0.000000,0.000000,0.000000,0.000000,0.205395,0.264079,0.066020,0.205395,0.000000,196.000000,187.000000,9.000000,28.000000,0.000000,0.000000,0.000000,0.000000,0.000000;
#CREDIT:iamthek3n;
#NOTES:
// measure 0
0000
0000
0000
0000
,  // measure 1
0000
0000
0000
0000
,  // measure 2
0000
0000
0000
0000
,  // measure 3
0000
0000
0000
0000
,  // measure 4
1000
0000
0001
0000
,  // measure 5
1000
0000
0001
0000
,  // measure 6
0100
0000
0010
0000
,  // measure 7
0100
0000
0000
0020
0000
0032
0003
0000
,  // measure 8
1000
0000
0001
0000
,  // measure 9
1000
0000
0001
0000
,  // measure 10
0010
0000
0100
0000
,  // measure 11
0010
0000
0100
0000
,  // measure 12
1001
0001
1000
0010
,  // measure 13
0100
0000
0001
0000
1000
0000
0010
0100
,  // measure 14
0010
1000
0100
1000
,  // measure 15
0001
0000
0010
0000
0100
0000
0010
0001
,  // measure 16
0010
0100
1000
0001
,  // measure 17
1000
0000
0010
0000
0100
0000
0001
0100
,  // measure 18
0001
0000
1000
0000
0001
0000
1000
0200
,  // measure 19
0000
0310
0100
1000
0002
0000
2003
0000
,  // measure 20
3100
0000
0000
0000
0000
0000
0000
0001
,  // measure 21
0000
0000
0000
0000
,  // measure 22
0100
0000
0000
0000
0000
0000
0000
0010
,  // measure 23
0000
0000
0000
0000
,  // measure 24
1001
0000
0000
0000
1000
0001
0000
1001
,  // measure 25
0000
0000
0001
0000
0010
0100
0000
1000
,  // measure 26
1100
0100
2000
0002
,  // measure 27
3003
0000
0000
0000
,  // measure 28
1001
0000
1000
0000
0001
0010
0100
0000
,  // measure 29
0010
0000
0001
0000
1000
0000
0010
1000
,  // measure 30
0001
0000
0010
0100
1000
0000
0100
0010
,  // measure 31
0001
0000
1000
0000
0001
0000
0100
0010
,  // measure 32
1000
0000
0001
0000
0010
0000
0100
0010
,  // measure 33
0001
0000
1000
0000
0010
0000
1000
0100
,  // measure 34
2000
0000
3002
0000
0023
0000
0031
2000
,  // measure 35
0000
3200
0000
0320
0000
0000
0030
0000
,  // measure 36
0001
0000
0000
0000
0000
0000
0000
1000
,  // measure 37
0000
0000
0000
0000
,  // measure 38
0010
0000
0000
0000
0000
0000
0000
1000
,  // measure 39
0000
0000
0000
0000
,  // measure 40
1001
0000
0000
0000
,  // measure 41
0110
0000
0000
0000
,  // measure 42
1000
0001
2000
0002
,  // measure 43
3003
0000
0000
0000
,  // measure 44
1001
1000
0100
1000
,  // measure 45
0001
0000
0100
0000
0001
0000
0010
0100
,  // measure 46
1000
0000
0001
0000
1000
0000
0010
0100
,  // measure 47
0001
0000
1000
0000
0001
0000
0100
0010
,  // measure 48
1000
0000
0001
0000
0100
0000
0001
1000
,  // measure 49
0100
0000
0010
0000
0100
0000
1000
0001
,  // measure 50
0020
0000
0230
0000
2300
0000
3001
0200
,  // measure 51
0000
0302
0000
2003
0000
0000
3000
0000
,  // measure 52
1001
1000
0100
0010
,  // measure 53
0100
1000
0001
0100
,  // measure 54
0001
1000
0001
0100
,  // measure 55
0002
0000
0023
0000
0230
0000
0310
0001
,  // measure 56
1000
0100
0010
0100
,  // measure 57
1000
0001
0100
0001
,  // measure 58
1000
0000
0010
0000
0100
0000
0001
0020
,  // measure 59
0000
0230
0000
2300
0000
0000
0002
0000
,  // measure 60
3003
0000
0000
0000
;

//---------------dance-single - ----------------
#NOTEDATA:;
#CHARTNAME:X-Scale 9;
#STEPSTYPE:dance-single;
#DESCRIPTION:;
#CHARTSTYLE:;
#DIFFICULTY:Medium;
#METER:6;
#RADARVALUES:0.356297,0.374111,0.139375,0.308092,0.234737,340.000000,321.000000,19.000000,42.000000,0.000000,0.000000,0.000000,0.000000,0.000000,0.356297,0.374111,0.139375,0.308092,0.234737,340.000000,321.000000,19.000000,42.000000,0.000000,0.000000,0.000000,0.000000,0.000000;
#CREDIT:iamthek3n;
#NOTES:
// measure 0
0000
0000
0000
0000
,  // measure 1
0000
0000
0000
0000
,  // measure 2
0000
0000
0000
0000
,  // measure 3
0000
0000
0000
0002
0003
2000
3000
0000
,  // measure 4
1001
0000
1000
0000
0000
1000
0000
0000
1000
0000
0100
0000
0010
0000
0100
0000
,  // measure 5
1000
0000
0001
0000
0000
0001
0000
0000
0001
0000
0000
0000
0100
0000
0001
0000
,  // measure 6
1000
0000
0010
0000
0000
0010
0000
0000
0010
0000
0000
0000
1000
0000
0001
0000
,  // measure 7
1000
0000
0100
0000
0000
0100
0000
0000
0100
0000
0000
0000
1001
0000
0000
0000
,  // measure 8
0011
0000
0001
0000
0000
0001
0000
0000
0001
0000
0000
0001
0100
0000
0001
0000
,  // measure 9
1000
0000
0100
0000
0000
0100
0000
0000
0100
0000
0000
0100
0010
0000
0100
0000
,  // measure 10
1000
0000
0001
0000
0000
0001
0000
0000
0001
0000
0000
0001
1000
0000
0020
0000
,  // measure 11
0000
0031
0010
1000
0001
1000
0200
0300
,  // measure 12
1100
0000
1000
0000
0000
1000
0000
0000
0100
0000
0010
0000
0002
0000
0000
0000
,  // measure 13
1003
0000
0001
0000
0000
0001
0000
0000
0010
0000
0100
1000
0000
0000
0001
0000
,  // measure 14
1000
0000
0100
0000
0000
0100
0000
0000
0020
0000
0000
0130
2000
0000
0000
0000
,  // measure 15
3001
0000
0100
0000
0000
0100
0000
0000
0020
0000
0000
0130
0002
0000
0000
0000
,  // measure 16
1003
0000
0010
0000
0000
0010
0000
0000
1000
0000
0001
0000
0100
0000
0000
0000
,  // measure 17
0001
0000
1000
0000
0000
1000
0000
0000
0010
0000
0100
0001
0000
0000
1000
0000
,  // measure 18
0010
0100
1000
0001
0010
0100
0001
0020
,  // measure 19
0000
1030
0010
0100
2000
0000
3002
0000
,  // measure 20
0203
0000
0001
0000
0000
0000
0301
0002
,  // measure 21
0000
0100
0000
0103
,  // measure 22
0020
0000
1000
0000
0000
0000
1030
2000
,  // measure 23
0000
0001
0000
3001
,  // measure 24
1001
0000
1000
0000
0001
0010
0000
0011
,  // measure 25
0000
0000
0001
0000
0000
1000
0000
0000
0100
0000
0000
0000
1000
0000
0100
0000
,  // measure 26
2200
3300
0001
0100
0202
0303
2002
0000
,  // measure 27
3003
0000
0000
0000
0000
0001
0001
0000
,  // measure 28
1001
0000
1000
0100
0001
1000
0010
0100
,  // measure 29
1000
0000
0001
0200
0000
0001
0000
0000
0301
0000
0000
0000
1000
0000
0100
0000
,  // measure 30
0010
0000
0100
0000
0000
0100
0000
0000
0100
0000
0010
0000
1000
0000
0010
0000
,  // measure 31
0001
0000
0001
0000
0000
0001
0000
0000
0002
0000
0000
0000
1003
0000
0100
0000
,  // measure 32
1000
0000
0001
0000
0000
0001
0000
0000
0001
0000
1000
0000
0100
0000
0001
0000
,  // measure 33
0100
0000
1000
0002
0000
1000
0000
0000
1003
0000
0100
0000
0001
0000
0100
0000
,  // measure 34
1000
0000
0100
0000
0000
0100
0000
0000
0100
0000
0010
0000
0001
0000
1000
0000
,  // measure 35
0010
0000
0100
0000
0000
0100
0000
0000
0100
0000
0001
0000
0001
0000
0000
0000
,  // measure 36
0101
0000
0000
0000
1000
0000
0000
0002
,  // measure 37
0000
0023
0000
0130
2000
3000
2000
3000
,  // measure 38
0001
0000
1000
0000
,  // measure 39
0001
0000
1000
0000
,  // measure 40
1001
0000
0001
1000
0001
0000
1000
0000
,  // measure 41
0100
0000
0010
0100
0010
0000
0001
0000
,  // measure 42
0011
0000
0000
0000
1010
0000
0000
0000
1000
0000
1000
0000
0001
1000
0001
1000
,  // measure 43
0000
0000
0000
0000
0000
0100
0100
0000
,  // measure 44
1002
0000
0100
0000
1003
0100
0001
0100
,  // measure 45
1000
0000
0001
0200
0000
1000
0000
0000
0301
0000
0100
0000
0010
0000
0000
0000
,  // measure 46
1000
0000
0100
0000
0000
0100
0000
0000
0100
0000
1000
0000
0001
0000
0000
0000
,  // measure 47
1000
0000
0010
0000
0000
0010
0000
0000
0010
0000
0100
0000
0001
0000
0000
0000
,  // measure 48
1001
0000
1000
0000
0100
1000
0000
0000
0001
0000
0100
0000
1000
0000
0100
0000
,  // measure 49
0001
0000
1000
0200
0000
0001
0000
0000
1300
0000
0000
0000
0001
0000
0010
0000
,  // measure 50
2000
0000
3200
0000
0302
0000
1003
0200
,  // measure 51
0000
0000
0302
0000
0000
0000
0203
0000
0000
0000
1000
0000
1300
0100
1000
0000
,  // measure 52
1100
0000
0100
0000
0000
0100
0000
0000
1000
0001
0000
0100
0000
0001
0000
0000
,  // measure 53
0010
0000
0100
0000
0000
0100
0000
0000
0100
1000
0000
0001
0000
0100
0000
0000
,  // measure 54
0001
0000
1000
0000
0000
1000
0000
0000
1000
0001
0000
0010
0000
0001
0000
0000
,  // measure 55
0100
0000
0101
0000
0001
0000
1001
1000
,  // measure 56
0100
0000
1000
0000
0000
1000
0000
0000
1000
0001
0000
0100
0000
0001
0000
0000
,  // measure 57
0010
0000
0100
0000
0000
0100
0000
0000
0100
1000
0000
0001
0000
0100
0000
0000
,  // measure 58
0001
0000
1000
0000
0000
1000
0000
0000
1000
0100
0000
0010
0000
0001
0200
0000
,  // measure 59
0000
0320
0000
2030
0002
0000
3000
0000
,  // measure 60
0003
0000
0000
0000
;

//---------------dance-single - ----------------
#NOTEDATA:;
#CHARTNAME:X-Scale 11;
#STEPSTYPE:dance-single;
#DESCRIPTION:;
#CHARTSTYLE:;
#DIFFICULTY:Hard;
#METER:8;
#RADARVALUES:0.484144,0.506151,0.190724,0.242072,0.359440,462.000000,436.000000,26.000000,33.000000,0.000000,0.000000,0.000000,0.000000,0.000000,0.484144,0.506151,0.190724,0.242072,0.359440,462.000000,436.000000,26.000000,33.000000,0.000000,0.000000,0.000000,0.000000,0.000000;
#CREDIT:iamthek3n;
#NOTES:
// measure 0
0000
0000
0000
0000
,  // measure 1
0000
0000
0000
0000
,  // measure 2
0000
0000
0000
0000
,  // measure 3
1100
0000
0000
0000
1010
0000
0000
0000
0011
0000
1000
0000
1000
0001
1000
0000
,  // measure 4
1001
0000
0010
0001
1000
0100
0001
0100
,  // measure 5
1000
0001
0000
0000
1001
0000
0000
0000
0001
0000
0000
0001
0100
0000
0001
0000
,  // measure 6
0010
0000
0100
0000
1000
0000
0000
0000
0001
0000
0000
1000
0100
0000
1000
0000
,  // measure 7
0001
0000
0010
0000
0100
0010
0000
0000
0001
0000
0000
0010
0100
0000
1000
0000
,  // measure 8
0001
0000
0000
0000
1001
0000
0000
0000
0100
0000
0000
1000
0100
0000
1000
0000
,  // measure 9
0001
0000
0010
0000
0010
0100
0000
0000
0010
0000
0000
0001
1000
0001
1000
0000
,  // measure 10
0100
0000
0001
0000
0100
0000
0010
0000
0001
0000
0000
0001
1000
0000
0001
0000
,  // measure 11
0100
0000
0010
0000
0010
1000
0000
0000
1001
0000
0001
0000
0001
0100
0001
0000
,  // measure 12
1000
0000
0100
0010
0001
0000
0010
0100
1000
0000
0001
0000
1000
0000
0010
0000
,  // measure 13
0100
0010
1000
0000
0001
0100
0010
0000
1000
0000
0001
1000
0000
0000
0100
0000
,  // measure 14
0010
0000
0100
0010
0001
0000
1000
0001
0100
0000
0000
0010
0100
0000
0001
0000
,  // measure 15
1000
0000
0001
1000
0010
0000
1000
0000
0001
0000
0000
1000
0100
0000
1000
0000
,  // measure 16
0001
0000
1000
0100
0001
0000
1000
0010
0001
0000
1000
0000
0001
0000
0010
0000
,  // measure 17
1000
0010
0001
0000
1000
0001
0010
0000
0001
0000
1000
0010
0000
0000
1000
0000
,  // measure 18
0001
0010
0100
0001
1000
0010
0100
2000
,  // measure 19
0010
0000
3010
0000
1000
0000
0001
0000
1000
0000
0100
0000
0100
0010
0001
0000
,  // measure 20
0012
0000
1000
0000
0000
0000
0013
0200
,  // measure 21
0000
0010
0000
1300
,  // measure 22
0002
0000
0010
0000
0000
0000
1003
0200
,  // measure 23
0000
0010
0000
1300
,  // measure 24
1100
0000
1000
0000
0000
1000
0000
0000
0200
0000
0000
0000
0310
0000
0011
0000
,  // measure 25
0000
0000
0001
0000
0000
0001
0000
0000
0020
0000
0000
0000
0130
0000
1000
0000
,  // measure 26
0100
0001
0100
1000
0100
0010
0002
2000
,  // measure 27
3003
0000
0000
0000
0000
0000
0000
0000
0000
0000
1000
0000
1000
0001
0100
0000
,  // measure 28
0101
0000
0001
0000
0001
0100
0000
0000
0001
0000
0100
0000
1000
0000
0100
0000
,  // measure 29
0001
0000
1000
0200
0000
1000
0000
0000
0320
0000
0001
0000
1030
0010
0100
2000
,  // measure 30
0000
0000
3001
0000
1000
0010
0100
0002
0000
0000
0013
0000
0100
0010
0001
0020
,  // measure 31
0000
0000
0130
0000
1100
0000
1000
0000
0001
0000
0100
0010
0100
0000
0001
0000
,  // measure 32
0101
0000
1000
0000
0001
1000
0000
0000
0010
0000
1000
0000
0001
0000
1000
0000
,  // measure 33
0001
0000
0010
0200
0000
0010
0000
0000
2300
0000
0000
0000
3010
0000
1000
0000
,  // measure 34
0001
0000
0100
0000
0010
0100
0000
0000
0001
0000
1000
0100
1000
0000
0200
0000
,  // measure 35
0010
0000
0320
0000
0001
0000
0032
0000
0010
0000
1000
0000
1003
0001
1000
0000
,  // measure 36
1001
0000
0100
0000
1100
0000
1000
0002
,  // measure 37
0000
0203
0000
0310
0110
0000
1000
0000
,  // measure 38
0100
0000
0000
0000
0000
0000
1000
0000
0000
0000
0001
0000
0010
0000
0000
0000
0000
0000
0100
0000
0000
0000
0000
0000
1100
0000
0000
0000
0000
0000
0000
0000
0000
0000
0000
0000
0000
0000
0000
0000
0000
0000
1000
0000
0000
0001
0000
0000
,  // measure 39
1000
0000
0000
0001
0000
0100
0001
0000
0000
0100
0000
0000
0101
0000
0000
0000
0000
0000
0000
0000
0000
0000
0000
0000
,  // measure 40
1001
0000
0000
0000
1000
0000
0100
0000
0010
0000
0001
0010
0001
0000
1000
0000
,  // measure 41
1001
0000
0000
0000
0001
0000
1000
0000
0010
0000
1000
0010
1000
0000
0100
0000
,  // measure 42
0010
0000
0000
0000
0100
0000
0000
0000
1000
0000
0001
0000
1000
0010
0100
0001
,  // measure 43
0000
0000
0000
0000
0000
0000
0000
0000
0000
0000
0100
0000
0100
0010
1000
0000
,  // measure 44
1010
0001
1000
0100
0001
1000
0010
0100
,  // measure 45
1000
0000
0001
0200
0000
0010
0000
0000
0310
0000
0100
0000
1000
0100
0010
2000
,  // measure 46
0000
0000
3001
0000
0100
0001
1000
0020
0000
0000
1030
0000
0100
0010
0001
0200
,  // measure 47
0000
0000
0301
0000
0011
0000
1000
0000
0001
0000
0100
0001
1000
0000
0100
0000
,  // measure 48
1000
0010
0001
0010
1000
0001
1000
0100
,  // measure 49
0010
0000
0001
0200
0000
0000
0010
0000
0310
0000
0100
0010
1000
0000
0001
0000
,  // measure 50
0100
0010
1010
0000
1000
0001
1000
0010
,  // measure 51
0100
0000
1000
0000
0100
0000
0020
0000
0000
0000
1030
0000
1000
0001
1000
0000
,  // measure 52
1001
0000
0001
0000
0100
0001
0000
0000
1000
0010
0000
1000
0000
0001
0000
0001
,  // measure 53
0100
0000
0001
0000
0010
0100
0000
0000
1000
0001
0000
0010
0000
0001
0000
0010
,  // measure 54
0100
0000
1000
0000
0010
1000
0000
0000
0001
1000
0000
0100
0010
0100
1000
0002
,  // measure 55
0000
0103
0101
1000
0001
0000
1001
1000
,  // measure 56
0001
0000
0010
0000
0100
0010
0000
0000
0001
0010
0000
0001
0000
1000
0000
0100
,  // measure 57
1000
0000
0001
0000
1000
0010
0000
0000
1000
0001
0000
0100
0000
0001
0100
0001
,  // measure 58
1000
0000
0001
0000
0010
0100
0000
0000
1000
0001
0000
1000
0000
0010
2000
0000
,  // measure 59
0000
0000
3200
0000
0000
0000
0320
0000
0000
0000
1000
0000
1030
0020
0002
0000
,  // measure 60
0033
0000
0000
0000
;
