#TITLE:Fais Beleck;
#SUBTITLE:;
#ARTIST:Bilal Hassani;
#TITLETRANSLIT:;
#SUBTITLETRANSLIT:;
#ARTISTTRANSLIT:;
#GENRE:Pop;
#CREDIT:;
#BANNER:Fais Beleck-bn.png;
#BACKGROUND:Fais Beleck-bg.png;
#LYRICSPATH:;
#CDTITLE:cdtitle.png;
#MUSIC:Fais Beleck.ogg;
#OFFSET:-0.006000;
#SAMPLESTART:35.178001;
#SAMPLELENGTH:16.552000;
#SELECTABLE:YES;
#BPMS:0.000000=116.000000
;
#STOPS:
;
#BGCHANGES:
;
#KEYSOUNDS:;
#ATTACKS:;

//---------------dance-single - ----------------
#NOTES:
     dance-single:
     X-Scale 12:
     Hard:
     8:
     0.545534,0.568285,0.103442,0.267225,0.564621,443.000000,431.000000,12.000000,31.000000,18.000000,0.000000,0.545534,0.568285,0.103442,0.267225,0.564621,443.000000,431.000000,12.000000,31.000000,18.000000,0.000000:
// measure 0
0000
0000
0000
0000
,  // measure 1
0000
0000
0000
0000
,  // measure 2
0000
0000
0000
0000
,  // measure 3
0000
0000
0000
0000
,  // measure 4
1000
0000
0000
0100
0010
0000
0100
0000
1000
0000
0001
0100
0010
1000
0001
0000
,  // measure 5
0010
0000
0000
0002
0203
2300
3200
0000
,  // measure 6
0301
0000
0100
0001
1000
0001
0010
0100
1000
0000
0010
1000
0001
0000
0100
0000
,  // measure 7
0010
0000
0000
0000
0000
0000
2000
0000
3000
0000
2000
0000
3200
0000
0000
0300
,  // measure 8
0110
0000
1000
0100
0001
0000
0001
0100
,  // measure 9
1000
0000
0000
0000
0001
0000
0100
0000
0010
0000
0000
1000
0010
0000
1000
0000
,  // measure 10
0001
0000
0000
0000
0010
0000
0100
1000
0100
0000
1000
0001
1000
0000
0010
0000
,  // measure 11
0100
0010
1000
0001
0010
0000
0100
1000
0001
1000
0010
0000
0001
0000
0010
0000
,  // measure 12
0100
0000
0001
0100
1000
0000
1000
0100
,  // measure 13
0001
0000
0000
0000
1000
0000
0010
1000
0001
0000
0000
0010
0001
0000
1000
0000
,  // measure 14
0001
0000
0000
0000
0010
0000
0100
1000
0001
1000
0000
0010
1000
0000
0000
0000
,  // measure 15
0001
0100
0010
0100
0001
0000
1000
0100
0010
0100
1000
0000
0001
0000
0100
0000
,  // measure 16
0020
0000
0000
0000
0000
0000
1030
0010
0001
1000
0100
0001
,  // measure 17
0011
0000
0000
0010
0001
0000
1000
0000
0100
0000
00M0
0100
0001
0000
1000
0000
,  // measure 18
0001
0000
0000
0100
0010
0000
1000
0000
0001
0000
0010
0100
0010
0000
0001
0000
,  // measure 19
1000
0000
0000
0100
1000
0000
0001
0000
0100
0000
00M0
0100
1000
0000
0001
0000
,  // measure 20
1000
0000
0000
0000
0000
0000
0000
0000
0000
0010
0000
0000
0100
0000
0000
0000
0000
0000
0001
0000
0000
0000
0000
0000
1000
0000
0000
0000
0100
0000
0000
0000
0001
0000
0000
0000
1000
0000
0000
0000
0010
0000
0000
0000
0001
0000
0000
0000
,  // measure 21
1000
0000
0000
0100
1000
0000
0001
0000
0010
0000
0100
0010
0100
0000
0010
0000
,  // measure 22
0001
0000
0000
1000
0100
0000
1000
0000
0010
0000
0100
0010
0100
0000
0001
0000
,  // measure 23
0010
0000
0M00
0010
1000
0000
0001
0000
0100
0000
0010
0100
0010
0000
1000
0000
,  // measure 24
0000
0000
0020
0000
0030
2000
0000
3000
0002
0000
0003
0000
0020
0000
0230
0000
,  // measure 25
1300
0000
0000
0100
1000
0000
0001
0000
0000
0010
0001
0000
0011
0000
0000
0000
,  // measure 26
1000
0000
0000
0100
0010
0000
0001
0000
0000
1000
0010
0000
1010
0000
0000
0000
,  // measure 27
0001
0000
0000
0010
0001
0000
1000
0000
0000
0010
0100
0000
0110
0000
0000
0000
,  // measure 28
1000
0000
0000
0001
0100
0000
0001
0000
0000
0100
0001
0000
0101
0000
0000
0000
,  // measure 29
0010
0000
0000
0000
0000
0000
0000
0000
0000
1000
0000
0000
0001
0000
0000
0000
1000
0000
0001
0000
0000
0000
0000
0000
0010
0000
0000
0000
0000
0000
0100
0000
0000
0000
0000
0000
2000
0000
0000
0000
0000
0000
0000
0000
0000
0000
0000
0000
,  // measure 30
3010
0000
0000
1000
0001
0010
0M00
0010
1000
0000
0001
0000
0020
0000
0000
0000
,  // measure 31
0130
0000
0000
1000
0001
0010
0M00
0010
1000
0000
0001
0000
0020
0000
0000
0130
,  // measure 32
0020
0000
0000
0130
0020
0000
0000
0130
0020
0000
0032
0000
2003
0000
0000
0000
,  // measure 33
3010
0000
0000
0100
0010
1000
0010
0000
0100
0000
0001
0000
0020
0000
0000
0000
,  // measure 34
0130
0000
0000
0010
0001
0100
00M0
0100
1000
0000
0001
0000
0020
0000
0000
0000
,  // measure 35
0130
0000
0000
0010
0001
0100
00M0
0100
1000
0000
0001
0000
0020
0000
0000
0130
,  // measure 36
0020
0000
0000
0130
0020
0000
0000
0130
0020
0000
0032
0000
2003
0000
0000
0000
,  // measure 37
0000
0000
0000
0000
0000
0000
0000
0000
0000
0000
0000
0000
0000
0000
0000
3000
,  // measure 38
L000
0000
0000
0000
0000
0000
0000
0000
0000
MMMM
0000
0000
1000
0000
0100
0000
0001
0000
1000
0000
0010
0000
0001
0000
,  // measure 39
1001
0000
0001
1000
0100
0000
1000
0000
0001
0000
0000
0100
0010
0000
0100
0000
,  // measure 40
0001
0000
0010
0100
1000
0000
0001
0000
0100
0000
0010
0100
0010
0000
1000
0000
,  // measure 41
0001
0000
0100
0001
1000
0000
0100
0000
0010
0000
0000
0001
0100
0000
0001
0000
,  // measure 42
1000
0000
0100
0010
0001
0000
1000
0000
0001
0010
0100
1000
0001
0010
0100
1000
,  // measure 43
0001
0000
0100
0010
1000
0000
0100
0000
1000
0010
0M00
0010
0001
0000
0100
0000
,  // measure 44
0001
0000
0010
0100
1000
0000
0001
0000
0100
0010
M000
0010
0001
0000
1000
0000
,  // measure 45
0010
0000
0100
0010
1000
0000
0001
0000
1000
0100
00M0
0100
0001
0000
0010
0000
,  // measure 46
0101
0000
0000
1100
0000
0000
0001
0010
1000
0001
0100
1000
,  // measure 47
1100
0000
0000
0000
0000
0000
0000
0000
0000
1000
0000
0000
0100
0000
0000
0000
1000
0000
0001
0000
0000
0000
0000
0000
0010
0000
0000
0000
0000
0000
0100
0000
0000
0000
0000
0000
2000
0000
0000
0000
0000
0000
0001
0000
0000
0000
0000
0000
,  // measure 48
3001
0000
0000
1000
0010
0100
000M
0100
1000
0000
0001
0100
0001
0000
1000
0000
,  // measure 49
1010
0000
0000
1000
0010
0100
000M
0100
1000
0000
0001
0100
0010
0000
1000
0000
,  // measure 50
0001
0000
0000
0010
0001
0000
1000
0000
0010
0000
0100
0010
1000
0001
0100
0010
,  // measure 51
1000
0000
0000
0001
0010
0001
1000
0000
0100
0000
0010
0000
0002
0000
1000
0000
,  // measure 52
1003
0000
0000
0001
0100
0010
M000
0010
0001
0000
1000
0010
1000
0000
0001
0000
,  // measure 53
1100
0000
0000
0001
0100
0010
M000
0010
0001
0000
1000
0010
0100
0000
0001
0000
,  // measure 54
0010
0000
0000
0100
1000
0000
0001
0000
1000
0000
0001
0010
0100
0010
0001
0010
;

//---------------dance-single - ----------------
#NOTES:
     dance-single:
     X-Scale 9:
     Medium:
     6:
     0.434703,0.474109,0.181024,0.663753,0.284466,353.000000,332.000000,21.000000,77.000000,0.000000,0.000000,0.434703,0.474109,0.181024,0.663753,0.284466,353.000000,332.000000,21.000000,77.000000,0.000000,0.000000:
// measure 0
0000
0000
0000
0000
,  // measure 1
0000
0000
0000
0000
,  // measure 2
0000
0000
0000
0000
,  // measure 3
0000
0000
0000
0000
,  // measure 4
0001
0000
1000
0010
0001
0000
1000
0100
,  // measure 5
0001
0000
0000
2000
3020
2030
3002
0000
,  // measure 6
0000
0013
0001
1000
0010
0100
0001
0010
,  // measure 7
0100
0000
0000
0000
0000
0000
2000
0000
3000
0000
2000
0000
3002
0000
0000
0003
,  // measure 8
1001
0000
1000
0100
0010
0000
0100
0010
,  // measure 9
0001
0000
1000
0000
0001
0000
0010
0200
,  // measure 10
1000
0000
0310
0100
1000
0001
1000
0000
,  // measure 11
0010
0100
0001
1000
0100
0010
0001
1000
,  // measure 12
0001
0000
0100
0010
1000
0000
0010
0100
,  // measure 13
0001
0000
0000
0000
0010
0000
0100
0010
0100
0000
0000
0000
1000
0000
0020
0000
,  // measure 14
0001
0000
0000
0000
0130
0000
0010
0000
1000
0100
0000
0010
0001
0000
0000
0000
,  // measure 15
1000
0010
0001
0010
0100
0010
1000
0001
,  // measure 16
0020
0000
0130
0100
,  // measure 17
0110
0000
0002
0000
0003
2000
0000
3000
0002
0000
0000
0003
0020
0000
0000
0030
,  // measure 18
0100
0000
2000
0000
3000
0002
0000
0003
0200
0000
0000
0300
0020
0000
0230
0000
,  // measure 19
0301
0000
0020
0000
0030
0200
0000
0300
0020
0000
0000
0030
0002
0000
0000
0003
,  // measure 20
1000
0000
0020
0000
0030
0200
0000
0300
0002
0000
0000
0003
2000
0000
3020
0000
,  // measure 21
1030
0000
0002
0000
0003
0020
0000
0030
0002
0000
0000
0003
2000
0000
0010
3000
,  // measure 22
0010
0000
0200
0000
0300
0002
0000
0003
2000
0000
0000
3000
0200
0000
0320
0000
,  // measure 23
0031
0000
2000
0000
3000
0002
0000
0003
0200
0000
0000
0300
0020
0000
1000
0030
,  // measure 24
0000
0000
0200
0000
0300
0020
0000
0030
0002
0000
0000
0003
2000
3000
0002
0003
,  // measure 25
1001
0000
0000
0000
1100
0000
1000
0000
0000
1000
0001
0000
1001
0000
0000
0000
,  // measure 26
0101
0000
0000
0000
0110
0000
0010
0000
0000
0010
1000
0000
1001
0000
0000
0000
,  // measure 27
0011
0000
0000
0000
1010
0000
0010
0000
0000
0010
0100
0000
1010
0000
0000
0000
,  // measure 28
1001
0000
0000
0000
0011
0000
0001
0000
0000
0001
1000
0000
1100
0000
0000
0000
,  // measure 29
1001
0000
0000
0000
0000
0000
1000
0000
0010
1000
0000
0000
0001
0000
0000
0010
0000
0000
0200
0000
0000
0000
0000
0000
,  // measure 30
1300
0000
0000
0000
0001
0100
0000
0010
1000
0000
0100
0000
0020
0000
0000
0000
,  // measure 31
0031
0000
0000
0000
0001
0100
0000
0010
1000
0000
0100
0000
0020
0000
0000
0130
,  // measure 32
0020
0000
0000
0130
0020
0000
0000
0130
0020
0000
0032
0000
2003
0000
0000
0000
,  // measure 33
3100
0000
0000
0000
0001
0100
0001
0000
1000
0000
0100
0000
0020
0000
0000
0000
,  // measure 34
0031
0000
0000
0000
1000
0100
0000
0010
0001
0000
1000
0000
0020
0000
0000
0000
,  // measure 35
1030
0000
0000
0000
1000
0100
0000
0010
0001
0000
1000
0000
0020
0000
0000
1030
,  // measure 36
0020
0000
0000
1030
0020
0000
0000
1030
0020
0000
0230
0000
0302
0000
0000
0000
,  // measure 37
0000
0000
0000
0000
,  // measure 38
0003
0000
1000
0001
,  // measure 39
1001
0000
0000
1000
0100
0000
1000
0000
0001
0000
0000
0010
0100
0000
0010
0000
,  // measure 40
0001
0000
0000
1000
0010
0000
1000
0000
0001
0000
0100
0010
0100
0000
0010
0000
,  // measure 41
1000
0000
0000
1000
0001
0000
0010
0000
0100
0000
0000
1000
0001
0000
0010
0000
,  // measure 42
0100
0000
0000
0010
0001
0000
1000
0000
0100
0000
0000
0010
0001
0000
1000
0000
,  // measure 43
0100
0000
0000
1000
0001
0000
0100
0000
0010
0000
0000
1000
0001
0000
0100
0000
,  // measure 44
0010
0000
0000
1000
0001
0000
0010
0000
0001
0000
1000
0010
1000
0000
0100
0000
,  // measure 45
0010
0000
0000
0001
0100
0000
0010
0000
0100
0000
0000
0001
1000
0000
0100
0000
,  // measure 46
1010
0101
1010
0101
,  // measure 47
1001
0000
0000
1000
0100
0000
1000
0000
0001
0000
0010
0000
0200
0000
0000
0000
,  // measure 48
1300
0000
0000
0100
0010
0001
0000
1000
0001
0000
0100
0010
0200
0000
0000
0000
,  // measure 49
1300
0000
0000
0100
0010
0100
0000
0001
0010
0000
0100
0000
2000
0000
0000
3100
,  // measure 50
2000
0000
0000
3100
2000
0000
0000
3100
2000
0000
3001
0000
0200
0000
0000
0000
,  // measure 51
0310
0000
0000
1000
0010
0000
1000
0000
0001
0000
0010
0000
0200
0000
0000
0000
,  // measure 52
1300
0000
0000
0001
0100
0001
0000
1000
0100
0000
0010
0000
0002
0000
0000
0000
,  // measure 53
1003
0000
0000
0001
0100
0001
0000
1000
0100
0000
0010
0000
0002
0000
0000
0013
,  // measure 54
0002
0000
0000
0013
0002
0000
0000
0013
0002
0000
2003
0000
3020
0000
0000
0000
,  // measure 55
0030
0000
0000
0000
;

//---------------dance-single - ----------------
#NOTES:
     dance-single:
     X-Scale 3:
     Easy:
     3:
     0.270920,0.284466,0.103442,0.224124,0.000000,220.000000,208.000000,12.000000,26.000000,0.000000,0.000000,0.270920,0.284466,0.103442,0.224124,0.000000,220.000000,208.000000,12.000000,26.000000,0.000000,0.000000:
// measure 0
0000
0000
0000
0000
,  // measure 1
0000
0000
0000
0000
,  // measure 2
0000
0000
0000
0000
,  // measure 3
0000
0000
0000
0000
,  // measure 4
1000
0000
0001
0000
,  // measure 5
1000
0000
0000
0001
0100
0001
2000
0000
,  // measure 6
3010
0000
0000
0000
0100
0000
0010
0100
,  // measure 7
0010
0000
0000
1000
0000
1000
1000
0000
,  // measure 8
1100
0100
0010
0001
,  // measure 9
1000
0100
0010
0001
,  // measure 10
1000
0010
0100
0001
,  // measure 11
1000
0000
0010
0000
0100
0000
0001
1000
,  // measure 12
0001
0010
0100
1000
,  // measure 13
0001
0010
0100
1000
,  // measure 14
0001
0100
0010
1000
,  // measure 15
0001
0000
0100
0000
0010
0000
1000
0001
,  // measure 16
2000
0000
3000
0000
,  // measure 17
1001
1000
0100
0010
,  // measure 18
0100
0000
1000
0000
0001
0000
0100
0010
,  // measure 19
0100
0001
0010
0100
,  // measure 20
0010
0000
0001
0000
1000
0000
0010
0100
,  // measure 21
0010
1000
0010
0100
,  // measure 22
0010
0000
1000
0000
0001
0000
0010
0100
,  // measure 23
0010
0001
0100
0010
,  // measure 24
1000
0000
0000
0000
,  // measure 25
0000
1001
0000
1001
,  // measure 26
0000
0110
0000
0110
,  // measure 27
0000
1001
0000
1001
,  // measure 28
0000
0110
0000
0110
,  // measure 29
1000
0000
0001
0000
1000
0100
0020
0000
,  // measure 30
0031
0000
1000
0000
0001
0100
0020
0000
,  // measure 31
0030
0000
0000
0000
1000
0000
0000
0000
0001
0000
0100
0000
0020
0000
0000
0030
,  // measure 32
0020
0000
0000
0030
0020
0000
0000
0030
0010
0000
0100
0000
0002
0000
0000
0000
,  // measure 33
0013
0000
0100
0000
1000
0001
0200
0000
,  // measure 34
0310
0000
1000
0000
0001
0010
0200
0000
,  // measure 35
0310
0000
0000
0000
0001
0000
0000
0000
0001
0000
0010
0000
0200
0000
0000
0300
,  // measure 36
0200
0000
0000
0300
0200
0000
0000
0300
0100
0000
1000
0000
0002
0000
0000
0000
,  // measure 37
0000
0000
0000
0000
,  // measure 38
0003
0000
0000
0000
,  // measure 39
1001
0000
1000
0000
0010
0000
1000
0010
,  // measure 40
1000
0000
0001
0000
0010
0000
0001
0010
,  // measure 41
0001
0000
1000
0000
0010
0000
1000
0010
,  // measure 42
1000
0000
0001
0000
0010
0000
0001
0010
,  // measure 43
0001
0000
0100
0000
0010
0000
0100
0010
,  // measure 44
0100
0000
0001
0000
1000
0000
0001
1000
,  // measure 45
0001
0000
0100
0000
0010
0000
0100
0010
,  // measure 46
0100
0100
0010
0010
,  // measure 47
1001
0000
1000
0000
0001
0010
0200
0000
,  // measure 48
1300
0000
0001
0000
1000
0010
0200
0000
,  // measure 49
0301
0000
1000
0000
1000
0010
0200
0000
,  // measure 50
0320
0000
0230
0000
0301
0010
0200
0000
,  // measure 51
1300
0000
0001
0000
0010
0100
2000
0000
,  // measure 52
3001
0000
1000
0000
0010
0100
0002
0000
,  // measure 53
1003
0000
0010
0000
0010
0100
0002
0000
,  // measure 54
2003
0000
3002
0000
0013
0100
2000
0000
,  // measure 55
3000
0000
0000
0000
;

//---------------dance-single - ----------------
#NOTES:
     dance-single:
     X-Scale 1:
     Beginner:
     1:
     0.110831,0.140940,0.017240,0.000000,0.000000,90.000000,88.000000,2.000000,0.000000,0.000000,0.000000,0.110831,0.140940,0.017240,0.000000,0.000000,90.000000,88.000000,2.000000,0.000000,0.000000,0.000000:
0000
0000
0000
0000
,
0000
0000
0000
0000
,
0000
0000
0000
0000
,
0000
0000
0000
0000
,
0001
0000
0000
0000
,
0000
0000
0000
0000
,
1000
0000
0000
0000
,
0000
0000
0000
0000
,
0001
0000
0010
0000
,
0001
0000
0010
0000
,
0100
0000
1000
0000
,
0100
0000
1000
0000
,
0010
0000
0100
0000
,
0010
0000
0100
0000
,
0001
0000
1000
0000
,
0001
0000
1000
0000
,
0000
0000
0000
0000
,
1001
0000
1000
0000
,
0010
0000
1000
0000
,
0010
0000
0100
0000
,
0001
0000
0100
0000
,
0001
0000
0010
0000
,
0100
0000
0010
0000
,
0100
0000
1000
0000
,
0000
0000
0000
0000
,
0000
1000
0000
1000
,
0000
0001
0000
0001
,
0000
1000
0000
1000
,
0000
0001
0000
0001
,
0000
0100
0000
0100
,
0000
0010
0000
0010
,
0000
0100
0000
0100
,
0000
0010
0000
0010
,
0000
1000
0000
1000
,
0000
0100
0000
0100
,
0000
0010
0000
0010
,
0000
0001
0000
0001
,
0000
0000
0000
0000
,
0000
0000
0000
0000
,
1001
0000
1000
0000
,
0100
0000
1000
0000
,
0100
0000
0010
0000
,
0001
0000
0010
0000
,
0001
0000
1000
0000
,
0010
0000
1000
0000
,
0010
0000
0100
0000
,
0001
0000
0100
0000
,
0001
0000
0010
0000
,
0100
0000
1000
0000
,
0001
0000
0100
0000
,
0010
0000
1000
0000
,
0001
0000
0010
0000
,
0100
0000
1000
0000
,
0001
0000
0100
0000
,
0010
0000
1000
0000
;
